  0
SECTION
  2
HEADER
  9
$ACADVER
  1
AC1024
  9
$ACADMAINTVER
 70
     6
  9
$DWGCODEPAGE
  3
ANSI_1252
  9
$INSBASE
 10
0.0
 20
0.0
 30
0.0
  9
$EXTMIN
 10
-0.0480524721097027
 20
-0.0679599248405793
 30
-0.0000000000000058
  9
$EXTMAX
 10
1050.048072030928
 20
1485.067987586599
 30
0.0000000000000104
  9
$LIMMIN
 10
0.0
 20
0.0
  9
$LIMMAX
 10
1050.0
 20
1485.0
  9
$ORTHOMODE
 70
     0
  9
$REGENMODE
 70
     1
  9
$FILLMODE
 70
     1
  9
$QTEXTMODE
 70
     0
  9
$MIRRTEXT
 70
     1
  9
$LTSCALE
 40
30.0
  9
$ATTMODE
 70
     1
  9
$TEXTSIZE
 40
25.0
  9
$TRACEWID
 40
1.0
  9
$TEXTSTYLE
  7
Standard
  9
$CLAYER
  8
09-01
  9
$CELTYPE
  6
ByLayer
  9
$CECOLOR
 62
   256
  9
$CELTSCALE
 40
1.0
  9
$DISPSILH
 70
     0
  9
$DIMSCALE
 40
5.0
  9
$DIMASZ
 40
2.5
  9
$DIMEXO
 40
1.0
  9
$DIMDLI
 40
10.0
  9
$DIMRND
 40
0.0
  9
$DIMDLE
 40
0.0
  9
$DIMEXE
 40
1.0
  9
$DIMTP
 40
0.0
  9
$DIMTM
 40
0.0
  9
$DIMTXT
 40
2.5
  9
$DIMCEN
 40
0.0
  9
$DIMTSZ
 40
0.0
  9
$DIMTOL
 70
     0
  9
$DIMLIM
 70
     0
  9
$DIMTIH
 70
     0
  9
$DIMTOH
 70
     0
  9
$DIMSE1
 70
     0
  9
$DIMSE2
 70
     0
  9
$DIMTAD
 70
     1
  9
$DIMZIN
 70
     8
  9
$DIMBLK
  1

  9
$DIMASO
 70
     1
  9
$DIMSHO
 70
     1
  9
$DIMPOST
  1

  9
$DIMAPOST
  1

  9
$DIMALT
 70
     0
  9
$DIMALTD
 70
     3
  9
$DIMALTF
 40
0.03937007874016
  9
$DIMLFAC
 40
1.0
  9
$DIMTOFL
 70
     1
  9
$DIMTVP
 40
0.0
  9
$DIMTIX
 70
     0
  9
$DIMSOXD
 70
     0
  9
$DIMSAH
 70
     0
  9
$DIMBLK1
  1

  9
$DIMBLK2
  1

  9
$DIMSTYLE
  2
Wagner
  9
$DIMCLRD
 70
     4
  9
$DIMCLRE
 70
     4
  9
$DIMCLRT
 70
     1
  9
$DIMTFAC
 40
1.0
  9
$DIMGAP
 40
1.0
  9
$DIMJUST
 70
     0
  9
$DIMSD1
 70
     0
  9
$DIMSD2
 70
     0
  9
$DIMTOLJ
 70
     0
  9
$DIMTZIN
 70
     8
  9
$DIMALTZ
 70
     0
  9
$DIMALTTZ
 70
     0
  9
$DIMUPT
 70
     0
  9
$DIMDEC
 70
     8
  9
$DIMTDEC
 70
     8
  9
$DIMALTU
 70
     2
  9
$DIMALTTD
 70
     3
  9
$DIMTXSTY
  7
Standard
  9
$DIMAUNIT
 70
     0
  9
$DIMADEC
 70
     2
  9
$DIMALTRND
 40
0.0
  9
$DIMAZIN
 70
     2
  9
$DIMDSEP
 70
    46
  9
$DIMATFIT
 70
     3
  9
$DIMFRAC
 70
     0
  9
$DIMLDRBLK
  1

  9
$DIMLUNIT
 70
     2
  9
$DIMLWD
 70
    -2
  9
$DIMLWE
 70
    -2
  9
$DIMTMOVE
 70
     0
  9
$DIMFXL
 40
1.0
  9
$DIMFXLON
 70
     0
  9
$DIMJOGANG
 40
0.7853981633974483
  9
$DIMTFILL
 70
     0
  9
$DIMTFILLCLR
 70
     0
  9
$DIMARCSYM
 70
     0
  9
$DIMLTYPE
  6

  9
$DIMLTEX1
  6

  9
$DIMLTEX2
  6

  9
$DIMTXTDIRECTION
 70
     0
  9
$LUNITS
 70
     2
  9
$LUPREC
 70
     2
  9
$SKETCHINC
 40
1.0
  9
$FILLETRAD
 40
0.0
  9
$AUNITS
 70
     0
  9
$AUPREC
 70
     0
  9
$MENU
  1
.
  9
$ELEVATION
 40
0.0
  9
$PELEVATION
 40
0.0
  9
$THICKNESS
 40
0.0
  9
$LIMCHECK
 70
     0
  9
$CHAMFERA
 40
0.0
  9
$CHAMFERB
 40
0.0
  9
$CHAMFERC
 40
20.0
  9
$CHAMFERD
 40
0.0
  9
$SKPOLY
 70
     0
  9
$TDCREATE
 40
2454481.584885197
  9
$TDUCREATE
 40
2454481.501551863
  9
$TDUPDATE
 40
2456930.357972790
  9
$TDUUPDATE
 40
2456930.274639456
  9
$TDINDWG
 40
4.9708868866
  9
$TDUSRTIMER
 40
4.9708868866
  9
$USRTIMER
 70
     1
  9
$ANGBASE
 50
0.0
  9
$ANGDIR
 70
     0
  9
$PDMODE
 70
     0
  9
$PDSIZE
 40
-1.0
  9
$PLINEWID
 40
0.0
  9
$SPLFRAME
 70
     0
  9
$SPLINETYPE
 70
     6
  9
$SPLINESEGS
 70
     8
  9
$HANDSEED
  5
4CF
  9
$SURFTAB1
 70
     6
  9
$SURFTAB2
 70
     6
  9
$SURFTYPE
 70
     6
  9
$SURFU
 70
     6
  9
$SURFV
 70
     6
  9
$UCSBASE
  2

  9
$UCSNAME
  2

  9
$UCSORG
 10
0.0
 20
0.0
 30
0.0
  9
$UCSXDIR
 10
1.0
 20
0.0
 30
0.0
  9
$UCSYDIR
 10
0.0
 20
1.0
 30
0.0
  9
$UCSORTHOREF
  2

  9
$UCSORTHOVIEW
 70
     0
  9
$UCSORGTOP
 10
0.0
 20
0.0
 30
0.0
  9
$UCSORGBOTTOM
 10
0.0
 20
0.0
 30
0.0
  9
$UCSORGLEFT
 10
0.0
 20
0.0
 30
0.0
  9
$UCSORGRIGHT
 10
0.0
 20
0.0
 30
0.0
  9
$UCSORGFRONT
 10
0.0
 20
0.0
 30
0.0
  9
$UCSORGBACK
 10
0.0
 20
0.0
 30
0.0
  9
$PUCSBASE
  2

  9
$PUCSNAME
  2

  9
$PUCSORG
 10
0.0
 20
0.0
 30
0.0
  9
$PUCSXDIR
 10
1.0
 20
0.0
 30
0.0
  9
$PUCSYDIR
 10
0.0
 20
1.0
 30
0.0
  9
$PUCSORTHOREF
  2

  9
$PUCSORTHOVIEW
 70
     0
  9
$PUCSORGTOP
 10
0.0
 20
0.0
 30
0.0
  9
$PUCSORGBOTTOM
 10
0.0
 20
0.0
 30
0.0
  9
$PUCSORGLEFT
 10
0.0
 20
0.0
 30
0.0
  9
$PUCSORGRIGHT
 10
0.0
 20
0.0
 30
0.0
  9
$PUCSORGFRONT
 10
0.0
 20
0.0
 30
0.0
  9
$PUCSORGBACK
 10
0.0
 20
0.0
 30
0.0
  9
$USERI1
 70
     0
  9
$USERI2
 70
     0
  9
$USERI3
 70
     0
  9
$USERI4
 70
     0
  9
$USERI5
 70
     0
  9
$USERR1
 40
0.0
  9
$USERR2
 40
0.0
  9
$USERR3
 40
0.0
  9
$USERR4
 40
0.0
  9
$USERR5
 40
0.0
  9
$WORLDVIEW
 70
     1
  9
$SHADEDGE
 70
     3
  9
$SHADEDIF
 70
    70
  9
$TILEMODE
 70
     1
  9
$MAXACTVP
 70
    64
  9
$PINSBASE
 10
0.0
 20
0.0
 30
0.0
  9
$PLIMCHECK
 70
     0
  9
$PEXTMIN
 10
1.000000000000000E+20
 20
1.000000000000000E+20
 30
1.000000000000000E+20
  9
$PEXTMAX
 10
-1.000000000000000E+20
 20
-1.000000000000000E+20
 30
-1.000000000000000E+20
  9
$PLIMMIN
 10
0.0
 20
0.0
  9
$PLIMMAX
 10
420.0
 20
297.0
  9
$UNITMODE
 70
     0
  9
$VISRETAIN
 70
     1
  9
$PLINEGEN
 70
     0
  9
$PSLTSCALE
 70
     1
  9
$TREEDEPTH
 70
  3020
  9
$CMLSTYLE
  2
Standard
  9
$CMLJUST
 70
     0
  9
$CMLSCALE
 40
20.0
  9
$PROXYGRAPHICS
 70
     1
  9
$MEASUREMENT
 70
     1
  9
$CELWEIGHT
370
    -1
  9
$ENDCAPS
280
     0
  9
$JOINSTYLE
280
     0
  9
$LWDISPLAY
290
     0
  9
$INSUNITS
 70
     4
  9
$HYPERLINKBASE
  1

  9
$STYLESHEET
  1

  9
$XEDIT
290
     1
  9
$CEPSNTYPE
380
     0
  9
$PSTYLEMODE
290
     1
  9
$FINGERPRINTGUID
  2
{5AAA8C73-B14F-4939-837A-063A994F83B6}
  9
$VERSIONGUID
  2
{EA5243B2-E6D2-4E7E-8500-1E6A9E9DFD1D}
  9
$EXTNAMES
290
     1
  9
$PSVPSCALE
 40
0.0
  9
$OLESTARTUP
290
     0
  9
$SORTENTS
280
   127
  9
$INDEXCTL
280
     0
  9
$HIDETEXT
280
     1
  9
$XCLIPFRAME
280
     0
  9
$HALOGAP
280
     0
  9
$OBSCOLOR
 70
   257
  9
$OBSLTYPE
280
     0
  9
$INTERSECTIONDISPLAY
280
     0
  9
$INTERSECTIONCOLOR
 70
   257
  9
$DIMASSOC
280
     1
  9
$PROJECTNAME
  1

  9
$CAMERADISPLAY
290
     0
  9
$LENSLENGTH
 40
50.0
  9
$CAMERAHEIGHT
 40
0.0
  9
$STEPSPERSEC
 40
2.0
  9
$STEPSIZE
 40
6.0
  9
$3DDWFPREC
 40
2.0
  9
$PSOLWIDTH
 40
0.25
  9
$PSOLHEIGHT
 40
4.0
  9
$LOFTANG1
 40
1.570796326794896
  9
$LOFTANG2
 40
1.570796326794896
  9
$LOFTMAG1
 40
0.0
  9
$LOFTMAG2
 40
0.0
  9
$LOFTPARAM
 70
     7
  9
$LOFTNORMALS
280
     1
  9
$LATITUDE
 40
37.795
  9
$LONGITUDE
 40
-122.394
  9
$NORTHDIRECTION
 40
0.0
  9
$TIMEZONE
 70
 -8000
  9
$LIGHTGLYPHDISPLAY
280
     1
  9
$TILEMODELIGHTSYNCH
280
     1
  9
$CMATERIAL
347
3D
  9
$SOLIDHIST
280
     1
  9
$SHOWHIST
280
     1
  9
$DWFFRAME
280
     2
  9
$DGNFRAME
280
     0
  9
$REALWORLDSCALE
290
     1
  9
$INTERFERECOLOR
 62
     1
  9
$INTERFEREOBJVS
345
57
  9
$INTERFEREVPVS
346
58
  9
$CSHADOW
280
     0
  9
$SHADOWPLANELOCATION
 40
0.0
  0
ENDSEC
  0
SECTION
  2
CLASSES
  0
CLASS
  1
ACDBDICTIONARYWDFLT
  2
AcDbDictionaryWithDefault
  3
ObjectDBX Classes
 90
        0
 91
        1
280
     0
281
     0
  0
CLASS
  1
MATERIAL
  2
AcDbMaterial
  3
ObjectDBX Classes
 90
     1153
 91
        3
280
     0
281
     0
  0
CLASS
  1
VISUALSTYLE
  2
AcDbVisualStyle
  3
ObjectDBX Classes
 90
     4095
 91
        3
280
     0
281
     0
  0
CLASS
  1
TABLESTYLE
  2
AcDbTableStyle
  3
ObjectDBX Classes
 90
     4095
 91
        1
280
     0
281
     0
  0
CLASS
  1
SCALE
  2
AcDbScale
  3
ObjectDBX Classes
 90
     1153
 91
       33
280
     0
281
     0
  0
CLASS
  1
MLEADERSTYLE
  2
AcDbMLeaderStyle
  3
ACDB_MLEADERSTYLE_CLASS
 90
     4095
 91
        0
280
     0
281
     0
  0
CLASS
  1
SORTENTSTABLE
  2
AcDbSortentsTable
  3
ObjectDBX Classes
 90
        0
 91
        2
280
     0
281
     0
  0
CLASS
  1
CELLSTYLEMAP
  2
AcDbCellStyleMap
  3
ObjectDBX Classes
 90
     1152
 91
        1
280
     0
281
     0
  0
CLASS
  1
DICTIONARYVAR
  2
AcDbDictionaryVar
  3
ObjectDBX Classes
 90
        0
 91
        6
280
     0
281
     0
  0
CLASS
  1
SOLID_BACKGROUND
  2
AcDbSolidBackground
  3
SCENEOE
 90
     4095
 91
        0
280
     0
281
     0
  0
CLASS
  1
NPOCOLLECTION
  2
AcDbImpNonPersistentObjectsCollection
  3
ObjectDBX Classes
 90
     1153
 91
        0
280
     0
281
     0
  0
ENDSEC
  0
SECTION
  2
TABLES
  0
TABLE
  2
VPORT
  5
2E
102
{ACAD_XDICTIONARY
360
32
102
}
330
0
100
AcDbSymbolTable
 70
     1
  0
VPORT
  5
2F
330
2E
100
AcDbSymbolTableRecord
100
AcDbViewportTableRecord
  2
*Active
 70
     0
 10
0.0
 20
0.0
 11
1.0
 21
1.0
 12
793.6708651394037
 22
887.0016757420158
 13
0.0
 23
0.0
 14
10.0
 24
10.0
 15
10.0
 25
10.0
 16
0.0
 26
0.0
 36
1.0
 17
0.0
 27
0.0
 37
0.0
 40
2393.7841439688
 41
1.937738246505718
 42
50.0
 43
0.0
 44
0.0
 50
0.0
 51
0.0
 71
     0
 72
  2000
 73
     1
 74
     3
 75
     0
 76
     0
 77
     0
 78
     0
281
     0
 65
     1
110
0.0
120
0.0
130
0.0
111
1.0
121
0.0
131
0.0
112
0.0
122
1.0
132
0.0
 79
     0
146
0.0
348
30
 60
     3
 61
     5
292
     1
282
     1
141
0.0
142
0.0
 63
   250
421
  3355443
  0
ENDTAB
  0
TABLE
  2
LTYPE
  5
29
330
0
100
AcDbSymbolTable
 70
     4
  0
LTYPE
  5
2A
330
29
100
AcDbSymbolTableRecord
100
AcDbLinetypeTableRecord
  2
ByBlock
 70
     0
  3

 72
    65
 73
     0
 40
0.0
  0
LTYPE
  5
2B
330
29
100
AcDbSymbolTableRecord
100
AcDbLinetypeTableRecord
  2
ByLayer
 70
     0
  3

 72
    65
 73
     0
 40
0.0
  0
LTYPE
  5
15
330
29
100
AcDbSymbolTableRecord
100
AcDbLinetypeTableRecord
  2
Continuous
 70
     0
  3
Solid line
 72
    65
 73
     0
 40
0.0
  0
LTYPE
  5
132
330
29
100
AcDbSymbolTableRecord
100
AcDbLinetypeTableRecord
  2
VERDECKT
 70
     0
  3
__ __ __ __ __ __ __ __ __ __ __ __ __ __ __ __
 72
    65
 73
     2
 40
0.375
 49
0.25
 74
     0
 49
-0.125
 74
     0
  0
LTYPE
  5
90
330
29
100
AcDbSymbolTableRecord
100
AcDbLinetypeTableRecord
  2
STRICHPUNKT
 70
     0
  3
__ . __ . __ . __ . __ . __ . __ . __ . __ . __
 72
    65
 73
     4
 40
1.0
 49
0.5
 74
     0
 49
-0.25
 74
     0
 49
0.0
 74
     0
 49
-0.25
 74
     0
  0
LTYPE
  5
1DE
330
29
100
AcDbSymbolTableRecord
100
AcDbLinetypeTableRecord
  2
AUSGEZOGEN
 70
     0
  3
Ausgezogene Linie
 72
    65
 73
     0
 40
0.0
  0
ENDTAB
  0
TABLE
  2
LAYER
  5
20
102
{ACAD_XDICTIONARY
360
21
102
}
330
0
100
AcDbSymbolTable
 70
    13
  0
LAYER
  5
6
102
{ACAD_XDICTIONARY
360
7
102
}
330
20
100
AcDbSymbolTableRecord
100
AcDbLayerTableRecord
  2
0
 70
     0
 62
     7
  6
Continuous
370
    -3
390
9
347
C
  0
LAYER
  5
86
330
20
100
AcDbSymbolTableRecord
100
AcDbLayerTableRecord
  2
Defpoints
 70
     0
 62
     7
  6
Continuous
290
     0
370
    -3
390
9
347
C
  0
LAYER
  5
1AE
102
{ACAD_XDICTIONARY
360
1AF
102
}
330
20
100
AcDbSymbolTableRecord
100
AcDbLayerTableRecord
  2
01-99
 70
     0
 62
     2
  6
Continuous
370
    -3
390
9
347
C
  0
LAYER
  5
1C2
102
{ACAD_XDICTIONARY
360
1C3
102
}
330
20
100
AcDbSymbolTableRecord
100
AcDbLayerTableRecord
  2
02-99
 70
     0
 62
     1
  6
Continuous
370
    -3
390
9
347
C
  0
LAYER
  5
1E2
102
{ACAD_XDICTIONARY
360
1E3
102
}
330
20
100
AcDbSymbolTableRecord
100
AcDbLayerTableRecord
  2
06-99
 70
     0
 62
     1
  6
Continuous
370
    -3
390
9
347
C
  0
LAYER
  5
1B5
102
{ACAD_XDICTIONARY
360
1B6
102
}
330
20
100
AcDbSymbolTableRecord
100
AcDbLayerTableRecord
  2
08-99
 70
     0
 62
     7
  6
Continuous
370
    -3
390
9
347
C
  0
LAYER
  5
B3
102
{ACAD_XDICTIONARY
360
B4
102
}
330
20
100
AcDbSymbolTableRecord
100
AcDbLayerTableRecord
  2
10-98
 70
     0
 62
     4
  6
Continuous
370
    -3
390
9
347
C
  0
LAYER
  5
12F
102
{ACAD_XDICTIONARY
360
130
102
}
330
20
100
AcDbSymbolTableRecord
100
AcDbLayerTableRecord
  2
03-01
 70
     0
 62
     3
  6
VERDECKT
370
    -3
390
9
347
C
  0
LAYER
  5
9D
102
{ACAD_XDICTIONARY
360
9E
102
}
330
20
100
AcDbSymbolTableRecord
100
AcDbLayerTableRecord
  2
02-01
 70
     0
 62
     1
  6
Continuous
370
    -3
390
9
347
C
  0
LAYER
  5
51
102
{ACAD_XDICTIONARY
360
52
102
}
330
20
100
AcDbSymbolTableRecord
100
AcDbLayerTableRecord
  2
09-01
 70
     0
 62
     7
  6
Continuous
370
    -3
390
9
347
C
  0
LAYER
  5
8F
330
20
100
AcDbSymbolTableRecord
100
AcDbLayerTableRecord
  2
05-01
 70
     0
 62
     1
  6
STRICHPUNKT
370
    -3
390
9
347
C
  0
LAYER
  5
1DC
102
{ACAD_XDICTIONARY
360
1DD
102
}
330
20
100
AcDbSymbolTableRecord
100
AcDbLayerTableRecord
  2
07-99
 70
     0
 62
     6
  6
AUSGEZOGEN
370
    -3
390
9
347
C
  0
LAYER
  5
8C
102
{ACAD_XDICTIONARY
360
8D
102
}
330
20
100
AcDbSymbolTableRecord
100
AcDbLayerTableRecord
  2
01-01
 70
     0
 62
     2
  6
Continuous
370
    -3
390
9
347
C
  0
ENDTAB
  0
TABLE
  2
STYLE
  5
26
330
0
100
AcDbSymbolTable
 70
     3
  0
STYLE
  5
27
330
26
100
AcDbSymbolTableRecord
100
AcDbTextStyleTableRecord
  2
Standard
 70
     0
 40
0.0
 41
1.0
 50
0.0
 71
     0
 42
25.0
  3
txt
  4

  0
STYLE
  5
1B8
330
26
100
AcDbSymbolTableRecord
100
AcDbTextStyleTableRecord
  2
ROMANS8
 70
     0
 40
0.0
 41
1.0
 50
0.0
 71
     0
 42
2.5
  3
ROMANS8
  4

  0
STYLE
  5
A0
330
26
100
AcDbSymbolTableRecord
100
AcDbTextStyleTableRecord
  2
ROMANS
 70
     0
 40
0.0
 41
1.0
 50
0.0
 71
     0
 42
7.0
  3
romans
  4

  0
ENDTAB
  0
TABLE
  2
VIEW
  5
2C
330
0
100
AcDbSymbolTable
 70
     0
  0
ENDTAB
  0
TABLE
  2
UCS
  5
2D
330
0
100
AcDbSymbolTable
 70
     0
  0
ENDTAB
  0
TABLE
  2
APPID
  5
33
330
0
100
AcDbSymbolTable
 70
     5
  0
APPID
  5
25
330
33
100
AcDbSymbolTableRecord
100
AcDbRegAppTableRecord
  2
ACAD
 70
     0
  0
APPID
  5
36
330
33
100
AcDbSymbolTableRecord
100
AcDbRegAppTableRecord
  2
ACAD_DSTYLE_DIMJOGGED_JOGANGLE_SYMBOL
 70
     0
  0
APPID
  5
1B
330
33
100
AcDbSymbolTableRecord
100
AcDbRegAppTableRecord
  2
ACAD_PSEXT
 70
     0
  0
APPID
  5
37
330
33
100
AcDbSymbolTableRecord
100
AcDbRegAppTableRecord
  2
ACAD_DSTYLE_DIMJAG
 70
     0
  0
APPID
  5
38
330
33
100
AcDbSymbolTableRecord
100
AcDbRegAppTableRecord
  2
ACAD_DSTYLE_DIMTALN
 70
     0
  0
ENDTAB
  0
TABLE
  2
DIMSTYLE
  5
34
330
0
100
AcDbSymbolTable
 70
     2
100
AcDbDimStyleTable
 71
     1
340
35
  0
DIMSTYLE
105
35
330
34
100
AcDbSymbolTableRecord
100
AcDbDimStyleTableRecord
  2
Wagner
 70
     0
 41
2.5
 42
1.0
 43
10.0
 44
1.0
 73
     0
 74
     0
 77
     1
 78
     8
 79
     2
140
2.5
141
0.0
143
0.03937007874016
147
1.0
171
     3
172
     1
176
     4
177
     4
178
     1
179
     2
271
     8
272
     8
274
     3
283
     0
284
     8
340
27
1001
ACAD_DSTYLE_DIMJOGGED_JOGANGLE_SYMBOL
1070
   384
1040
0.7853981633974483
1001
ACAD_DSTYLE_DIMJAG
1070
   388
1040
1.5
1001
ACAD_DSTYLE_DIMTALN
1070
   392
1070
     0
  0
DIMSTYLE
105
8A
102
{ACAD_REACTORS
330
3DF
330
213
330
206
330
19D
330
18E
330
181
330
143
330
134
330
121
330
F8
330
EB
330
DE
330
A3
330
7A
102
}
330
34
100
AcDbSymbolTableRecord
100
AcDbDimStyleTableRecord
  2
Wagner$0
 70
     0
 41
2.5
 42
1.0
 43
10.0
 44
1.0
 73
     0
 74
     0
 77
     1
 78
     8
 79
     2
140
2.5
141
0.0
143
0.03937007874016
147
1.0
171
     3
172
     1
174
     1
176
     4
177
     4
178
     1
179
     2
271
     8
272
     8
274
     3
279
     2
283
     0
284
     8
340
27
1001
ACAD_DSTYLE_DIMJOGGED_JOGANGLE_SYMBOL
1070
   384
1040
0.7853981633974483
1001
ACAD_DSTYLE_DIMJAG
1070
   388
1040
1.5
1001
ACAD_DSTYLE_DIMTALN
1070
   392
1070
     0
  0
ENDTAB
  0
TABLE
  2
BLOCK_RECORD
  5
1
330
0
100
AcDbSymbolTable
 70
    15
  0
BLOCK_RECORD
  5
2
102
{ACAD_XDICTIONARY
360
3
102
}
330
1
100
AcDbSymbolTableRecord
100
AcDbBlockTableRecord
  2
*Model_Space
340
17
 70
     0
280
     1
281
     0
  0
BLOCK_RECORD
  5
1C
330
1
100
AcDbSymbolTableRecord
100
AcDbBlockTableRecord
  2
*Paper_Space
340
1F
 70
     0
280
     1
281
     0
  0
BLOCK_RECORD
  5
1AB
330
1
100
AcDbSymbolTableRecord
100
AcDbBlockTableRecord
  2
A4-Wagner-EWAR
340
0
102
{BLKREFS
331
1AA
102
}
 70
     0
280
     1
281
     0
  0
BLOCK_RECORD
  5
3E0
330
1
100
AcDbSymbolTableRecord
100
AcDbBlockTableRecord
  2
*D1
340
0
 70
     0
280
     1
281
     0
  0
BLOCK_RECORD
  5
214
330
1
100
AcDbSymbolTableRecord
100
AcDbBlockTableRecord
  2
*D2
340
0
 70
     0
280
     1
281
     0
  0
BLOCK_RECORD
  5
207
330
1
100
AcDbSymbolTableRecord
100
AcDbBlockTableRecord
  2
*D3
340
0
 70
     0
280
     1
281
     0
  0
BLOCK_RECORD
  5
19E
330
1
100
AcDbSymbolTableRecord
100
AcDbBlockTableRecord
  2
*D4
340
0
 70
     0
280
     1
281
     0
  0
BLOCK_RECORD
  5
18F
330
1
100
AcDbSymbolTableRecord
100
AcDbBlockTableRecord
  2
*D5
340
0
 70
     0
280
     1
281
     0
  0
BLOCK_RECORD
  5
182
330
1
100
AcDbSymbolTableRecord
100
AcDbBlockTableRecord
  2
*D6
340
0
 70
     0
280
     1
281
     0
  0
BLOCK_RECORD
  5
144
330
1
100
AcDbSymbolTableRecord
100
AcDbBlockTableRecord
  2
*D7
340
0
 70
     0
280
     1
281
     0
  0
BLOCK_RECORD
  5
135
330
1
100
AcDbSymbolTableRecord
100
AcDbBlockTableRecord
  2
*D8
340
0
 70
     0
280
     1
281
     0
  0
BLOCK_RECORD
  5
122
330
1
100
AcDbSymbolTableRecord
100
AcDbBlockTableRecord
  2
*D9
340
0
 70
     0
280
     1
281
     0
  0
BLOCK_RECORD
  5
F9
330
1
100
AcDbSymbolTableRecord
100
AcDbBlockTableRecord
  2
*D10
340
0
 70
     0
280
     1
281
     0
  0
BLOCK_RECORD
  5
EC
330
1
100
AcDbSymbolTableRecord
100
AcDbBlockTableRecord
  2
*D11
340
0
 70
     0
280
     1
281
     0
  0
BLOCK_RECORD
  5
DF
330
1
100
AcDbSymbolTableRecord
100
AcDbBlockTableRecord
  2
*D12
340
0
 70
     0
280
     1
281
     0
  0
BLOCK_RECORD
  5
A4
330
1
100
AcDbSymbolTableRecord
100
AcDbBlockTableRecord
  2
*D13
340
0
 70
     0
280
     1
281
     0
  0
BLOCK_RECORD
  5
7B
330
1
100
AcDbSymbolTableRecord
100
AcDbBlockTableRecord
  2
*D14
340
0
 70
     0
280
     1
281
     0
  0
ENDTAB
  0
ENDSEC
  0
SECTION
  2
BLOCKS
  0
BLOCK
  5
5
330
2
100
AcDbEntity
  8
0
100
AcDbBlockBegin
  2
*Model_Space
 70
     0
 10
0.0
 20
0.0
 30
0.0
  3
*Model_Space
  1

  0
ENDBLK
  5
16
330
2
100
AcDbEntity
  8
0
100
AcDbBlockEnd
  0
BLOCK
  5
1D
330
1C
100
AcDbEntity
 67
     1
  8
0
100
AcDbBlockBegin
  2
*Paper_Space
 70
     0
 10
0.0
 20
0.0
 30
0.0
  3
*Paper_Space
  1

  0
ENDBLK
  5
1E
330
1C
100
AcDbEntity
 67
     1
  8
0
100
AcDbBlockEnd
  0
BLOCK
  5
1AC
330
1AB
100
AcDbEntity
  8
0
100
AcDbBlockBegin
  2
A4-Wagner-EWAR
 70
     2
 10
0.0
 20
0.0
 30
0.0
  3
A4-Wagner-EWAR
  1

  0
LINE
  5
1AD
330
1AB
100
AcDbEntity
  8
01-99
100
AcDbLine
 10
203.9999999999999
 20
291.0
 30
0.0
 11
20.00000000000007
 21
290.9999999999999
 31
0.0
  0
LINE
  5
1B1
330
1AB
100
AcDbEntity
  8
01-99
100
AcDbLine
 10
203.9999999999999
 20
291.0
 30
0.0
 11
204.0
 21
5.999999999999995
 31
0.0
  0
LINE
  5
1B2
330
1AB
100
AcDbEntity
  8
01-99
100
AcDbLine
 10
204.0
 20
5.999999999999995
 30
0.0
 11
20.0
 21
5.999999999999886
 31
0.0
  0
LINE
  5
1B3
330
1AB
100
AcDbEntity
  8
01-99
100
AcDbLine
 10
20.0
 20
5.999999999999886
 30
0.0
 11
20.00000000000007
 21
290.9999999999999
 31
0.0
  0
TEXT
  5
1B4
330
1AB
100
AcDbEntity
  8
08-99
100
AcDbText
 10
21.5
 20
12.99999999999988
 30
0.0
 40
2.5
  1
Benennung/Teil:
 51
15.0
  7
ROMANS8
100
AcDbText
  0
TEXT
  5
1B9
330
1AB
100
AcDbEntity
  8
08-99
100
AcDbText
 10
196.5
 20
13.49999999999988
 30
0.0
 40
2.5
  1
Index
 41
0.7840000000000004
 51
15.0
  7
ROMANS8
 72
     5
 11
203.5
 21
13.49999999999988
 31
0.0
100
AcDbText
  0
TEXT
  5
1BA
330
1AB
100
AcDbEntity
  8
08-99
100
AcDbText
 10
188.5
 20
13.49999999999988
 30
0.0
 40
2.5
  1
Form
 41
0.7583333333333337
 51
15.0
  7
ROMANS8
 72
     5
 11
195.0
 21
13.49999999999988
 31
0.0
100
AcDbText
  0
TEXT
  5
1BB
330
1AB
100
AcDbEntity
  8
08-99
100
AcDbText
 10
139.5
 20
13.49999999999988
 30
0.0
 40
2.5
  1
Ident-Nr.
 51
15.0
  7
ROMANS8
100
AcDbText
  0
TEXT
  5
1BC
330
1AB
100
AcDbEntity
  8
08-99
100
AcDbText
 10
115.5
 20
13.49999999999988
 30
0.0
 40
2.5
  1
Maßstab
 51
15.0
  7
ROMANS8
100
AcDbText
  0
LINE
  5
1BD
330
1AB
100
AcDbEntity
  8
01-99
100
AcDbLine
 10
138.0
 20
17.0
 30
0.0
 11
138.0
 21
5.999999999999995
 31
0.0
  0
LINE
  5
1BE
330
1AB
100
AcDbEntity
  8
01-99
100
AcDbLine
 10
188.0
 20
17.0
 30
0.0
 11
188.0
 21
5.999999999999995
 31
0.0
  0
LINE
  5
1BF
330
1AB
100
AcDbEntity
  8
01-99
100
AcDbLine
 10
196.0
 20
17.0
 30
0.0
 11
196.0
 21
5.999999999999995
 31
0.0
  0
LINE
  5
1C0
330
1AB
100
AcDbEntity
  8
01-99
100
AcDbLine
 10
113.9999999999982
 20
16.99999999999993
 30
0.0
 11
113.9999999999982
 21
6.000000000000109
 31
0.0
  0
LINE
  5
1C1
330
1AB
100
AcDbEntity
  8
02-99
100
AcDbLine
 10
109.9999999999982
 20
31.99999999999988
 30
0.0
 11
109.9999999999983
 21
51.99999999999992
 31
0.0
  0
TEXT
  5
1C5
330
1AB
100
AcDbEntity
  8
01-99
100
AcDbText
 10
188.9166666666666
 20
8.249999999999882
 30
0.0
 40
3.5
  1
A4
  7
ROMANS8
 72
     4
 11
192.0
 21
9.999999999999882
 31
0.0
100
AcDbText
  0
LINE
  5
1C6
330
1AB
100
AcDbEntity
  8
01-99
100
AcDbLine
 10
204.0
 20
16.99999999999998
 30
0.0
 11
20.0
 21
16.99999999999988
 31
0.0
  0
TEXT
  5
1C7
330
1AB
100
AcDbEntity
  8
08-99
100
AcDbText
 10
74.0
 20
17.99999999999991
 30
0.0
 40
2.5
  1
Name:
 51
15.0
  7
ROMANS8
100
AcDbText
  0
TEXT
  5
1C8
330
1AB
100
AcDbEntity
  8
08-99
100
AcDbText
 10
21.0
 20
17.99999999999988
 30
0.0
 40
2.5
  1
gezeichnet Datum:
 41
0.920547945205479
 51
15.0
  7
ROMANS8
 72
     5
 11
53.0
 21
17.99999999999988
 31
0.0
100
AcDbText
  0
LINE
  5
1C9
330
1AB
100
AcDbEntity
  8
01-99
100
AcDbLine
 10
157.0
 20
31.99999999999997
 30
0.0
 11
157.0
 21
16.99999999999995
 31
0.0
  0
LINE
  5
1CA
330
1AB
100
AcDbEntity
  8
02-99
100
AcDbLine
 10
156.9999999999982
 20
21.99999999999997
 30
0.0
 11
20.0
 21
21.99999999999988
 31
0.0
  0
LINE
  5
1CB
330
1AB
100
AcDbEntity
  8
01-99
100
AcDbLine
 10
167.0
 20
17.0
 30
0.0
 11
167.0
 21
5.999999999999995
 31
0.0
  0
TEXT
  5
1CC
330
1AB
100
AcDbEntity
  8
08-99
100
AcDbText
 10
167.5
 20
13.49999999999988
 30
0.0
 40
2.5
  1
DWG-Name
 41
0.9360000000000001
 51
15.0
  7
ROMANS8
 72
     5
 11
187.0
 21
13.49999999999988
 31
0.0
100
AcDbText
  0
LINE
  5
1CD
330
1AB
100
AcDbEntity
  8
01-99
100
AcDbLine
 10
156.9999999999982
 20
21.99999999999997
 30
0.0
 11
20.0
 21
21.99999999999988
 31
0.0
  0
LINE
  5
1CE
330
1AB
100
AcDbEntity
  8
02-99
100
AcDbLine
 10
156.9999999999982
 20
26.99999999999997
 30
0.0
 11
20.0
 21
26.99999999999988
 31
0.0
  0
LINE
  5
1CF
330
1AB
100
AcDbEntity
  8
01-99
100
AcDbLine
 10
204.0
 20
32.00000000000001
 30
0.0
 11
19.99999999999818
 21
31.99999999999988
 31
0.0
  0
LINE
  5
1D0
330
1AB
100
AcDbEntity
  8
02-99
100
AcDbLine
 10
204.0
 20
42.00000000000001
 30
0.0
 11
19.99999999999818
 21
41.99999999999987
 31
0.0
  0
LINE
  5
1D1
330
1AB
100
AcDbEntity
  8
01-99
100
AcDbLine
 10
204.0
 20
52.00000000000001
 30
0.0
 11
19.99999999999818
 21
51.99999999999988
 31
0.0
  0
TEXT
  5
1D2
330
1AB
100
AcDbEntity
  8
08-99
100
AcDbText
 10
21.5
 20
27.99999999999988
 30
0.0
 40
2.5
  1
Änderung:
 51
15.0
  7
ROMANS8
100
AcDbText
  0
TEXT
  5
1D3
330
1AB
100
AcDbEntity
  8
08-99
100
AcDbText
 10
21.5
 20
37.99999999999988
 30
0.0
 40
2.5
  1
Com:
 51
15.0
  7
ROMANS8
100
AcDbText
  0
TEXT
  5
1D4
330
1AB
100
AcDbEntity
  8
08-99
100
AcDbText
 10
21.5
 20
47.99999999999988
 30
0.0
 40
2.5
  1
Kunde:
 51
15.0
  7
ROMANS8
100
AcDbText
  0
TEXT
  5
1D5
330
1AB
100
AcDbEntity
  8
08-99
100
AcDbText
 10
111.5
 20
47.99999999999988
 30
0.0
 40
2.5
  1
Projekt:
 51
15.0
  7
ROMANS8
100
AcDbText
  0
TEXT
  5
1D6
330
1AB
100
AcDbEntity
  8
08-99
100
AcDbText
 10
111.5
 20
37.99999999999988
 30
0.0
 40
2.5
  1
Pos:
 51
15.0
  7
ROMANS8
100
AcDbText
  0
ATTDEF
  5
1D7
330
1AB
100
AcDbEntity
  8
01-99
100
AcDbText
 10
21.5
 20
32.9999999999999
 30
0.0
 40
3.0
  1
.
 41
0.9
  7
ROMANS8
100
AcDbAttributeDefinition
280
     0
  3
Kommission
  2
COM
 70
     0
280
     0
  0
ATTDEF
  5
1D8
330
1AB
100
AcDbEntity
  8
01-99
100
AcDbText
 10
111.5
 20
42.99999999999989
 30
0.0
 40
3.0
  1
.
 41
0.9
  7
ROMANS8
100
AcDbAttributeDefinition
280
     0
  3
Projekt
  2
PROJ
 70
     0
280
     0
  0
ATTDEF
  5
1D9
330
1AB
100
AcDbEntity
  8
01-99
100
AcDbText
 10
111.5
 20
32.9999999999999
 30
0.0
 40
3.0
  1
.
 41
0.9
  7
ROMANS8
100
AcDbAttributeDefinition
280
     0
  3
Positionen
  2
POS
 70
     0
280
     0
  0
ATTDEF
  5
1DA
330
1AB
100
AcDbEntity
  8
01-99
100
AcDbText
 10
138.5
 20
7.999999999999896
 30
0.0
 40
3.5
  1
.
  7
ROMANS8
100
AcDbAttributeDefinition
280
     0
  3
Ident-Nummer
  2
E:M1
 70
     0
280
     0
  0
ATTDEF
  5
1DB
330
1AB
100
AcDbEntity
  8
07-99
100
AcDbText
 10
203.9904761904762
 20
5.999999999999896
 30
0.0
 40
0.1
  1
.
  7
ROMANS8
 72
     2
 11
204.0
 21
5.999999999999896
 31
0.0
100
AcDbAttributeDefinition
280
     0
  3
Unsichtbar
  2
E:M2
 70
     0
280
     0
  0
ATTDEF
  5
1DF
330
1AB
100
AcDbEntity
  8
01-99
100
AcDbText
 10
21.5
 20
7.999999999999896
 30
0.0
 40
3.0
  1
.
 41
0.9
  7
ROMANS8
100
AcDbAttributeDefinition
280
     0
  3
Benennung/Teil
  2
E:M3
 70
     0
280
     0
  0
ATTDEF
  5
1E0
330
1AB
100
AcDbEntity
  8
01-99
100
AcDbText
 10
21.5
 20
42.99999999999989
 30
0.0
 40
3.0
  1
.
 41
0.9
  7
ROMANS8
100
AcDbAttributeDefinition
280
     0
  3
Kunde
  2
E:M4
 70
     0
280
     0
  0
ATTDEF
  5
1E1
330
1AB
100
AcDbEntity
  8
06-99
100
AcDbText
 10
87.0
 20
17.99999999999849
 30
0.0
 40
2.5
  1
.
 41
0.9
  7
ROMANS8
100
AcDbAttributeDefinition
280
     0
  3
Name
  2
E:M5
 70
     0
280
     0
  0
ATTDEF
  5
1E5
330
1AB
100
AcDbEntity
  8
06-99
100
AcDbText
 10
54.0
 20
17.9999999999999
 30
0.0
 40
2.5
  1
.
 41
73.5
  7
ROMANS8
 72
     5
 11
71.5
 21
17.9999999999999
 31
0.0
100
AcDbAttributeDefinition
280
     0
  3
Datum
  2
E:M6
 70
     0
280
     0
  0
ATTDEF
  5
1E6
330
1AB
100
AcDbEntity
  8
01-99
100
AcDbText
 10
125.3571428571428
 20
7.999999999999896
 30
0.0
 40
3.0
  1
.
  7
ROMANS8
 72
     1
 11
125.5
 21
7.999999999999896
 31
0.0
100
AcDbAttributeDefinition
280
     0
  3
Maßstab
  2
E:MA
 70
     0
280
     0
  0
ATTDEF
  5
1E7
330
1AB
100
AcDbEntity
  8
02-99
100
AcDbText
 10
167.5
 20
7.999999999999896
 30
0.0
 40
2.5
  1
.
  7
ROMANS8
100
AcDbAttributeDefinition
280
     0
  3
DWG-Name
  2
E:DOS
 70
     0
280
     0
  0
LWPOLYLINE
  5
1E8
330
1AB
100
AcDbEntity
  8
10-98
100
AcDbPolyline
 90
      133
 70
     1
 43
0.0135
 10
182.3791309999999
 20
27.86422649999986
 10
182.6840645
 20
28.1302394999999
 10
182.5752319999999
 20
28.3057574999998
 10
182.4507529999999
 20
28.46427899999992
 10
182.3110595
 20
28.60586249999995
 10
182.1566014999999
 20
28.73057549999982
 10
181.9878109999999
 20
28.83846749999987
 10
181.8051244999999
 20
28.92959699999983
 10
181.6089874999999
 20
29.00403149999988
 10
181.399832
 20
29.06182049999984
 10
181.1780989999999
 20
29.10302249999995
 10
180.9442295
 20
29.12770499999988
 10
180.6986599999999
 20
29.13591749999989
 10
180.4954715
 20
29.12826299999983
 10
180.2988304999999
 20
29.10563249999984
 10
180.1091554999999
 20
29.06851649999993
 10
179.9268695
 20
29.01741449999986
 10
179.7523909999999
 20
28.9528259999999
 10
179.5861294999999
 20
28.87524599999983
 10
179.428517
 20
28.78516949999982
 10
179.2799629999999
 20
28.68309149999982
 10
179.140886
 20
28.56950699999993
 10
179.0117134999999
 20
28.44491999999991
 10
178.8928505
 20
28.3098164999999
 10
178.7847244999999
 20
28.16470499999991
 10
178.687754
 20
28.01007149999987
 10
178.6023529999999
 20
27.84641549999992
 10
178.5289445
 20
27.67423199999991
 10
178.4679425
 20
27.49402499999985
 10
178.4197655
 20
27.30628049999984
 10
178.3848409999999
 20
27.1115024999998
 10
178.3635739999999
 20
26.91018149999991
 10
178.3563965
 20
26.70281699999993
 10
178.363484
 20
26.48930099999996
 10
178.384508
 20
26.28307049999989
 10
178.4190904999999
 20
26.08452599999987
 10
178.4668534999999
 20
25.89406349999979
 10
178.5274234999999
 20
25.7120789999999
 10
178.6004269999999
 20
25.5389684999999
 10
178.6854904999999
 20
25.37512349999986
 10
178.782236
 20
25.22094449999986
 10
178.8902899999999
 20
25.07682299999988
 10
179.0092834999999
 20
24.94315949999986
 10
179.1388294999999
 20
24.82034549999992
 10
179.2785679999999
 20
24.70878149999982
 10
179.4281119999999
 20
24.60885899999988
 10
179.5870924999999
 20
24.52097399999991
 10
179.7551314999999
 20
24.44552699999992
 10
179.9318599999999
 20
24.38290949999993
 10
180.1168955
 20
24.33351749999997
 10
180.3098734999999
 20
24.29774699999996
 10
180.510407
 20
24.27599399999986
 10
180.7181314999999
 20
24.26865449999985
 10
180.9251989999999
 20
24.27528749999988
 10
181.1238515
 20
24.29503349999993
 10
181.3138504999999
 20
24.32764949999989
 10
181.4949574999999
 20
24.37289249999992
 10
181.6669384999999
 20
24.43052399999994
 10
181.8295504999999
 20
24.50030549999985
 10
181.9825595
 20
24.5819939999999
 10
182.125718
 20
24.67535549999991
 10
182.258801
 20
24.78014699999983
 10
182.3815564999999
 20
24.89612099999988
 10
182.4937549999999
 20
25.02305249999984
 10
182.595158
 20
25.16068499999983
 10
182.6855225
 20
25.30879349999987
 10
182.7646099999999
 20
25.4671259999999
 10
182.8321865
 20
25.63544849999983
 10
182.8880134999999
 20
25.81351799999982
 10
182.9318434999999
 20
26.00109599999985
 10
182.9634515
 20
26.19794399999989
 10
182.98259
 20
26.40382349999982
 10
182.9890205
 20
26.61848699999985
 10
182.9890205
 20
26.61848699999985
 10
182.9890205
 20
26.68336349999993
 10
180.9257524999999
 20
26.68336349999993
 10
180.9257524999999
 20
26.32001549999984
 10
182.5283554999999
 20
26.32001549999984
 10
182.5147969999999
 20
26.11478399999993
 10
182.4802864999999
 20
25.91952449999985
 10
182.425715
 20
25.73507399999988
 10
182.3519734999999
 20
25.56227399999989
 10
182.259962
 20
25.40195249999988
 10
182.150576
 20
25.25495999999987
 10
182.0246975
 20
25.12211999999988
 10
181.8832309999999
 20
25.00428299999987
 10
181.7270674999999
 20
24.90227249999987
 10
181.557098
 20
24.81693449999994
 10
181.374218
 20
24.74910149999983
 10
181.179323
 20
24.69961499999994
 10
180.973304
 20
24.66930749999983
 10
180.7570565
 20
24.65902049999988
 10
180.549152
 20
24.66905999999983
 10
180.3492844999999
 20
24.69858449999981
 10
180.1582009999999
 20
24.74669849999987
 10
179.9766439999999
 20
24.81251099999986
 10
179.805347
 20
24.89512649999984
 10
179.645057
 20
24.99364949999989
 10
179.4965119999999
 20
25.10719349999988
 10
179.3604589999999
 20
25.23485849999997
 10
179.237636
 20
25.37575349999986
 10
179.128781
 20
25.52898749999992
 10
179.034641
 20
25.69366049999985
 10
178.9559539999999
 20
25.86888599999986
 10
178.8934625
 20
26.05376849999982
 10
178.8479089999999
 20
26.24740799999995
 10
178.8200314999999
 20
26.44892249999993
 10
178.8105769999999
 20
26.6574119999998
 10
178.818641
 20
26.87000549999988
 10
178.842509
 20
27.07456649999983
 10
178.8816769999999
 20
27.27046499999983
 10
178.9356454999999
 20
27.45707549999986
 10
179.0039194999999
 20
27.63377249999985
 10
179.0859949999999
 20
27.79993499999989
 10
179.1813724999999
 20
27.95492849999994
 10
179.289557
 20
28.0981364999999
 10
179.4100444999999
 20
28.22892449999995
 10
179.5423445
 20
28.34667149999985
 10
179.685944
 20
28.45074749999992
 10
179.840357
 20
28.54053149999993
 10
180.0050749999999
 20
28.61539349999987
 10
180.179603
 20
28.6747079999999
 10
180.3634459999999
 20
28.71784949999983
 10
180.5560955
 20
28.74419699999987
 10
180.7570565
 20
28.75311599999987
 10
180.9814309999999
 20
28.74185699999987
 10
181.1957659999999
 20
28.70822399999986
 10
181.399634
 20
28.65242849999993
 10
181.5926074999999
 20
28.57468199999983
 10
181.774259
 20
28.47520499999985
 10
181.9441654999999
 20
28.35420449999992
 10
182.1018995
 20
28.2119009999999
 10
182.247029
 20
28.04850149999987
  0
LWPOLYLINE
  5
1E9
330
1AB
100
AcDbEntity
  8
10-98
100
AcDbPolyline
 90
       12
 70
     1
 43
0.0135
 10
178.6186339999999
 20
19.50090449999993
 10
180.996497
 20
19.50090449999993
 10
181.1800024999999
 20
20.45401799999991
 10
180.040193
 20
20.45401799999991
 10
180.1111309999999
 20
20.8224869999998
 10
181.1182805
 20
20.8224869999998
 10
181.2913684999999
 20
21.72154649999982
 10
180.2842189999999
 20
21.72154649999982
 10
180.349505
 20
22.0605539999998
 10
181.4598349999999
 20
22.0605539999998
 10
181.6433269999999
 20
23.01364949999993
 10
179.2949434999999
 20
23.01364949999993
  0
LWPOLYLINE
  5
1EA
330
1AB
100
AcDbEntity
  8
10-98
100
AcDbPolyline
 90
        4
 70
     1
 43
0.0135
 10
161.1560285
 20
20.29334549999987
 10
176.8848784999999
 20
20.29334549999987
 10
176.7288454999999
 20
19.49999999999988
 10
161.0
 20
19.49999999999988
  0
SOLID
  5
1EB
330
1AB
100
AcDbEntity
  8
10-98
100
AcDbTrace
 10
161.1560285
 20
20.29334549999987
 30
0.0
 11
176.8848784999999
 21
20.29334549999987
 31
0.0
 12
161.0
 22
19.49999999999988
 32
0.0
 13
176.7288454999999
 23
19.49999999999988
 33
0.0
  0
LWPOLYLINE
  5
1EC
330
1AB
100
AcDbEntity
  8
10-98
100
AcDbPolyline
 90
       10
 70
     1
 43
0.0135
 10
167.9577965
 20
24.26865449999985
 10
169.190549
 20
28.14971099999991
 10
170.475227
 20
24.26865449999985
 10
172.0259224999999
 20
29.03211599999986
 10
171.5912134999999
 20
29.03211599999986
 10
170.475227
 20
25.35976499999981
 10
169.190549
 20
29.21378099999981
 10
167.9577965
 20
25.32732449999992
 10
166.7963914999999
 20
29.03211599999986
 10
166.3551935
 20
29.03211599999986
  0
LWPOLYLINE
  5
1ED
330
1AB
100
AcDbEntity
  8
10-98
100
AcDbPolyline
 90
        3
 70
     1
 43
0.0135
 10
174.2438735
 20
26.3264999999999
 10
175.0678864999999
 20
28.34436299999982
 10
175.8594634999999
 20
26.3264999999999
  0
LWPOLYLINE
  5
1EE
330
1AB
100
AcDbEntity
  8
10-98
100
AcDbPolyline
 90
        7
 70
     1
 43
0.0135
 10
173.055446
 20
24.39300749999984
 10
173.4847549999999
 20
24.39300749999984
 10
174.101129
 20
25.96316999999988
 10
175.995701
 20
25.96316999999988
 10
176.5861415
 20
24.39300749999984
 10
177.0468065
 20
24.39300749999984
 10
175.0938424999999
 20
29.21378099999981
  0
LWPOLYLINE
  5
1EF
330
1AB
100
AcDbEntity
  8
10-98
100
AcDbPolyline
 90
        8
 70
     1
 43
0.0135
 10
189.3393529999999
 20
19.50090449999993
 10
190.696139
 20
19.50090449999993
 10
190.8893555
 20
19.94307449999985
 10
191.842469
 20
19.94307449999985
 10
191.8703374999999
 20
19.50090449999993
 10
193.2263089999999
 20
19.50090449999993
 10
192.6743839999999
 20
23.01364949999993
 10
191.269286
 20
23.01364949999993
  0
LWPOLYLINE
  5
1F0
330
1AB
100
AcDbEntity
  8
10-98
100
AcDbPolyline
 90
       34
 70
     1
 43
0.0135
 10
185.694974
 20
21.27939449999985
 10
185.7391954999999
 20
21.27939449999985
 10
185.7211954999999
 20
21.05921849999993
 10
185.72066
 20
20.86742849999985
 10
185.725835
 20
20.69965949999994
 10
185.7603454999999
 20
19.50090449999993
 10
186.8608474999999
 20
19.50090449999993
 10
188.5639534999999
 20
23.01364949999993
 10
187.2964249999999
 20
23.01364949999993
 10
186.7233275
 20
21.46607699999987
 10
186.6600665
 20
21.28867349999985
 10
186.5856094999999
 20
21.05885849999982
 10
186.5113504999999
 20
20.77336049999997
 10
186.481889
 20
20.77336049999997
 10
186.5093209999999
 20
21.02264699999989
 10
186.5150765
 20
21.22171349999985
 10
186.5137625
 20
21.37274699999989
 10
186.4956004999999
 20
23.01364949999993
 10
185.6063735
 20
23.01364949999993
 10
184.9563709999999
 20
21.37274699999989
 10
184.8968989999999
 20
21.22171349999985
 10
184.825997
 20
21.02264699999989
 10
184.7574305
 20
20.77336049999997
 10
184.7279689999999
 20
20.77336049999997
 10
184.763645
 20
21.05885849999982
 10
184.777685
 20
21.28867349999985
 10
184.7827294999999
 20
21.46607699999987
 10
184.805549
 20
23.01364949999993
 10
183.5372059999999
 20
23.01364949999993
 10
183.8885075
 20
19.50090449999993
 10
184.9890049999999
 20
19.50090449999993
 10
185.485103
 20
20.69965949999994
 10
185.5548934999999
 20
20.86742849999985
 10
185.6282075
 20
21.05921849999993
  0
LWPOLYLINE
  5
1F1
330
1AB
100
AcDbEntity
  8
10-98
100
AcDbPolyline
 90
       10
 70
     1
 43
0.0135
 10
191.2614019999999
 20
20.77826549999986
 10
191.4461135
 20
21.17621399999984
 10
191.5404965
 20
21.38383499999997
 10
191.642822
 20
21.63839999999993
 10
191.7371104999999
 20
21.94755899999996
 10
191.7616804999999
 20
21.94755899999996
 10
191.7369035
 20
21.63839999999993
 10
191.7412055
 20
21.38383499999997
 10
191.7556415
 20
21.17621399999984
 10
191.7870875
 20
20.77826549999986
  0
LWPOLYLINE
  5
1F2
330
1AB
100
AcDbEntity
  8
10-98
100
AcDbPolyline
 90
       23
 70
     1
 43
0.0135
 10
195.219278
 20
19.50090449999993
 10
196.4573269999999
 20
19.50090449999993
 10
196.680554
 20
20.66036099999985
 10
197.0714509999999
 20
19.50090449999993
 10
198.4863634999999
 20
19.50090449999993
 10
197.8232705
 20
20.93057699999986
 10
198.0244835
 20
20.97943349999991
 10
198.2079079999999
 20
21.07414049999988
 10
198.3690799999999
 20
21.21061199999985
 10
198.5035265
 20
21.38474849999989
 10
198.6067699999999
 20
21.59245499999986
 10
198.6743374999999
 20
21.82963649999988
 10
198.701468
 20
22.04544749999991
 10
198.6960409999999
 20
22.24141799999995
 10
198.65807
 20
22.41687299999989
 10
198.5875684999999
 20
22.5711329999998
 10
198.484559
 20
22.7035229999999
 10
198.3490595
 20
22.81335899999988
 10
198.181079
 20
22.89997049999988
 10
197.9806444999999
 20
22.96267349999994
 10
197.7477605
 20
23.00079299999987
 10
197.4824585
 20
23.01364949999993
 10
195.8955874999999
 20
23.01364949999993
  0
LWPOLYLINE
  5
1F3
330
1AB
100
AcDbEntity
  8
10-98
100
AcDbPolyline
 90
        9
 70
     1
 43
0.0135
 10
196.9595899999999
 20
22.10968049999985
 10
197.1561185
 20
22.10968049999985
 10
197.353934
 20
22.06728149999987
 10
197.4560389999999
 20
21.94736549999993
 10
197.462348
 20
21.76086299999986
 10
197.3836205
 20
21.57689849999991
 10
197.2351699999999
 20
21.4617209999999
 10
197.023706
 20
21.42187349999983
 10
196.8271774999999
 20
21.42187349999983
  0
LWPOLYLINE
  5
1F4
330
1AB
100
AcDbEntity
  8
10-98
100
AcDbPolyline
 90
       12
 70
     1
 43
0.0135
 10
190.9804715
 20
24.39300749999984
 10
193.2773119999999
 20
24.39300749999984
 10
193.2773119999999
 20
24.78879599999988
 10
191.4022115
 20
24.78879599999988
 10
191.4022115
 20
26.78716499999996
 10
193.2773119999999
 20
26.78716499999996
 10
193.2773119999999
 20
27.18295349999994
 10
191.4022115
 20
27.18295349999994
 10
191.4022115
 20
28.63632749999988
 10
193.2773119999999
 20
28.63632749999988
 10
193.2773119999999
 20
29.03211599999986
 10
190.9804715
 20
29.03211599999986
  0
LWPOLYLINE
  5
1F5
330
1AB
100
AcDbEntity
  8
10-98
100
AcDbPolyline
 90
        8
 70
     1
 43
0.0135
 10
185.0123195
 20
24.39300749999984
 10
185.4340639999999
 20
24.39300749999984
 10
185.4340639999999
 20
28.14322649999986
 10
188.6911595
 20
24.2556674999999
 10
188.6911595
 20
29.03211599999986
 10
188.2694329999999
 20
29.03211599999986
 10
188.2694329999999
 20
25.34677799999986
 10
185.0123195
 20
29.22674999999981
  0
LWPOLYLINE
  5
1F6
330
1AB
100
AcDbEntity
  8
10-98
100
AcDbPolyline
 90
       19
 70
     1
 43
0.0135
 10
195.8650954999999
 20
28.66228349999983
 10
196.2868219999999
 20
28.66228349999983
 10
196.5446315
 20
28.65178049999986
 10
196.7641144999999
 20
28.61838599999988
 10
196.9464995
 20
28.5592919999998
 10
197.0929925
 20
28.47168599999987
 10
197.2048129999999
 20
28.35275549999983
 10
197.283176
 20
28.19968799999993
 10
197.3293054999999
 20
28.00966199999982
 10
197.344412
 20
27.77987849999988
 10
197.328509
 20
27.55418099999986
 10
197.28044
 20
27.37091399999986
 10
197.199683
 20
27.22627049999994
 10
197.0856934999999
 20
27.11645249999993
 10
196.9379495
 20
27.03765749999991
 10
196.7559109999999
 20
26.98607849999985
 10
196.5390424999999
 20
26.95792199999994
 10
196.2868219999999
 20
26.94938099999991
 10
195.8650954999999
 20
26.94938099999991
  0
LWPOLYLINE
  5
1F7
330
1AB
100
AcDbEntity
  8
10-98
100
AcDbPolyline
 90
       29
 70
     1
 43
0.0135
 10
198.2592574999999
 20
24.39300749999984
 10
196.5917779999999
 20
26.60549999999989
 10
196.8296795
 20
26.62140749999992
 10
197.044991
 20
26.66833799999984
 10
197.2362769999999
 20
26.74511699999994
 10
197.4020884999999
 20
26.85057899999993
 10
197.5409854999999
 20
26.98353599999985
 10
197.6515234999999
 20
27.1428269999999
 10
197.7322669999999
 20
27.32726849999995
 10
197.7817714999999
 20
27.53568599999994
 10
197.7985924999999
 20
27.76690949999988
 10
197.7861995
 20
27.9879494999999
 10
197.749007
 20
28.18752449999982
 10
197.686979
 20
28.3657199999999
 10
197.600093
 20
28.52262149999979
 10
197.4883174999999
 20
28.65831899999989
 10
197.351621
 20
28.77290249999987
 10
197.1899765
 20
28.86645299999987
 10
197.0033525
 20
28.93906049999987
 10
196.7917219999999
 20
28.99081949999993
 10
196.5550579999999
 20
29.02180649999991
 10
196.2933245
 20
29.03211599999986
 10
196.2933245
 20
29.03211599999986
 10
195.4433554999999
 20
29.03211599999986
 10
195.4433554999999
 20
24.39300749999984
 10
195.8650954999999
 20
24.39300749999984
 10
195.8650954999999
 20
26.60549999999989
 10
196.118144
 20
26.60549999999989
 10
197.7466805
 20
24.39300749999984
  0
LWPOLYLINE
  5
1F8
330
1AB
100
AcDbEntity
  8
02-99
100
AcDbPolyline
 90
        4
 70
     1
 43
0.0
 10
0.0
 20
0.0
 10
210.0
 20
-0.0000000000000044
 10
210.0
 20
297.0000000000001
 10
0.0
 20
297.0000000000001
  0
ENDBLK
  5
1F9
330
1AB
100
AcDbEntity
  8
0
100
AcDbBlockEnd
  0
BLOCK
  5
3E1
330
3E0
100
AcDbEntity
  8
0
100
AcDbBlockBegin
  2
*D1
 70
     1
 10
0.0
 20
0.0
 30
0.0
  3
*D1
  1

  0
LINE
  5
3E2
330
3E0
100
AcDbEntity
  8
09-01
 62
     4
370
    -2
100
AcDbLine
 10
402.65543296541
 20
714.0410577754864
 30
0.0
 11
402.65543296541
 21
666.3944868919716
 31
0.0
  0
LINE
  5
3E3
330
3E0
100
AcDbEntity
  8
09-01
 62
     4
370
    -2
100
AcDbLine
 10
582.65543296541
 20
714.0410617508386
 30
0.0
 11
582.65543296541
 21
666.3944868919716
 31
0.0
  0
LINE
  5
3E4
330
3E0
100
AcDbEntity
  8
09-01
 62
     4
370
    -2
100
AcDbLine
 10
415.15543296541
 20
671.3944868919716
 30
0.0
 11
570.15543296541
 21
671.3944868919716
 31
0.0
  0
SOLID
  5
3E5
330
3E0
100
AcDbEntity
  8
09-01
 62
     4
100
AcDbTrace
 10
415.15543296541
 20
673.477820225305
 30
0.0
 11
415.15543296541
 21
669.3111535586382
 31
0.0
 12
402.65543296541
 22
671.3944868919716
 32
0.0
 13
402.65543296541
 23
671.3944868919716
 33
0.0
  0
SOLID
  5
3E6
330
3E0
100
AcDbEntity
  8
09-01
 62
     4
100
AcDbTrace
 10
570.15543296541
 20
673.477820225305
 30
0.0
 11
570.15543296541
 21
669.3111535586382
 31
0.0
 12
582.65543296541
 22
671.3944868919716
 32
0.0
 13
582.65543296541
 23
671.3944868919716
 33
0.0
  0
MTEXT
  5
3E7
330
3E0
100
AcDbEntity
  8
09-01
 62
     1
100
AcDbMText
 10
492.6554329654099
 20
682.6444868919716
 30
0.0
 40
12.5
 41
0.0
 46
0.0
 71
     5
 72
     1
  1
180
 73
     1
 44
1.0
  0
POINT
  5
3E8
330
3E0
100
AcDbEntity
  8
Defpoints
 62
     0
100
AcDbPoint
 10
402.65543296541
 20
719.0410577754865
 30
0.0
  0
POINT
  5
3E9
330
3E0
100
AcDbEntity
  8
Defpoints
 62
     0
100
AcDbPoint
 10
582.65543296541
 20
719.0410617508387
 30
0.0
  0
POINT
  5
3EA
330
3E0
100
AcDbEntity
  8
Defpoints
 62
     0
100
AcDbPoint
 10
582.65543296541
 20
671.3944868919716
 30
0.0
  0
ENDBLK
  5
3EB
330
3E0
100
AcDbEntity
  8
0
100
AcDbBlockEnd
  0
BLOCK
  5
215
330
214
100
AcDbEntity
  8
0
100
AcDbBlockBegin
  2
*D2
 70
     1
 10
0.0
 20
0.0
 30
0.0
  3
*D2
  1

  0
LINE
  5
216
330
214
100
AcDbEntity
  8
09-01
 62
     4
370
    -2
100
AcDbLine
 10
630.8098425077114
 20
1304.041061077942
 30
0.0
 11
630.8098425077114
 21
1337.942369000238
 31
0.0
  0
LINE
  5
217
330
214
100
AcDbEntity
  8
09-01
 62
     4
370
    -2
100
AcDbLine
 10
980.8098425197059
 20
1304.041061077942
 30
0.0
 11
980.8098425197059
 21
1337.942369000238
 31
0.0
  0
LINE
  5
218
330
214
100
AcDbEntity
  8
09-01
 62
     4
370
    -2
100
AcDbLine
 10
643.3098425077114
 20
1332.942369000238
 30
0.0
 11
968.3098425197059
 21
1332.942369000238
 31
0.0
  0
SOLID
  5
219
330
214
100
AcDbEntity
  8
09-01
 62
     4
100
AcDbTrace
 10
643.3098425077114
 20
1335.025702333572
 30
0.0
 11
643.3098425077114
 21
1330.859035666905
 31
0.0
 12
630.8098425077114
 22
1332.942369000238
 32
0.0
 13
630.8098425077114
 23
1332.942369000238
 33
0.0
  0
SOLID
  5
21A
330
214
100
AcDbEntity
  8
09-01
 62
     4
100
AcDbTrace
 10
968.3098425197059
 20
1335.025702333572
 30
0.0
 11
968.3098425197059
 21
1330.859035666905
 31
0.0
 12
980.8098425197059
 22
1332.942369000238
 32
0.0
 13
980.8098425197059
 23
1332.942369000238
 33
0.0
  0
MTEXT
  5
21B
330
214
100
AcDbEntity
  8
09-01
 62
     1
100
AcDbMText
 10
805.8098425137085
 20
1344.192369000239
 30
0.0
 40
12.5
 41
0.0
 46
0.0
 71
     5
 72
     1
  1
350
 73
     1
 44
1.0
  0
POINT
  5
21C
330
214
100
AcDbEntity
  8
Defpoints
 62
     0
100
AcDbPoint
 10
630.8098425077114
 20
1299.041061077943
 30
0.0
  0
POINT
  5
21D
330
214
100
AcDbEntity
  8
Defpoints
 62
     0
100
AcDbPoint
 10
980.8098425197059
 20
1299.041061077942
 30
0.0
  0
POINT
  5
21E
330
214
100
AcDbEntity
  8
Defpoints
 62
     0
100
AcDbPoint
 10
980.8098425197059
 20
1332.942369000238
 30
0.0
  0
ENDBLK
  5
21F
330
214
100
AcDbEntity
  8
0
100
AcDbBlockEnd
  0
BLOCK
  5
208
330
207
100
AcDbEntity
  8
0
100
AcDbBlockBegin
  2
*D3
 70
     1
 10
0.0
 20
0.0
 30
0.0
  3
*D3
  1

  0
LINE
  5
209
330
207
100
AcDbEntity
  8
09-01
 62
     4
370
    -2
100
AcDbLine
 10
985.8098425197058
 20
1299.041061077942
 30
0.0
 11
1009.566054464376
 21
1299.041061077942
 31
0.0
  0
LINE
  5
20A
330
207
100
AcDbEntity
  8
09-01
 62
     4
370
    -2
100
AcDbLine
 10
985.8098390449558
 20
719.0410605268016
 30
0.0
 11
1009.566054464376
 21
719.0410605268016
 31
0.0
  0
LINE
  5
20B
330
207
100
AcDbEntity
  8
09-01
 62
     4
370
    -2
100
AcDbLine
 10
1004.566054464376
 20
1286.541061077942
 30
0.0
 11
1004.566054464376
 21
731.5410605268016
 31
0.0
  0
SOLID
  5
20C
330
207
100
AcDbEntity
  8
09-01
 62
     4
100
AcDbTrace
 10
1002.482721131043
 20
1286.541061077942
 30
0.0
 11
1006.649387797709
 21
1286.541061077942
 31
0.0
 12
1004.566054464376
 22
1299.041061077942
 32
0.0
 13
1004.566054464376
 23
1299.041061077942
 33
0.0
  0
SOLID
  5
20D
330
207
100
AcDbEntity
  8
09-01
 62
     4
100
AcDbTrace
 10
1002.482721131042
 20
731.5410605268016
 30
0.0
 11
1006.649387797709
 21
731.5410605268016
 31
0.0
 12
1004.566054464376
 22
719.0410605268016
 32
0.0
 13
1004.566054464376
 23
719.0410605268016
 33
0.0
  0
MTEXT
  5
20E
330
207
100
AcDbEntity
  8
09-01
 62
     1
100
AcDbMText
 10
993.316054464376
 20
1009.041060802372
 30
0.0
 40
12.5
 41
0.0
 46
0.0
 71
     5
 72
     1
  1
580
 11
0.0000000000000001
 21
1.0
 31
0.0
 73
     1
 44
1.0
  0
POINT
  5
20F
330
207
100
AcDbEntity
  8
Defpoints
 62
     0
100
AcDbPoint
 10
980.8098425197059
 20
1299.041061077942
 30
0.0
  0
POINT
  5
210
330
207
100
AcDbEntity
  8
Defpoints
 62
     0
100
AcDbPoint
 10
980.8098390449558
 20
719.0410605268016
 30
0.0
  0
POINT
  5
211
330
207
100
AcDbEntity
  8
Defpoints
 62
     0
100
AcDbPoint
 10
1004.566054464376
 20
719.0410605268016
 30
0.0
  0
ENDBLK
  5
212
330
207
100
AcDbEntity
  8
0
100
AcDbBlockEnd
  0
BLOCK
  5
19F
330
19E
100
AcDbEntity
  8
0
100
AcDbBlockBegin
  2
*D4
 70
     1
 10
0.0
 20
0.0
 30
0.0
  3
*D4
  1

  0
LINE
  5
1A0
330
19E
100
AcDbEntity
  8
09-01
 62
     4
370
    -2
100
AcDbLine
 10
625.809845493939
 20
649.6171932502684
 30
0.0
 11
601.0373270584568
 21
649.6171932502684
 31
0.0
  0
LINE
  5
1A1
330
19E
100
AcDbEntity
  8
09-01
 62
     4
370
    -2
100
AcDbLine
 10
625.809845493939
 20
469.6171942281571
 30
0.0
 11
601.0373270584568
 21
469.6171942281571
 31
0.0
  0
LINE
  5
1A2
330
19E
100
AcDbEntity
  8
09-01
 62
     4
370
    -2
100
AcDbLine
 10
606.0373270584569
 20
637.1171932502684
 30
0.0
 11
606.0373270584569
 21
482.1171942281571
 31
0.0
  0
SOLID
  5
1A3
330
19E
100
AcDbEntity
  8
09-01
 62
     4
100
AcDbTrace
 10
603.9539937251235
 20
637.1171932502684
 30
0.0
 11
608.1206603917902
 21
637.1171932502684
 31
0.0
 12
606.0373270584569
 22
649.6171932502684
 32
0.0
 13
606.0373270584569
 23
649.6171932502684
 33
0.0
  0
SOLID
  5
1A4
330
19E
100
AcDbEntity
  8
09-01
 62
     4
100
AcDbTrace
 10
603.9539937251235
 20
482.1171942281571
 30
0.0
 11
608.1206603917902
 21
482.1171942281571
 31
0.0
 12
606.0373270584569
 22
469.6171942281571
 32
0.0
 13
606.0373270584569
 23
469.6171942281571
 33
0.0
  0
MTEXT
  5
1A5
330
19E
100
AcDbEntity
  8
09-01
 62
     1
100
AcDbMText
 10
594.7873270584567
 20
559.6171937392129
 30
0.0
 40
12.5
 41
0.0
 46
0.0
 71
     5
 72
     1
  1
180
 11
0.0000000000000001
 21
1.0
 31
0.0
 73
     1
 44
1.0
  0
POINT
  5
1A6
330
19E
100
AcDbEntity
  8
Defpoints
 62
     0
100
AcDbPoint
 10
630.809845493939
 20
649.6171932502684
 30
0.0
  0
POINT
  5
1A7
330
19E
100
AcDbEntity
  8
Defpoints
 62
     0
100
AcDbPoint
 10
630.809845493939
 20
469.6171942281571
 30
0.0
  0
POINT
  5
1A8
330
19E
100
AcDbEntity
  8
Defpoints
 62
     0
100
AcDbPoint
 10
606.0373270584569
 20
469.6171942281571
 30
0.0
  0
ENDBLK
  5
1A9
330
19E
100
AcDbEntity
  8
0
100
AcDbBlockEnd
  0
BLOCK
  5
190
330
18F
100
AcDbEntity
  8
0
100
AcDbBlockBegin
  2
*D5
 70
     1
 10
0.0
 20
0.0
 30
0.0
  3
*D5
  1

  0
LINE
  5
191
330
18F
100
AcDbEntity
  8
09-01
 62
     4
370
    -2
100
AcDbLine
 10
626.3098390566374
 20
439.4462874460087
 30
0.0
 11
601.0373270584568
 21
439.4462874460087
 31
0.0
  0
LINE
  5
192
330
18F
100
AcDbEntity
  8
09-01
 62
     4
370
    -2
100
AcDbLine
 10
626.3098390566374
 20
469.4462928104249
 30
0.0
 11
601.0373270584568
 21
469.4462928104249
 31
0.0
  0
LINE
  5
193
330
18F
100
AcDbEntity
  8
09-01
 62
     4
370
    -2
100
AcDbLine
 10
606.0373270584569
 20
426.9462874460087
 30
0.0
 11
606.0373270584569
 21
414.4462874460087
 31
0.0
  0
LINE
  5
194
330
18F
100
AcDbEntity
  8
09-01
 62
     4
370
    -2
100
AcDbLine
 10
606.0373270584569
 20
481.9462928104249
 30
0.0
 11
606.0373270584569
 21
494.4462928104249
 31
0.0
  0
MTEXT
  5
195
330
18F
100
AcDbEntity
  8
09-01
 62
     1
100
AcDbMText
 10
593.7434633473567
 20
416.7860588281219
 30
0.0
 40
12.5
 41
0.0
 46
0.0
 71
     5
 72
     1
  1
30
 11
0.0000000000000001
 21
1.0
 31
0.0
 73
     1
 44
1.0
  0
LINE
  5
196
330
18F
100
AcDbEntity
  8
09-01
 62
     4
370
    -2
100
AcDbLine
 10
606.0373270584569
 20
439.4462874460087
 30
0.0
 11
606.0373270584569
 21
469.4462928104249
 31
0.0
  0
SOLID
  5
197
330
18F
100
AcDbEntity
  8
09-01
 62
     4
100
AcDbTrace
 10
603.9539937251235
 20
426.9462874460087
 30
0.0
 11
608.1206603917902
 21
426.9462874460087
 31
0.0
 12
606.0373270584569
 22
439.4462874460087
 32
0.0
 13
606.0373270584569
 23
439.4462874460087
 33
0.0
  0
SOLID
  5
198
330
18F
100
AcDbEntity
  8
09-01
 62
     4
100
AcDbTrace
 10
603.9539937251235
 20
481.9462928104249
 30
0.0
 11
608.1206603917902
 21
481.9462928104249
 31
0.0
 12
606.0373270584569
 22
469.4462928104249
 32
0.0
 13
606.0373270584569
 23
469.4462928104249
 33
0.0
  0
POINT
  5
199
330
18F
100
AcDbEntity
  8
Defpoints
 62
     0
100
AcDbPoint
 10
631.3098390566374
 20
439.4462874460087
 30
0.0
  0
POINT
  5
19A
330
18F
100
AcDbEntity
  8
Defpoints
 62
     0
100
AcDbPoint
 10
631.3098390566374
 20
469.4462928104249
 30
0.0
  0
POINT
  5
19B
330
18F
100
AcDbEntity
  8
Defpoints
 62
     0
100
AcDbPoint
 10
606.0373270584569
 20
469.4462928104249
 30
0.0
  0
ENDBLK
  5
19C
330
18F
100
AcDbEntity
  8
0
100
AcDbBlockEnd
  0
BLOCK
  5
183
330
182
100
AcDbEntity
  8
0
100
AcDbBlockBegin
  2
*D6
 70
     1
 10
0.0
 20
0.0
 30
0.0
  3
*D6
  1

  0
LINE
  5
184
330
182
100
AcDbEntity
  8
09-01
 62
     4
370
    -2
100
AcDbLine
 10
625.809845493939
 20
649.6171932502684
 30
0.0
 11
577.2073296138951
 21
649.6171932502684
 31
0.0
  0
LINE
  5
185
330
182
100
AcDbEntity
  8
09-01
 62
     4
370
    -2
100
AcDbLine
 10
626.3098390566374
 20
439.4462874460087
 30
0.0
 11
577.2073296138951
 21
439.4462874460087
 31
0.0
  0
LINE
  5
186
330
182
100
AcDbEntity
  8
09-01
 62
     4
370
    -2
100
AcDbLine
 10
582.2073296138951
 20
637.1171932502684
 30
0.0
 11
582.2073296138951
 21
451.9462874460087
 31
0.0
  0
SOLID
  5
187
330
182
100
AcDbEntity
  8
09-01
 62
     4
100
AcDbTrace
 10
580.1239962805617
 20
637.1171932502684
 30
0.0
 11
584.2906629472285
 21
637.1171932502684
 31
0.0
 12
582.2073296138951
 22
649.6171932502684
 32
0.0
 13
582.2073296138951
 23
649.6171932502684
 33
0.0
  0
SOLID
  5
188
330
182
100
AcDbEntity
  8
09-01
 62
     4
100
AcDbTrace
 10
580.1239962805617
 20
451.9462874460087
 30
0.0
 11
584.2906629472285
 21
451.9462874460087
 31
0.0
 12
582.2073296138951
 22
439.4462874460087
 32
0.0
 13
582.2073296138951
 23
439.4462874460087
 33
0.0
  0
MTEXT
  5
189
330
182
100
AcDbEntity
  8
09-01
 62
     1
100
AcDbMText
 10
570.957329613895
 20
544.5317403481387
 30
0.0
 40
12.5
 41
0.0
 46
0.0
 71
     5
 72
     1
  1
210
 11
0.0000000000000001
 21
1.0
 31
0.0
 73
     1
 44
1.0
  0
POINT
  5
18A
330
182
100
AcDbEntity
  8
Defpoints
 62
     0
100
AcDbPoint
 10
630.809845493939
 20
649.6171932502684
 30
0.0
  0
POINT
  5
18B
330
182
100
AcDbEntity
  8
Defpoints
 62
     0
100
AcDbPoint
 10
631.3098390566374
 20
439.4462874460087
 30
0.0
  0
POINT
  5
18C
330
182
100
AcDbEntity
  8
Defpoints
 62
     0
100
AcDbPoint
 10
582.2073296138951
 20
439.4462874460087
 30
0.0
  0
ENDBLK
  5
18D
330
182
100
AcDbEntity
  8
0
100
AcDbBlockEnd
  0
BLOCK
  5
145
330
144
100
AcDbEntity
  8
0
100
AcDbBlockBegin
  2
*D7
 70
     1
 10
0.0
 20
0.0
 30
0.0
  3
*D7
  1

  0
LINE
  5
146
330
144
100
AcDbEntity
  8
09-01
 62
     4
370
    -2
100
AcDbLine
 10
667.8098425137086
 20
1185.540108259544
 30
0.0
 11
667.8098425137086
 21
1236.042074419814
 31
0.0
  0
LINE
  5
147
330
144
100
AcDbEntity
  8
09-01
 62
     4
370
    -2
100
AcDbLine
 10
943.8098425137086
 20
1185.540108259544
 30
0.0
 11
943.8098425137086
 21
1236.042074419814
 31
0.0
  0
LINE
  5
148
330
144
100
AcDbEntity
  8
09-01
 62
     4
370
    -2
100
AcDbLine
 10
680.3098425137086
 20
1231.042074419814
 30
0.0
 11
931.3098425137086
 21
1231.042074419814
 31
0.0
  0
SOLID
  5
149
330
144
100
AcDbEntity
  8
09-01
 62
     4
100
AcDbTrace
 10
680.3098425137086
 20
1233.125407753148
 30
0.0
 11
680.3098425137086
 21
1228.958741086481
 31
0.0
 12
667.8098425137086
 22
1231.042074419814
 32
0.0
 13
667.8098425137086
 23
1231.042074419814
 33
0.0
  0
SOLID
  5
14A
330
144
100
AcDbEntity
  8
09-01
 62
     4
100
AcDbTrace
 10
931.3098425137086
 20
1233.125407753148
 30
0.0
 11
931.3098425137086
 21
1228.958741086481
 31
0.0
 12
943.8098425137086
 22
1231.042074419814
 32
0.0
 13
943.8098425137086
 23
1231.042074419814
 33
0.0
  0
MTEXT
  5
14B
330
144
100
AcDbEntity
  8
09-01
 62
     1
100
AcDbMText
 10
805.8098425137085
 20
1242.292074419814
 30
0.0
 40
12.5
 41
0.0
 46
0.0
 71
     5
 72
     1
  1
276
 73
     1
 44
1.0
  0
POINT
  5
14C
330
144
100
AcDbEntity
  8
Defpoints
 62
     0
100
AcDbPoint
 10
667.8098425137086
 20
1180.540108259544
 30
0.0
  0
POINT
  5
14D
330
144
100
AcDbEntity
  8
Defpoints
 62
     0
100
AcDbPoint
 10
943.8098425137086
 20
1180.540108259544
 30
0.0
  0
POINT
  5
14E
330
144
100
AcDbEntity
  8
Defpoints
 62
     0
100
AcDbPoint
 10
943.8098425137086
 20
1231.042074419814
 30
0.0
  0
ENDBLK
  5
14F
330
144
100
AcDbEntity
  8
0
100
AcDbBlockEnd
  0
BLOCK
  5
136
330
135
100
AcDbEntity
  8
0
100
AcDbBlockBegin
  2
*D8
 70
     1
 10
0.0
 20
0.0
 30
0.0
  3
*D8
  1

  0
LINE
  5
137
330
135
100
AcDbEntity
  8
09-01
 62
     4
370
    -2
100
AcDbLine
 10
893.6026082069119
 20
1286.041061077942
 30
0.0
 11
854.8167234599604
 21
1286.041061077942
 31
0.0
  0
LINE
  5
138
330
135
100
AcDbEntity
  8
09-01
 62
     4
370
    -2
100
AcDbLine
 10
880.6026086794554
 20
1299.041061077943
 30
0.0
 11
854.8167234599604
 21
1299.041061077943
 31
0.0
  0
LINE
  5
139
330
135
100
AcDbEntity
  8
09-01
 62
     4
370
    -2
100
AcDbLine
 10
859.8167234599603
 20
1273.541061077942
 30
0.0
 11
859.8167234599603
 21
1261.041061077943
 31
0.0
  0
LINE
  5
13A
330
135
100
AcDbEntity
  8
09-01
 62
     4
370
    -2
100
AcDbLine
 10
859.8167234599605
 20
1311.541061077942
 30
0.0
 11
859.8167234599605
 21
1324.041061077943
 31
0.0
  0
MTEXT
  5
13B
330
135
100
AcDbEntity
  8
09-01
 62
     1
100
AcDbMText
 10
848.0024050793945
 20
1322.624233202778
 30
0.0
 40
12.5
 41
0.0
 46
0.0
 71
     5
 72
     1
  1
13
 11
0.0000000000000001
 21
1.0
 31
0.0
 73
     1
 44
1.0
  0
LINE
  5
13C
330
135
100
AcDbEntity
  8
09-01
 62
     4
370
    -2
100
AcDbLine
 10
859.8167234599605
 20
1286.041061077942
 30
0.0
 11
859.8167234599605
 21
1299.041061077943
 31
0.0
  0
SOLID
  5
13D
330
135
100
AcDbEntity
  8
09-01
 62
     4
100
AcDbTrace
 10
857.7333901266269
 20
1273.541061077942
 30
0.0
 11
861.9000567932937
 21
1273.541061077942
 31
0.0
 12
859.8167234599605
 22
1286.041061077942
 32
0.0
 13
859.8167234599605
 23
1286.041061077942
 33
0.0
  0
SOLID
  5
13E
330
135
100
AcDbEntity
  8
09-01
 62
     4
100
AcDbTrace
 10
857.7333901266271
 20
1311.541061077942
 30
0.0
 11
861.9000567932939
 21
1311.541061077942
 31
0.0
 12
859.8167234599605
 22
1299.041061077943
 32
0.0
 13
859.8167234599605
 23
1299.041061077943
 33
0.0
  0
POINT
  5
13F
330
135
100
AcDbEntity
  8
Defpoints
 62
     0
100
AcDbPoint
 10
898.6026082069118
 20
1286.041061077942
 30
0.0
  0
POINT
  5
140
330
135
100
AcDbEntity
  8
Defpoints
 62
     0
100
AcDbPoint
 10
885.6026086794555
 20
1299.041061077943
 30
0.0
  0
POINT
  5
141
330
135
100
AcDbEntity
  8
Defpoints
 62
     0
100
AcDbPoint
 10
859.8167234599605
 20
1299.041061077943
 30
0.0
  0
ENDBLK
  5
142
330
135
100
AcDbEntity
  8
0
100
AcDbBlockEnd
  0
BLOCK
  5
123
330
122
100
AcDbEntity
  8
0
100
AcDbBlockBegin
  2
*D9
 70
     1
 10
0.0
 20
0.0
 30
0.0
  3
*D9
  1

  0
LINE
  5
124
330
122
100
AcDbEntity
  8
09-01
 62
     4
370
    -2
100
AcDbLine
 10
672.8098487075651
 20
1286.041061077942
 30
0.0
 11
721.1908708212105
 21
1286.041061077942
 31
0.0
  0
LINE
  5
125
330
122
100
AcDbEntity
  8
09-01
 62
     4
370
    -2
100
AcDbLine
 10
672.8098425137087
 20
1113.541061077942
 30
0.0
 11
721.1908708212104
 21
1113.541061077942
 31
0.0
  0
LINE
  5
126
330
122
100
AcDbEntity
  8
09-01
 62
     4
370
    -2
100
AcDbLine
 10
716.1908708212104
 20
1273.541061077942
 30
0.0
 11
716.1908708212104
 21
1126.041061077942
 31
0.0
  0
SOLID
  5
127
330
122
100
AcDbEntity
  8
09-01
 62
     4
100
AcDbTrace
 10
714.107537487877
 20
1273.541061077942
 30
0.0
 11
718.2742041545438
 21
1273.541061077942
 31
0.0
 12
716.1908708212105
 22
1286.041061077942
 32
0.0
 13
716.1908708212105
 23
1286.041061077942
 33
0.0
  0
SOLID
  5
128
330
122
100
AcDbEntity
  8
09-01
 62
     4
100
AcDbTrace
 10
714.107537487877
 20
1126.041061077942
 30
0.0
 11
718.2742041545438
 21
1126.041061077942
 31
0.0
 12
716.1908708212104
 22
1113.541061077942
 32
0.0
 13
716.1908708212104
 23
1113.541061077942
 33
0.0
  0
MTEXT
  5
129
330
122
100
AcDbEntity
  8
09-01
 62
     1
100
AcDbMText
 10
704.9408708212102
 20
1199.791061077942
 30
0.0
 40
12.5
 41
0.0
 46
0.0
 71
     5
 72
     1
  1
172.5
 11
0.0000000000000001
 21
1.0
 31
0.0
 73
     1
 44
1.0
  0
POINT
  5
12A
330
122
100
AcDbEntity
  8
Defpoints
 62
     0
100
AcDbPoint
 10
667.8098487075651
 20
1286.041061077942
 30
0.0
  0
POINT
  5
12B
330
122
100
AcDbEntity
  8
Defpoints
 62
     0
100
AcDbPoint
 10
667.8098425137087
 20
1113.541061077942
 30
0.0
  0
POINT
  5
12C
330
122
100
AcDbEntity
  8
Defpoints
 62
     0
100
AcDbPoint
 10
716.1908708212104
 20
1113.541061077942
 30
0.0
  0
ENDBLK
  5
12D
330
122
100
AcDbEntity
  8
0
100
AcDbBlockEnd
  0
BLOCK
  5
FA
330
F9
100
AcDbEntity
  8
0
100
AcDbBlockBegin
  2
*D10
 70
     1
 10
0.0
 20
0.0
 30
0.0
  3
*D10
  1

  0
LINE
  5
FB
330
F9
100
AcDbEntity
  8
09-01
 62
     4
370
    -2
100
AcDbLine
 10
582.65543296541
 20
1304.041059940458
 30
0.0
 11
582.65543296541
 21
1327.967721866884
 31
0.0
  0
LINE
  5
FC
330
F9
100
AcDbEntity
  8
09-01
 62
     4
370
    -2
100
AcDbLine
 10
517.6554329654099
 20
1232.04005975054
 30
0.0
 11
517.6554329654099
 21
1327.967721866884
 31
0.0
  0
LINE
  5
FD
330
F9
100
AcDbEntity
  8
09-01
 62
     4
370
    -2
100
AcDbLine
 10
570.15543296541
 20
1322.967721866884
 30
0.0
 11
530.1554329654099
 21
1322.967721866884
 31
0.0
  0
SOLID
  5
FE
330
F9
100
AcDbEntity
  8
09-01
 62
     4
100
AcDbTrace
 10
570.15543296541
 20
1325.051055200217
 30
0.0
 11
570.15543296541
 21
1320.884388533551
 31
0.0
 12
582.65543296541
 22
1322.967721866884
 32
0.0
 13
582.65543296541
 23
1322.967721866884
 33
0.0
  0
SOLID
  5
FF
330
F9
100
AcDbEntity
  8
09-01
 62
     4
100
AcDbTrace
 10
530.1554329654099
 20
1325.051055200217
 30
0.0
 11
530.1554329654099
 21
1320.884388533551
 31
0.0
 12
517.6554329654099
 22
1322.967721866884
 32
0.0
 13
517.6554329654099
 23
1322.967721866884
 33
0.0
  0
MTEXT
  5
100
330
F9
100
AcDbEntity
  8
09-01
 62
     1
100
AcDbMText
 10
550.15543296541
 20
1334.217721866884
 30
0.0
 40
12.5
 41
0.0
 46
0.0
 71
     5
 72
     1
  1
65
 73
     1
 44
1.0
  0
POINT
  5
101
330
F9
100
AcDbEntity
  8
Defpoints
 62
     0
100
AcDbPoint
 10
582.65543296541
 20
1299.041059940458
 30
0.0
  0
POINT
  5
102
330
F9
100
AcDbEntity
  8
Defpoints
 62
     0
100
AcDbPoint
 10
517.6554329654099
 20
1227.04005975054
 30
0.0
  0
POINT
  5
103
330
F9
100
AcDbEntity
  8
Defpoints
 62
     0
100
AcDbPoint
 10
517.6554329654099
 20
1322.967721866884
 30
0.0
  0
ENDBLK
  5
104
330
F9
100
AcDbEntity
  8
0
100
AcDbBlockEnd
  0
BLOCK
  5
ED
330
EC
100
AcDbEntity
  8
0
100
AcDbBlockBegin
  2
*D11
 70
     1
 10
0.0
 20
0.0
 30
0.0
  3
*D11
  1

  0
LINE
  5
EE
330
EC
100
AcDbEntity
  8
09-01
 62
     4
370
    -2
100
AcDbLine
 10
587.65543296541
 20
1299.041059940458
 30
0.0
 11
614.2374577001683
 21
1299.041059940458
 31
0.0
  0
LINE
  5
EF
330
EC
100
AcDbEntity
  8
09-01
 62
     4
370
    -2
100
AcDbLine
 10
526.6554329654099
 20
1223.041059940458
 30
0.0
 11
614.2374577001683
 21
1223.041059940458
 31
0.0
  0
LINE
  5
F0
330
EC
100
AcDbEntity
  8
09-01
 62
     4
370
    -2
100
AcDbLine
 10
609.2374577001684
 20
1286.541059940458
 30
0.0
 11
609.2374577001683
 21
1235.541059940458
 31
0.0
  0
SOLID
  5
F1
330
EC
100
AcDbEntity
  8
09-01
 62
     4
100
AcDbTrace
 10
607.154124366835
 20
1286.541059940458
 30
0.0
 11
611.3207910335018
 21
1286.541059940458
 31
0.0
 12
609.2374577001684
 22
1299.041059940458
 32
0.0
 13
609.2374577001684
 23
1299.041059940458
 33
0.0
  0
SOLID
  5
F2
330
EC
100
AcDbEntity
  8
09-01
 62
     4
100
AcDbTrace
 10
607.1541243668349
 20
1235.541059940458
 30
0.0
 11
611.3207910335017
 21
1235.541059940458
 31
0.0
 12
609.2374577001683
 22
1223.041059940458
 32
0.0
 13
609.2374577001683
 23
1223.041059940458
 33
0.0
  0
MTEXT
  5
F3
330
EC
100
AcDbEntity
  8
09-01
 62
     1
100
AcDbMText
 10
597.9874577001681
 20
1261.041059940458
 30
0.0
 40
12.5
 41
0.0
 46
0.0
 71
     5
 72
     1
  1
76
 11
0.0000000000000001
 21
1.0
 31
0.0
 73
     1
 44
1.0
  0
POINT
  5
F4
330
EC
100
AcDbEntity
  8
Defpoints
 62
     0
100
AcDbPoint
 10
582.65543296541
 20
1299.041059940458
 30
0.0
  0
POINT
  5
F5
330
EC
100
AcDbEntity
  8
Defpoints
 62
     0
100
AcDbPoint
 10
521.6554329654099
 20
1223.041059940458
 30
0.0
  0
POINT
  5
F6
330
EC
100
AcDbEntity
  8
Defpoints
 62
     0
100
AcDbPoint
 10
609.2374577001683
 20
1223.041059940458
 30
0.0
  0
ENDBLK
  5
F7
330
EC
100
AcDbEntity
  8
0
100
AcDbBlockEnd
  0
BLOCK
  5
E0
330
DF
100
AcDbEntity
  8
0
100
AcDbBlockBegin
  2
*D12
 70
     1
 10
0.0
 20
0.0
 30
0.0
  3
*D12
  1

  0
LINE
  5
E1
330
DF
100
AcDbEntity
  8
09-01
 62
     4
370
    -2
100
AcDbLine
 10
531.65543296541
 20
1223.041059940458
 30
0.0
 11
614.2374577001683
 21
1223.041059940458
 31
0.0
  0
LINE
  5
E2
330
DF
100
AcDbEntity
  8
09-01
 62
     4
370
    -2
100
AcDbLine
 10
526.6554329654099
 20
923.0410599404583
 30
0.0
 11
614.2374577001683
 21
923.0410599404583
 31
0.0
  0
LINE
  5
E3
330
DF
100
AcDbEntity
  8
09-01
 62
     4
370
    -2
100
AcDbLine
 10
609.2374577001683
 20
1210.541059940458
 30
0.0
 11
609.2374577001683
 21
935.5410599404583
 31
0.0
  0
SOLID
  5
E4
330
DF
100
AcDbEntity
  8
09-01
 62
     4
100
AcDbTrace
 10
607.1541243668349
 20
1210.541059940458
 30
0.0
 11
611.3207910335017
 21
1210.541059940458
 31
0.0
 12
609.2374577001683
 22
1223.041059940458
 32
0.0
 13
609.2374577001683
 23
1223.041059940458
 33
0.0
  0
SOLID
  5
E5
330
DF
100
AcDbEntity
  8
09-01
 62
     4
100
AcDbTrace
 10
607.1541243668349
 20
935.5410599404583
 30
0.0
 11
611.3207910335017
 21
935.5410599404583
 31
0.0
 12
609.2374577001683
 22
923.0410599404583
 32
0.0
 13
609.2374577001683
 23
923.0410599404583
 33
0.0
  0
MTEXT
  5
E6
330
DF
100
AcDbEntity
  8
09-01
 62
     1
100
AcDbMText
 10
597.9874577001681
 20
1073.041059940458
 30
0.0
 40
12.5
 41
0.0
 46
0.0
 71
     5
 72
     1
  1
300
 11
0.0000000000000001
 21
1.0
 31
0.0
 73
     1
 44
1.0
  0
POINT
  5
E7
330
DF
100
AcDbEntity
  8
Defpoints
 62
     0
100
AcDbPoint
 10
526.6554329654099
 20
1223.041059940458
 30
0.0
  0
POINT
  5
E8
330
DF
100
AcDbEntity
  8
Defpoints
 62
     0
100
AcDbPoint
 10
521.6554329654099
 20
923.0410599404583
 30
0.0
  0
POINT
  5
E9
330
DF
100
AcDbEntity
  8
Defpoints
 62
     0
100
AcDbPoint
 10
609.2374577001683
 20
923.0410599404583
 30
0.0
  0
ENDBLK
  5
EA
330
DF
100
AcDbEntity
  8
0
100
AcDbBlockEnd
  0
BLOCK
  5
A5
330
A4
100
AcDbEntity
  8
0
100
AcDbBlockBegin
  2
*D13
 70
     1
 10
0.0
 20
0.0
 30
0.0
  3
*D13
  1

  0
LINE
  5
A6
330
A4
100
AcDbEntity
  8
09-01
 62
     4
370
    -2
100
AcDbLine
 10
145.4707447116947
 20
1295.041059940457
 30
0.0
 11
145.4707447116947
 21
1232.999000662276
 31
0.0
  0
LINE
  5
A7
330
A4
100
AcDbEntity
  8
09-01
 62
     4
370
    -2
100
AcDbLine
 10
325.4707447116983
 20
1294.041059940457
 30
0.0
 11
325.4707447116983
 21
1232.999000662276
 31
0.0
  0
LINE
  5
A8
330
A4
100
AcDbEntity
  8
09-01
 62
     4
370
    -2
100
AcDbLine
 10
157.9707447116947
 20
1237.999000662276
 30
0.0
 11
312.9707447116983
 21
1237.999000662276
 31
0.0
  0
MTEXT
  5
A9
330
A4
100
AcDbEntity
  8
09-01
 62
     1
100
AcDbMText
 10
222.4819738558675
 20
1255.185992972714
 30
0.0
 40
12.5
 41
0.0
 46
0.0
 71
     5
 72
     1
  1
max.180
 73
     1
 44
1.0
  0
SOLID
  5
AA
330
A4
100
AcDbEntity
  8
09-01
 62
     4
100
AcDbTrace
 10
157.9707447116947
 20
1240.082333995609
 30
0.0
 11
157.9707447116947
 21
1235.915667328943
 31
0.0
 12
145.4707447116947
 22
1237.999000662276
 32
0.0
 13
145.4707447116947
 23
1237.999000662276
 33
0.0
  0
SOLID
  5
AB
330
A4
100
AcDbEntity
  8
09-01
 62
     4
100
AcDbTrace
 10
312.9707447116983
 20
1240.082333995609
 30
0.0
 11
312.9707447116983
 21
1235.915667328943
 31
0.0
 12
325.4707447116983
 22
1237.999000662276
 32
0.0
 13
325.4707447116983
 23
1237.999000662276
 33
0.0
  0
POINT
  5
AC
330
A4
100
AcDbEntity
  8
Defpoints
 62
     0
100
AcDbPoint
 10
145.4707447116947
 20
1300.041059940457
 30
0.0
  0
POINT
  5
AD
330
A4
100
AcDbEntity
  8
Defpoints
 62
     0
100
AcDbPoint
 10
325.4707447116983
 20
1299.041059940457
 30
0.0
  0
POINT
  5
AE
330
A4
100
AcDbEntity
  8
Defpoints
 62
     0
100
AcDbPoint
 10
325.4707447116983
 20
1237.999000662276
 30
0.0
  0
ENDBLK
  5
AF
330
A4
100
AcDbEntity
  8
0
100
AcDbBlockEnd
  0
BLOCK
  5
7C
330
7B
100
AcDbEntity
  8
0
100
AcDbBlockBegin
  2
*D14
 70
     1
 10
0.0
 20
0.0
 30
0.0
  3
*D14
  1

  0
LINE
  5
7D
330
7B
100
AcDbEntity
  8
09-01
 62
     4
370
    -2
100
AcDbLine
 10
512.65543296541
 20
1226.041059940458
 30
0.0
 11
497.1869744994291
 21
1226.041059940458
 31
0.0
  0
LINE
  5
7E
330
7B
100
AcDbEntity
  8
09-01
 62
     4
370
    -2
100
AcDbLine
 10
512.65543296541
 20
1220.041059940458
 30
0.0
 11
497.1869744994291
 21
1220.041059940458
 31
0.0
  0
LINE
  5
7F
330
7B
100
AcDbEntity
  8
09-01
 62
     4
370
    -2
100
AcDbLine
 10
502.1869744994291
 20
1238.541059940458
 30
0.0
 11
502.1869744994291
 21
1251.041059940458
 31
0.0
  0
LINE
  5
80
330
7B
100
AcDbEntity
  8
09-01
 62
     4
370
    -2
100
AcDbLine
 10
502.1869744994291
 20
1207.541059940459
 30
0.0
 11
502.1869744994291
 21
1195.041059940458
 31
0.0
  0
MTEXT
  5
81
330
7B
100
AcDbEntity
  8
09-01
 62
     1
100
AcDbMText
 10
491.0580930613905
 20
1244.196841581279
 30
0.0
 40
12.5
 41
0.0
 46
0.0
 71
     5
 72
     1
  1
6
 11
0.0000000000000001
 21
1.0
 31
0.0
 73
     1
 44
1.0
  0
LINE
  5
82
330
7B
100
AcDbEntity
  8
09-01
 62
     4
370
    -2
100
AcDbLine
 10
502.1869744994291
 20
1226.041059940458
 30
0.0
 11
502.1869744994291
 21
1220.041059940458
 31
0.0
  0
SOLID
  5
83
330
7B
100
AcDbEntity
  8
09-01
 62
     4
100
AcDbTrace
 10
500.1036411660958
 20
1238.541059940458
 30
0.0
 11
504.2703078327625
 21
1238.541059940458
 31
0.0
 12
502.1869744994291
 22
1226.041059940458
 32
0.0
 13
502.1869744994291
 23
1226.041059940458
 33
0.0
  0
SOLID
  5
84
330
7B
100
AcDbEntity
  8
09-01
 62
     4
100
AcDbTrace
 10
500.1036411660958
 20
1207.541059940459
 30
0.0
 11
504.2703078327625
 21
1207.541059940459
 31
0.0
 12
502.1869744994291
 22
1220.041059940458
 32
0.0
 13
502.1869744994291
 23
1220.041059940458
 33
0.0
  0
POINT
  5
85
330
7B
100
AcDbEntity
  8
Defpoints
 62
     0
100
AcDbPoint
 10
517.6554329654099
 20
1226.041059940458
 30
0.0
  0
POINT
  5
87
330
7B
100
AcDbEntity
  8
Defpoints
 62
     0
100
AcDbPoint
 10
517.6554329654099
 20
1220.041059940458
 30
0.0
  0
POINT
  5
88
330
7B
100
AcDbEntity
  8
Defpoints
 62
     0
100
AcDbPoint
 10
502.1869744994291
 20
1220.041059940458
 30
0.0
  0
ENDBLK
  5
89
330
7B
100
AcDbEntity
  8
0
100
AcDbBlockEnd
  0
ENDSEC
  0
SECTION
  2
ENTITIES
  0
DIMENSION
  5
7A
330
2
100
AcDbEntity
  8
09-01
100
AcDbDimension
280
     0
  2
*D14
 10
502.1869744994291
 20
1220.041059940458
 30
0.0
 11
491.0580930613905
 21
1244.196841581279
 31
0.0
 70
   128
 71
     5
 42
6.0
 73
     0
 74
     0
 75
     0
  3
Wagner$0
100
AcDbAlignedDimension
 13
517.6554329654099
 23
1226.041059940458
 33
0.0
 14
517.6554329654099
 24
1220.041059940458
 34
0.0
 50
90.0
100
AcDbRotatedDimension
1001
ACAD
1000
DSTYLE
1002
{
1070
    40
1040
5.0
1002
}
  0
CIRCLE
  5
8B
330
2
100
AcDbEntity
  8
01-01
100
AcDbCircle
 10
260.4707447116983
 20
1223.041059940457
 30
0.0
 40
3.0
  0
LINE
  5
8E
330
2
100
AcDbEntity
  8
05-01
100
AcDbLine
 10
260.4707447116983
 20
1219.041059940457
 30
0.0
 11
260.4707447116983
 21
1227.041059940457
 31
0.0
  0
LINE
  5
91
330
2
100
AcDbEntity
  8
05-01
100
AcDbLine
 10
264.4707447116983
 20
1223.041059940457
 30
0.0
 11
256.4707447116983
 21
1223.041059940457
 31
0.0
  0
CIRCLE
  5
92
330
2
100
AcDbEntity
  8
01-01
100
AcDbCircle
 10
260.4707447116983
 20
923.0410599404569
 30
0.0
 40
3.0
  0
LINE
  5
93
330
2
100
AcDbEntity
  8
05-01
100
AcDbLine
 10
260.4707447116983
 20
919.041059940457
 30
0.0
 11
260.4707447116983
 21
927.041059940457
 31
0.0
  0
LINE
  5
94
330
2
100
AcDbEntity
  8
05-01
100
AcDbLine
 10
264.4707447116983
 20
923.0410599404569
 30
0.0
 11
256.4707447116983
 21
923.0410599404569
 31
0.0
  0
LINE
  5
95
330
2
100
AcDbEntity
  8
0
100
AcDbLine
 10
145.2998432173975
 20
720.6718137258445
 30
0.0
 11
145.2998432173939
 21
1298.465502589345
 31
0.0
  0
LINE
  5
96
330
2
100
AcDbEntity
  8
09-01
100
AcDbLine
 10
145.2998432173975
 20
720.6718137258445
 30
0.0
 11
145.2162204467807
 21
719.87619620955
 31
0.0
  0
LINE
  5
97
330
2
100
AcDbEntity
  8
0
100
AcDbLine
 10
145.2162204467807
 20
719.87619620955
 30
0.0
 11
120.146587415957
 21
722.5111208176463
 31
0.0
  0
LINE
  5
98
330
2
100
AcDbEntity
  8
0
100
AcDbLine
 10
145.4707445248517
 20
720.3410591577562
 30
0.0
 11
145.4707445425177
 21
719.5410591577561
 31
0.0
  0
LINE
  5
99
330
2
100
AcDbEntity
  8
0
100
AcDbLine
 10
120.146587415957
 20
722.5111208176463
 30
0.0
 11
125.2998406550526
 21
771.5410502593027
 31
0.0
  0
LINE
  5
9A
330
2
100
AcDbEntity
  8
0
100
AcDbLine
 10
145.4707445425177
 20
771.5410400689893
 30
0.0
 11
115.2998441364419
 21
771.5410548448986
 31
0.0
  0
LINE
  5
9B
330
2
100
AcDbEntity
  8
0
100
AcDbLine
 10
145.4707447116983
 20
719.0410577754851
 30
0.0
 11
145.4707447116947
 21
1299.041059940457
 31
0.0
  0
TEXT
  5
9C
330
2
100
AcDbEntity
  8
02-01
100
AcDbText
 10
150.9106314107651
 20
974.3267947361806
 30
0.0
 40
15.0
  1
Einbauhinweis
  7
ROMANS
100
AcDbText
  0
TEXT
  5
A1
330
2
100
AcDbEntity
  8
02-01
100
AcDbText
 10
150.9106314107651
 20
927.9861857885448
 30
0.0
 40
15.0
  1
montage
  7
ROMANS
100
AcDbText
  0
TEXT
  5
A2
330
2
100
AcDbEntity
  8
02-01
100
AcDbText
 10
150.9106314107651
 20
950.5407159093596
 30
0.0
 40
15.0
  1
bei Unterputz-
  7
ROMANS
100
AcDbText
  0
DIMENSION
  5
A3
330
2
100
AcDbEntity
  8
09-01
100
AcDbDimension
280
     0
  2
*D13
 10
325.4707447116983
 20
1237.999000662276
 30
0.0
 11
222.4819738558675
 21
1255.185992972714
 31
0.0
 70
   128
  1
max.<>
 71
     5
 42
180.0000000000036
 73
     0
 74
     0
 75
     0
  3
Wagner$0
100
AcDbAlignedDimension
 13
145.4707447116947
 23
1300.041059940457
 33
0.0
 14
325.4707447116983
 24
1299.041059940457
 34
0.0
100
AcDbRotatedDimension
1001
ACAD
1000
DSTYLE
1002
{
1070
    40
1040
5.0
1070
   271
1070
     1
1070
   272
1070
     1
1002
}
  0
LINE
  5
B0
330
2
100
AcDbEntity
  8
05-01
100
AcDbLine
 10
134.129211443082
 20
620.4671600717269
 30
0.0
 11
370.919600835385
 21
620.4671600717269
 31
0.0
  0
LINE
  5
B1
330
2
100
AcDbEntity
  8
05-01
100
AcDbLine
 10
135.1483147862294
 20
1429.602452773114
 30
0.0
 11
370.919600835385
 21
1429.602452773114
 31
0.0
  0
LINE
  5
B2
330
2
100
AcDbEntity
  8
10-98
100
AcDbLine
 10
355.4707447116983
 20
620.4671600717269
 30
0.0
 11
355.4707447116983
 21
1429.602452773114
 31
0.0
  0
LINE
  5
B6
330
2
100
AcDbEntity
  8
10-98
100
AcDbLine
 10
145.4707447116983
 20
1300.041059940457
 30
0.0
 11
145.4707447116983
 21
1429.602452773114
 31
0.0
  0
LINE
  5
B7
330
2
100
AcDbEntity
  8
10-98
100
AcDbLine
 10
145.4707447116983
 20
620.4671600717269
 30
0.0
 11
145.4707447116983
 21
718.0410584380438
 31
0.0
  0
LINE
  5
B8
330
2
100
AcDbEntity
  8
0
100
AcDbLine
 10
113.306953690639
 20
988.2402886092817
 30
0.0
 11
113.3069536236056
 21
971.9260750469079
 31
0.0
  0
LINE
  5
B9
330
2
100
AcDbEntity
  8
0
100
AcDbLine
 10
114.0140604035899
 20
971.6331818251896
 30
0.0
 11
114.014060473028
 21
988.5331818251893
 31
0.0
  0
LINE
  5
BA
330
2
100
AcDbEntity
  8
0
100
AcDbLine
 10
113.3069536236056
 20
971.9260750469079
 30
0.0
 11
113.3069536571223
 21
980.0831818280952
 31
0.0
  0
LINE
  5
BB
330
2
100
AcDbEntity
  8
0
100
AcDbLine
 10
113.3069536571223
 20
980.0831818280952
 30
0.0
 11
113.306953690639
 21
988.2402886092817
 31
0.0
  0
LINE
  5
BC
330
2
100
AcDbEntity
  8
0
100
AcDbLine
 10
114.014060473028
 20
988.5331818251893
 30
0.0
 11
114.0140604383072
 21
980.0831818251904
 31
0.0
  0
LINE
  5
BD
330
2
100
AcDbEntity
  8
0
100
AcDbLine
 10
114.0140604383072
 20
980.0831818251904
 30
0.0
 11
114.0140604035899
 21
971.6331818251896
 31
0.0
  0
LINE
  5
BE
330
2
100
AcDbEntity
  8
10-98
100
AcDbLine
 10
327.4707447116983
 20
1300.041059940457
 30
0.0
 11
145.4707447116947
 21
1300.041059940457
 31
0.0
  0
LINE
  5
BF
330
2
100
AcDbEntity
  8
0
100
AcDbLine
 10
325.4707447116983
 20
1299.041059940457
 30
0.0
 11
145.4707447116947
 21
1299.041059940457
 31
0.0
  0
LINE
  5
C0
330
2
100
AcDbEntity
  8
10-98
100
AcDbLine
 10
145.4707447116983
 20
718.0410584380438
 30
0.0
 11
327.4707447116983
 21
718.0410617950078
 31
0.0
  0
LINE
  5
C1
330
2
100
AcDbEntity
  8
0
100
AcDbLine
 10
145.4707447116947
 20
719.0410577754851
 30
0.0
 11
325.4707447116983
 21
719.0410617508373
 31
0.0
  0
LINE
  5
C2
330
2
100
AcDbEntity
  8
10-98
100
AcDbLine
 10
327.4707447116983
 20
718.0410617950078
 30
0.0
 11
327.4707447116983
 21
1300.041059940457
 31
0.0
  0
HATCH
  5
C3
330
2
100
AcDbEntity
  8
10-98
100
AcDbHatch
 10
0.0
 20
0.0
 30
0.0
210
0.0
220
0.0
230
1.0
  2
AR-B816C
 70
     0
 71
     0
 91
        1
 92
        7
 72
     0
 73
     1
 93
        8
 10
355.4707447116983
 20
1429.602452773114
 10
145.4707447116983
 20
1429.602452773114
 10
145.4707447116983
 20
1300.041059940457
 10
327.4707447116947
 20
1300.041059940457
 10
327.4707447116947
 20
718.0410617950078
 10
145.4707447116983
 20
718.0410584380438
 10
145.4707447116947
 20
620.4671600717269
 10
355.4707447116983
 20
620.4671600717269
 97
        0
 75
     0
 76
     1
 52
0.0
 41
0.1
 77
     0
 78
     4
 53
0.0
 43
-8644.981406679777
 44
-4255.087734902303
 45
20.32
 46
20.32
 79
     2
 49
39.6875
 49
-0.9525000000000002
 53
0.0
 43
-8665.301406679777
 44
-4254.135234902302
 45
20.32
 46
20.32
 79
     2
 49
39.6875
 49
-0.9525000000000002
 53
90.0
 43
-8644.981406679777
 44
-4255.087734902303
 45
-20.32
 46
20.32
 79
     2
 49
-21.2725
 49
19.3675
 53
90.0
 43
-8645.933906679777
 44
-4255.087734902303
 45
-20.32
 46
20.32
 79
     2
 49
-21.2725
 49
19.3675
 47
1.390162509686369
 98
        1
 10
218.223315296162
 20
1376.145533597195
1001
ACAD
1010
0.0
1020
0.0
1030
0.0
  0
LINE
  5
C4
330
2
100
AcDbEntity
  8
0
100
AcDbLine
 10
325.4707447116983
 20
719.0410617508373
 30
0.0
 11
325.4707447116983
 21
1299.041059940457
 31
0.0
  0
ARC
  5
C5
330
2
100
AcDbEntity
  8
0
100
AcDbCircle
 10
116.7998393558176
 20
810.417646280905
 30
0.0
 40
5.0
100
AcDbArc
 50
179.999999764566
 51
199.9999997645938
  0
ARC
  5
C6
330
2
100
AcDbEntity
  8
0
100
AcDbCircle
 10
116.7998394554473
 20
834.6644667960022
 30
0.0
 40
5.000000000000031
100
AcDbArc
 50
159.9999997645478
 51
179.999999764566
  0
LINE
  5
C7
330
2
100
AcDbEntity
  8
0
100
AcDbLine
 10
111.7998393558176
 20
810.4176463014496
 30
0.0
 11
111.7998394554473
 21
834.6644668165467
 31
0.0
  0
ARC
  5
C8
330
2
100
AcDbEntity
  8
0
100
AcDbCircle
 10
114.1499431007781
 20
804.5410565493416
 30
0.0
 40
0.5
100
AcDbArc
 50
199.9999997645938
 51
269.9999997645661
  0
LWPOLYLINE
  5
C9
330
2
100
AcDbEntity
  8
0
100
AcDbPolyline
 90
        4
 70
   128
 43
0.0
 10
113.6800919170404
 20
804.3700316138115
 10
113.6744294757867
 20
804.3856182284203
 10
113.6575017566705
 20
804.4321396536675
 10
113.6295173759484
 20
804.5090296454278
  0
ARC
  5
CA
330
2
100
AcDbEntity
  8
0
100
AcDbCircle
 10
114.1499432486984
 20
840.5410565493417
 30
0.0
 40
0.5
100
AcDbArc
 50
89.99999976456608
 51
159.9999997645946
  0
LWPOLYLINE
  5
CB
330
2
100
AcDbEntity
  8
0
100
AcDbPolyline
 90
        4
 70
   128
 43
0.0
 10
113.6295173759484
 20
840.5730881876793
 10
113.6575017566705
 20
840.6499781794396
 10
113.6744294757867
 20
840.6964996046868
 10
113.6800919170404
 20
840.7120713181344
  0
LINE
  5
CC
330
2
100
AcDbEntity
  8
0
100
AcDbLine
 10
112.1013763585455
 20
836.3745675319364
 30
0.0
 11
113.6295133098123
 21
840.5730892456981
 31
0.0
  0
LINE
  5
CD
330
2
100
AcDbEntity
  8
0
100
AcDbLine
 10
113.6295131616265
 20
804.5090238572624
 30
0.0
 11
112.1013762448623
 21
808.7075455835824
 31
0.0
  0
LINE
  5
CE
330
2
100
AcDbEntity
  8
0
100
AcDbLine
 10
114.1499432507538
 20
841.0410565493416
 30
0.0
 11
115.2998332376504
 21
841.0410591549721
 31
0.0
  0
LINE
  5
CF
330
2
100
AcDbEntity
  8
0
100
AcDbLine
 10
115.2998332376504
 20
804.0410437769738
 30
0.0
 11
114.1499430987227
 21
804.0410565493417
 31
0.0
  0
LINE
  5
D0
330
2
100
AcDbEntity
  8
0
100
AcDbLine
 10
115.299853826846
 20
1298.465502589345
 30
0.0
 11
145.2998432173939
 21
1298.465502589345
 31
0.0
  0
LINE
  5
D1
330
2
100
AcDbEntity
  8
0
100
AcDbLine
 10
115.2998441364419
 20
771.5410548448986
 30
0.0
 11
115.299853826846
 21
1298.465502589345
 31
0.0
  0
LINE
  5
D2
330
2
100
AcDbEntity
  8
0
100
AcDbLine
 10
112.0998468473793
 20
973.133181833055
 30
0.0
 11
112.0998468759375
 21
980.0831818330557
 31
0.0
  0
LINE
  5
D3
330
2
100
AcDbEntity
  8
0
100
AcDbLine
 10
112.0998468759375
 20
980.0831818330557
 30
0.0
 11
112.099846904492
 21
987.0331818330546
 31
0.0
  0
LINE
  5
D4
330
2
100
AcDbEntity
  8
0
100
AcDbLine
 10
111.7998468510762
 20
974.0331818342879
 30
0.0
 11
111.7998468759346
 21
980.0831818342871
 31
0.0
  0
LINE
  5
D5
330
2
100
AcDbEntity
  8
0
100
AcDbLine
 10
111.7998468759346
 20
980.0831818342871
 30
0.0
 11
111.7998469007965
 21
986.1331818342883
 31
0.0
  0
LINE
  5
D6
330
2
100
AcDbEntity
  8
0
100
AcDbLine
 10
112.0998468473793
 20
973.133181833055
 30
0.0
 11
113.3069536236056
 21
971.9260750469079
 31
0.0
  0
LINE
  5
D7
330
2
100
AcDbEntity
  8
0
100
AcDbLine
 10
113.306953690639
 20
988.2402886092817
 30
0.0
 11
112.099846904492
 21
987.0331818330546
 31
0.0
  0
ARC
  5
D8
330
2
100
AcDbEntity
  8
0
100
AcDbCircle
 10
114.0140604689207
 20
987.5331818251893
 30
0.0
 40
1.000000000000028
100
AcDbArc
 50
89.99999976456608
 51
134.9999997646119
  0
ARC
  5
D9
330
2
100
AcDbEntity
  8
0
100
AcDbCircle
 10
114.0140604076972
 20
972.6331818251896
 30
0.0
 40
1.0
100
AcDbArc
 50
224.9999997645877
 51
269.9999997645661
  0
LINE
  5
DA
330
2
100
AcDbEntity
  8
0
100
AcDbLine
 10
115.2998538085979
 20
988.5331749895708
 30
0.0
 11
114.014060473028
 21
988.5331818251893
 31
0.0
  0
LINE
  5
DB
330
2
100
AcDbEntity
  8
0
100
AcDbLine
 10
114.0140604035899
 20
971.6331818251896
 30
0.0
 11
115.2998538085979
 21
971.6331869343417
 31
0.0
  0
ARC
  5
DC
330
2
100
AcDbEntity
  8
0
100
AcDbCircle
 10
112.0998469007958
 20
986.1331818330549
 30
0.0
 40
0.2999999999999829
100
AcDbArc
 50
89.99999976456608
 51
179.999999764566
  0
ARC
  5
DD
330
2
100
AcDbEntity
  8
0
100
AcDbCircle
 10
112.0998468510755
 20
974.0331818330545
 30
0.0
 40
0.2999999999999829
100
AcDbArc
 50
179.999999764566
 51
269.9999997645661
  0
DIMENSION
  5
DE
330
2
100
AcDbEntity
  8
09-01
100
AcDbDimension
280
     0
  2
*D12
 10
609.2374577001683
 20
923.0410599404583
 30
0.0
 11
597.9874577001681
 21
1073.041059940458
 31
0.0
 71
     5
 42
300.0000000000001
 73
     0
 74
     0
 75
     0
  3
Wagner$0
100
AcDbAlignedDimension
 13
526.6554329654099
 23
1223.041059940458
 33
0.0
 14
521.6554329654099
 24
923.0410599404583
 34
0.0
 50
90.0
100
AcDbRotatedDimension
1001
ACAD
1000
DSTYLE
1002
{
1070
    40
1040
5.0
1002
}
  0
DIMENSION
  5
EB
330
2
100
AcDbEntity
  8
09-01
100
AcDbDimension
280
     0
  2
*D11
 10
609.2374577001683
 20
1223.041059940458
 30
0.0
 11
597.9874577001681
 21
1261.041059940458
 31
0.0
 71
     5
 42
76.00000000000022
 73
     0
 74
     0
 75
     0
  3
Wagner$0
100
AcDbAlignedDimension
 13
582.65543296541
 23
1299.041059940458
 33
0.0
 14
521.6554329654099
 24
1223.041059940458
 34
0.0
 50
90.0
100
AcDbRotatedDimension
1001
ACAD
1000
DSTYLE
1002
{
1070
    40
1040
5.0
1002
}
  0
DIMENSION
  5
F8
330
2
100
AcDbEntity
  8
09-01
100
AcDbDimension
280
     0
  2
*D10
 10
517.6554329654099
 20
1322.967721866884
 30
0.0
 11
550.15543296541
 21
1334.217721866884
 31
0.0
 71
     5
 42
65.0
 73
     0
 74
     0
 75
     0
  3
Wagner$0
100
AcDbAlignedDimension
 13
582.65543296541
 23
1299.041059940458
 33
0.0
 14
517.6554329654099
 24
1227.04005975054
 34
0.0
100
AcDbRotatedDimension
1001
ACAD
1000
DSTYLE
1002
{
1070
    40
1040
5.0
1002
}
  0
CIRCLE
  5
105
330
2
100
AcDbEntity
  8
01-01
100
AcDbCircle
 10
517.6554329654099
 20
1223.041059940458
 30
0.0
 40
3.0
  0
LINE
  5
106
330
2
100
AcDbEntity
  8
05-01
100
AcDbLine
 10
517.6554329654099
 20
1219.041059940458
 30
0.0
 11
517.6554329654099
 21
1227.041059940458
 31
0.0
  0
LINE
  5
107
330
2
100
AcDbEntity
  8
05-01
100
AcDbLine
 10
521.6554329654099
 20
1223.041059940458
 30
0.0
 11
513.6554329654099
 21
1223.041059940458
 31
0.0
  0
CIRCLE
  5
108
330
2
100
AcDbEntity
  8
01-01
100
AcDbCircle
 10
517.6554329654099
 20
923.0410599404583
 30
0.0
 40
3.0
  0
LINE
  5
109
330
2
100
AcDbEntity
  8
05-01
100
AcDbLine
 10
517.6554329654099
 20
919.0410599404584
 30
0.0
 11
517.6554329654099
 21
927.0410599404582
 31
0.0
  0
LINE
  5
10A
330
2
100
AcDbEntity
  8
05-01
100
AcDbLine
 10
521.6554329654099
 20
923.0410599404583
 30
0.0
 11
513.6554329654099
 21
923.0410599404583
 31
0.0
  0
LINE
  5
10B
330
2
100
AcDbEntity
  8
0
100
AcDbLine
 10
946.6527327584806
 20
437.4533873280497
 30
0.0
 11
962.9669463208536
 21
437.4533872610164
 31
0.0
  0
LINE
  5
10C
330
2
100
AcDbEntity
  8
0
100
AcDbLine
 10
963.2598395425727
 20
438.1604940410007
 30
0.0
 11
946.3598395425721
 21
438.1604941104424
 31
0.0
  0
LINE
  5
10D
330
2
100
AcDbEntity
  8
0
100
AcDbLine
 10
962.9669463208536
 20
437.4533872610164
 30
0.0
 11
954.8098395396671
 21
437.453387294533
 31
0.0
  0
LINE
  5
10E
330
2
100
AcDbEntity
  8
0
100
AcDbLine
 10
954.8098395396671
 20
437.453387294533
 30
0.0
 11
946.6527327584806
 21
437.4533873280497
 31
0.0
  0
LINE
  5
10F
330
2
100
AcDbEntity
  8
0
100
AcDbLine
 10
946.3598395425721
 20
438.1604941104424
 30
0.0
 11
954.8098395425729
 21
438.1604940757215
 31
0.0
  0
LINE
  5
110
330
2
100
AcDbEntity
  8
0
100
AcDbLine
 10
954.8098395425729
 20
438.1604940757215
 30
0.0
 11
963.2598395425727
 21
438.1604940410007
 31
0.0
  0
LINE
  5
111
330
2
100
AcDbEntity
  8
0
100
AcDbLine
 10
961.7598395347075
 20
436.2462804847901
 30
0.0
 11
947.8598395347033
 21
436.2462805419063
 31
0.0
  0
LINE
  5
112
330
2
100
AcDbEntity
  8
0
100
AcDbLine
 10
960.8598395334745
 20
435.9462804884869
 30
0.0
 11
948.7598395334746
 21
435.9462805382109
 31
0.0
  0
LINE
  5
113
330
2
100
AcDbEntity
  8
0
100
AcDbLine
 10
961.7598395347075
 20
436.2462804847901
 30
0.0
 11
962.9669463208536
 21
437.4533872610164
 31
0.0
  0
LINE
  5
114
330
2
100
AcDbEntity
  8
0
100
AcDbLine
 10
946.6527327584806
 20
437.4533873280497
 30
0.0
 11
947.8598395347068
 21
436.2462805419027
 31
0.0
  0
ARC
  5
115
330
2
100
AcDbEntity
  8
0
100
AcDbCircle
 10
947.3598395425723
 20
438.1604941063314
 30
0.0
 40
1.000000000000028
100
AcDbArc
 50
179.999999764566
 51
224.9999997646225
  0
ARC
  5
116
330
2
100
AcDbEntity
  8
0
100
AcDbCircle
 10
962.2598395425727
 20
438.1604940451079
 30
0.0
 40
1.0
100
AcDbArc
 50
314.9999997645772
 51
359.9999997645661
  0
LINE
  5
117
330
2
100
AcDbEntity
  8
0
100
AcDbLine
 10
946.3598463781906
 20
439.4462874460087
 30
0.0
 11
946.3598395425721
 21
438.1604941104424
 31
0.0
  0
LINE
  5
118
330
2
100
AcDbEntity
  8
0
100
AcDbLine
 10
963.2598395425727
 20
438.1604940410007
 30
0.0
 11
963.2598344334198
 21
439.4462874460087
 31
0.0
  0
ARC
  5
119
330
2
100
AcDbEntity
  8
0
100
AcDbCircle
 10
948.7598395347074
 20
436.2462805382064
 30
0.0
 40
0.2999999999999829
100
AcDbArc
 50
179.999999764566
 51
269.9999997645661
  0
ARC
  5
11A
330
2
100
AcDbEntity
  8
0
100
AcDbCircle
 10
960.8598395347069
 20
436.2462804884899
 30
0.0
 40
0.2999999999999829
100
AcDbArc
 50
269.9999997645661
 51
359.9999997645661
  0
LINE
  5
11B
330
2
100
AcDbEntity
  8
0
100
AcDbLine
 10
957.8098390449559
 20
981.0831818239588
 30
0.0
 11
957.8098390449559
 21
979.0831818239587
 31
0.0
  0
LINE
  5
11C
330
2
100
AcDbEntity
  8
0
100
AcDbLine
 10
949.8098390449559
 20
979.0831818239587
 30
0.0
 11
949.8098390449559
 21
981.0831818239588
 31
0.0
  0
LINE
  5
11D
330
2
100
AcDbEntity
  8
0
100
AcDbLine
 10
957.8098390449559
 20
979.0831818239587
 30
0.0
 11
949.8098390449559
 21
979.0831818239587
 31
0.0
  0
LINE
  5
11E
330
2
100
AcDbEntity
  8
0
100
AcDbLine
 10
949.8098390449559
 20
981.0831818239588
 30
0.0
 11
957.8098390449559
 21
981.0831818239588
 31
0.0
  0
CIRCLE
  5
11F
330
2
100
AcDbEntity
  8
0
100
AcDbCircle
 10
953.8098390449558
 20
980.083181823959
 30
0.0
 40
8.0
  0
CIRCLE
  5
120
330
2
100
AcDbEntity
  8
0
100
AcDbCircle
 10
953.8098390449558
 20
980.083181823959
 30
0.0
 40
8.5
  0
DIMENSION
  5
121
330
2
100
AcDbEntity
  8
09-01
100
AcDbDimension
280
     0
  2
*D9
 10
716.1908708212104
 20
1113.541061077942
 30
0.0
 11
704.9408708212102
 21
1199.791061077942
 31
0.0
 71
     5
 42
172.5000000000002
 73
     0
 74
     0
 75
     0
  3
Wagner$0
100
AcDbAlignedDimension
 13
667.8098487075651
 23
1286.041061077942
 33
0.0
 14
667.8098425137087
 24
1113.541061077942
 34
0.0
 50
90.0
100
AcDbRotatedDimension
1001
ACAD
1000
DSTYLE
1002
{
1070
    40
1040
5.0
1002
}
  0
LINE
  5
12E
330
2
100
AcDbEntity
  8
03-01
100
AcDbLine
 10
967.8098391253248
 20
732.4561213596953
 30
0.0
 11
980.3098459707761
 21
719.4561213596953
 31
0.0
  0
LINE
  5
133
330
2
100
AcDbEntity
  8
03-01
100
AcDbLine
 10
643.8098420368305
 20
732.4561213596953
 30
0.0
 11
631.3098390566374
 21
719.4561213596953
 31
0.0
  0
DIMENSION
  5
134
330
2
100
AcDbEntity
  8
09-01
100
AcDbDimension
280
     0
  2
*D8
 10
859.8167234599605
 20
1299.041061077943
 30
0.0
 11
848.0024050793945
 21
1322.624233202778
 31
0.0
 70
   128
 71
     5
 42
13.0
 73
     0
 74
     0
 75
     0
  3
Wagner$0
100
AcDbAlignedDimension
 13
898.6026082069118
 23
1286.041061077942
 33
0.0
 14
885.6026086794555
 24
1299.041061077943
 34
0.0
 50
90.0
100
AcDbRotatedDimension
1001
ACAD
1000
DSTYLE
1002
{
1070
    40
1040
5.0
1002
}
  0
DIMENSION
  5
143
330
2
100
AcDbEntity
  8
09-01
100
AcDbDimension
280
     0
  2
*D7
 10
943.8098425137086
 20
1231.042074419814
 30
0.0
 11
805.8098425137085
 21
1242.292074419814
 31
0.0
 71
     5
 42
276.0
 73
     0
 74
     0
 75
     0
  3
Wagner$0
100
AcDbAlignedDimension
 13
667.8098425137086
 23
1180.540108259544
 33
0.0
 14
943.8098425137086
 24
1180.540108259544
 34
0.0
100
AcDbRotatedDimension
1001
ACAD
1000
DSTYLE
1002
{
1070
    40
1040
5.0
1002
}
  0
CIRCLE
  5
150
330
2
100
AcDbEntity
  8
03-01
100
AcDbCircle
 10
657.3098425137104
 20
1197.541061077941
 30
0.0
 40
1.300000000000068
  0
CIRCLE
  5
151
330
2
100
AcDbEntity
  8
03-01
100
AcDbCircle
 10
954.3098425137069
 20
1197.541061077941
 30
0.0
 40
1.300000000000068
  0
LINE
  5
152
330
2
100
AcDbEntity
  8
03-01
100
AcDbLine
 10
943.8098425137084
 20
1113.541061077942
 30
0.0
 11
943.8098118554645
 21
1297.24106196009
 31
0.0
  0
LINE
  5
153
330
2
100
AcDbEntity
  8
03-01
100
AcDbLine
 10
667.8098491204892
 20
1297.541067038405
 30
0.0
 11
667.8098425137087
 21
1113.541061077942
 31
0.0
  0
LINE
  5
154
330
2
100
AcDbEntity
  8
03-01
100
AcDbLine
 10
403.65543296541
 20
1097.041058495046
 30
0.0
 11
402.655430938852
 21
1097.041058495046
 31
0.0
  0
LINE
  5
155
330
2
100
AcDbEntity
  8
03-01
100
AcDbLine
 10
403.65543296541
 20
1098.241058319212
 30
0.0
 11
402.655430938852
 21
1098.241058319212
 31
0.0
  0
CIRCLE
  5
156
330
2
100
AcDbEntity
  8
05-01
100
AcDbCircle
 10
469.8554328704158
 20
1178.041058390738
 30
0.0
 40
79.99999999999994
  0
CIRCLE
  5
157
330
2
100
AcDbEntity
  8
05-01
100
AcDbCircle
 10
469.8554328704158
 20
1178.041058390738
 30
0.0
 40
24.24999999999998
  0
LINE
  5
158
330
2
100
AcDbEntity
  8
03-01
100
AcDbLine
 10
549.8554330380648
 20
1297.241059272886
 30
0.0
 11
580.6554328704151
 21
1297.241059272886
 31
0.0
  0
LINE
  5
159
330
2
100
AcDbEntity
  8
03-01
100
AcDbLine
 10
550.6554335413056
 20
1296.441060631871
 30
0.0
 11
580.6554328704151
 21
1296.441060631872
 31
0.0
  0
LINE
  5
15A
330
2
100
AcDbEntity
  8
03-01
100
AcDbLine
 10
402.755429865967
 20
1117.191058427439
 30
0.0
 11
402.755432631624
 21
1110.041058432491
 31
0.0
  0
LINE
  5
15B
330
2
100
AcDbEntity
  8
03-01
100
AcDbLine
 10
403.5554298659662
 20
1117.191058427439
 30
0.0
 11
403.5554312726381
 21
1110.041058432491
 31
0.0
  0
LINE
  5
15C
330
2
100
AcDbEntity
  8
03-01
100
AcDbLine
 10
402.755432631624
 20
1110.041058432491
 30
0.0
 11
403.5554312726381
 21
1110.041058432491
 31
0.0
  0
LINE
  5
15D
330
2
100
AcDbEntity
  8
03-01
100
AcDbLine
 10
550.6554328676757
 20
1097.241058391966
 30
0.0
 11
550.6554335413056
 21
1296.441060631871
 31
0.0
  0
LINE
  5
15E
330
2
100
AcDbEntity
  8
03-01
100
AcDbLine
 10
401.8554298659656
 20
1097.241058135881
 30
0.0
 11
550.6554328676757
 21
1097.241058391966
 31
0.0
  0
LINE
  5
15F
330
2
100
AcDbEntity
  8
03-01
100
AcDbLine
 10
402.655430938852
 20
1098.041058679699
 30
0.0
 11
549.8554328704049
 21
1098.04105839072
 31
0.0
  0
ARC
  5
160
330
2
100
AcDbEntity
  8
03-01
100
AcDbCircle
 10
402.7054298659677
 20
1117.191058427439
 30
0.0
 40
0.8500000000000085
100
AcDbArc
 50
93.36646066342067
 51
180.0
  0
ARC
  5
161
330
2
100
AcDbEntity
  8
03-01
100
AcDbCircle
 10
402.7054298659677
 20
1117.191058427439
 30
0.0
 40
0.8500000000000227
100
AcDbArc
 50
0.0
 51
93.36646066342067
  0
ARC
  5
162
330
2
100
AcDbEntity
  8
03-01
100
AcDbCircle
 10
402.7054298659677
 20
1117.191058427439
 30
0.0
 40
0.0499999999999972
100
AcDbArc
 50
0.0
 51
180.0
  0
LINE
  5
163
330
2
100
AcDbEntity
  8
03-01
100
AcDbLine
 10
549.8554328704049
 20
1098.04105839072
 30
0.0
 11
549.8554330380648
 21
1297.241059272886
 31
0.0
  0
LINE
  5
164
330
2
100
AcDbEntity
  8
03-01
100
AcDbLine
 10
550.6554328704151
 20
1098.051058391143
 30
0.0
 11
580.6554328704151
 21
1098.051058269442
 31
0.0
  0
LINE
  5
165
330
2
100
AcDbEntity
  8
03-01
100
AcDbLine
 10
401.8554298659692
 20
1113.041058427438
 30
0.0
 11
401.8554298659656
 21
1097.241058135881
 31
0.0
  0
LINE
  5
166
330
2
100
AcDbEntity
  8
03-01
100
AcDbLine
 10
401.8554298659692
 20
1117.191058427439
 30
0.0
 11
401.8554298659692
 21
1113.041058427438
 31
0.0
  0
LINE
  5
167
330
2
100
AcDbEntity
  8
0
100
AcDbLine
 10
975.8098425355566
 20
719.4561213596943
 30
0.0
 11
975.8098405496385
 21
773.1233782974904
 31
0.0
  0
LINE
  5
168
330
2
100
AcDbEntity
  8
09-01
100
AcDbLine
 10
635.8098426634605
 20
724.0934442702382
 30
0.0
 11
975.809842363953
 21
724.0934442702382
 31
0.0
  0
LINE
  5
169
330
2
100
AcDbEntity
  8
0
100
AcDbLine
 10
402.4845314711091
 20
720.6718137258458
 30
0.0
 11
402.4845314711056
 21
1298.465502589345
 31
0.0
  0
LINE
  5
16A
330
2
100
AcDbEntity
  8
09-01
100
AcDbLine
 10
402.4845314711091
 20
720.6718137258458
 30
0.0
 11
402.400908700496
 21
719.8761962095513
 31
0.0
  0
LINE
  5
16B
330
2
100
AcDbEntity
  8
0
100
AcDbLine
 10
402.400908700496
 20
719.8761962095513
 30
0.0
 11
377.3312756696687
 21
722.5111208176477
 31
0.0
  0
LINE
  5
16C
330
2
100
AcDbEntity
  8
0
100
AcDbLine
 10
402.4845314711091
 20
720.6718137258458
 30
0.0
 11
378.2105159565763
 21
723.2231155633289
 31
0.0
  0
LINE
  5
16D
330
2
100
AcDbEntity
  8
0
100
AcDbLine
 10
379.1918793491786
 20
740.213610867011
 30
0.0
 11
379.9874968654731
 21
740.129988096397
 31
0.0
  0
LINE
  5
16E
330
2
100
AcDbEntity
  8
0
100
AcDbLine
 10
382.484525942109
 20
771.5410505711115
 30
0.0
 11
383.2801434584035
 21
771.4574278004975
 31
0.0
  0
LINE
  5
16F
330
2
100
AcDbEntity
  8
03-01
100
AcDbLine
 10
417.7337611778312
 20
736.8706786333496
 30
0.0
 11
410.9945276998259
 21
771.5410339620412
 31
0.0
  0
LINE
  5
170
330
2
100
AcDbEntity
  8
0
100
AcDbLine
 10
402.6554327785634
 20
720.3410591577576
 30
0.0
 11
402.6554327962294
 21
719.5410591577574
 31
0.0
  0
LINE
  5
171
330
2
100
AcDbEntity
  8
0
100
AcDbLine
 10
379.8457779963974
 20
738.7815945883231
 30
0.0
 11
383.2889354952677
 21
771.5410499058589
 31
0.0
  0
LINE
  5
172
330
2
100
AcDbEntity
  8
03-01
100
AcDbLine
 10
380.8567114212747
 20
740.7465658447535
 30
0.0
 11
384.0933420817673
 21
771.5410495524138
 31
0.0
  0
LINE
  5
173
330
2
100
AcDbEntity
  8
03-01
100
AcDbLine
 10
379.0274633140871
 20
723.3424326757949
 30
0.0
 11
380.7730886506579
 21
739.9509483284582
 31
0.0
  0
LINE
  5
174
330
2
100
AcDbEntity
  8
0
100
AcDbLine
 10
378.2105159565763
 20
723.2231155633289
 30
0.0
 11
379.8457779963974
 21
738.7815945883231
 31
0.0
  0
LINE
  5
175
330
2
100
AcDbEntity
  8
0
100
AcDbLine
 10
377.3312756696687
 20
722.5111208176477
 30
0.0
 11
382.4845289087643
 21
771.541050259304
 31
0.0
  0
LINE
  5
176
330
2
100
AcDbEntity
  8
03-01
100
AcDbLine
 10
388.494527699826
 20
772.5410479616485
 30
0.0
 11
388.4945276998296
 21
771.5410478103276
 31
0.0
  0
LINE
  5
177
330
2
100
AcDbEntity
  8
0
100
AcDbLine
 10
402.6554327962294
 20
771.5410400689907
 30
0.0
 11
372.4845323901536
 21
771.5410548448999
 31
0.0
  0
LINE
  5
178
330
2
100
AcDbEntity
  8
03-01
100
AcDbLine
 10
410.9945276998259
 20
771.5410339620412
 30
0.0
 11
402.6554327962294
 21
771.5410400689907
 31
0.0
  0
LINE
  5
179
330
2
100
AcDbEntity
  8
03-01
100
AcDbLine
 10
410.9945276998259
 20
771.5410339620412
 30
0.0
 11
410.9945276998259
 21
772.5410434849946
 31
0.0
  0
LINE
  5
17A
330
2
100
AcDbEntity
  8
03-01
100
AcDbLine
 10
402.4845324082234
 20
772.54104340094
 30
0.0
 11
373.494527699826
 21
772.5410434848417
 31
0.0
  0
LINE
  5
17B
330
2
100
AcDbEntity
  8
03-01
100
AcDbLine
 10
410.9945276998259
 20
772.5410434849946
 30
0.0
 11
403.6554327962294
 21
772.5410359612124
 31
0.0
  0
LINE
  5
17C
330
2
100
AcDbEntity
  8
03-01
100
AcDbLine
 10
380.7730886506579
 20
739.9509483284582
 30
0.0
 11
417.6501421512548
 21
736.0750607235449
 31
0.0
  0
LINE
  5
17D
330
2
100
AcDbEntity
  8
03-01
100
AcDbLine
 10
378.2318705528669
 20
723.42605183267
 30
0.0
 11
379.0274633140871
 21
723.3424326757949
 31
0.0
  0
LINE
  5
17E
330
2
100
AcDbEntity
  8
03-01
100
AcDbLine
 10
380.0610967664397
 20
740.830187302713
 30
0.0
 11
417.7337611778312
 21
736.8706786333496
 31
0.0
  0
LINE
  5
17F
330
2
100
AcDbEntity
  8
03-01
100
AcDbLine
 10
417.7337611778312
 20
736.8706786333496
 30
0.0
 11
417.6501421512548
 21
736.0750607235449
 31
0.0
  0
LINE
  5
180
330
2
100
AcDbEntity
  8
03-01
100
AcDbLine
 10
967.8098391253248
 20
732.4561213596953
 30
0.0
 11
967.8098424418235
 21
1286.041061077942
 31
0.0
  0
DIMENSION
  5
181
330
2
100
AcDbEntity
  8
09-01
100
AcDbDimension
280
     0
  2
*D6
 10
582.2073296138951
 20
439.4462874460087
 30
0.0
 11
570.957329613895
 21
544.5317403481387
 31
0.0
 71
     5
 42
210.1709058042597
 73
     0
 74
     0
 75
     0
  3
Wagner$0
100
AcDbAlignedDimension
 13
630.809845493939
 23
649.6171932502684
 33
0.0
 14
631.3098390566374
 24
439.4462874460087
 34
0.0
 50
90.0
100
AcDbRotatedDimension
1001
ACAD
1000
DSTYLE
1002
{
1070
    40
1040
5.0
1070
   271
1070
     0
1070
   272
1070
     1
1002
}
  0
DIMENSION
  5
18E
330
2
100
AcDbEntity
  8
09-01
100
AcDbDimension
280
     0
  2
*D5
 10
606.0373270584569
 20
469.4462928104249
 30
0.0
 11
593.7434633473567
 21
416.7860588281219
 31
0.0
 70
   128
 71
     5
 42
30.00000536441621
 73
     0
 74
     0
 75
     0
  3
Wagner$0
100
AcDbAlignedDimension
 13
631.3098390566374
 23
439.4462874460087
 33
0.0
 14
631.3098390566374
 24
469.4462928104249
 34
0.0
 50
90.0
100
AcDbRotatedDimension
1001
ACAD
1000
DSTYLE
1002
{
1070
    40
1040
5.0
1070
   271
1070
     1
1070
   272
1070
     1
1002
}
  0
DIMENSION
  5
19D
330
2
100
AcDbEntity
  8
09-01
100
AcDbDimension
280
     0
  2
*D4
 10
606.0373270584569
 20
469.6171942281571
 30
0.0
 11
594.7873270584567
 21
559.6171937392129
 31
0.0
 71
     5
 42
179.9999990221113
 73
     0
 74
     0
 75
     0
  3
Wagner$0
100
AcDbAlignedDimension
 13
630.809845493939
 23
649.6171932502684
 33
0.0
 14
630.809845493939
 24
469.6171942281571
 34
0.0
 50
90.0
100
AcDbRotatedDimension
1001
ACAD
1000
DSTYLE
1002
{
1070
    40
1040
5.0
1070
   271
1070
     1
1070
   272
1070
     1
1002
}
  0
INSERT
  5
1AA
330
2
100
AcDbEntity
  8
09-01
100
AcDbBlockReference
 66
     1
  2
A4-Wagner-EWAR
 10
0.0
 20
0.0
 30
0.0
 41
5.0
 42
5.0
 43
5.0
  0
ATTRIB
  5
1FA
330
1AA
100
AcDbEntity
  8
01-99
100
AcDbText
 10
107.5
 20
165.0
 30
0.0
 40
15.0
  1
.
 41
0.9
  7
ROMANS8
100
AcDbAttribute
280
     0
  2
COM
 70
     0
280
     0
  0
ATTRIB
  5
1FB
330
1AA
100
AcDbEntity
  8
01-99
100
AcDbText
 10
557.5
 20
215.0
 30
0.0
 40
15.0
  1
.
 41
0.9
  7
ROMANS8
100
AcDbAttribute
280
     0
  2
PROJ
 70
     0
280
     0
  0
ATTRIB
  5
1FC
330
1AA
100
AcDbEntity
  8
01-99
100
AcDbText
 10
557.5
 20
165.0
 30
0.0
 40
15.0
  1
.
 41
0.9
  7
ROMANS8
100
AcDbAttribute
280
     0
  2
POS
 70
     0
280
     0
  0
ATTRIB
  5
1FD
330
1AA
100
AcDbEntity
  8
01-99
100
AcDbText
 10
692.4999999999999
 20
40.0
 30
0.0
 40
17.5
  1
733280
  7
ROMANS8
100
AcDbAttribute
280
     0
  2
E:M1
 70
     0
280
     0
  0
ATTRIB
  5
1FE
330
1AA
100
AcDbEntity
  8
07-99
100
AcDbText
 10
1019.952380952381
 20
30.0
 30
0.0
 40
0.5000000000000001
  1
.
  7
ROMANS8
 72
     2
 11
1020.0
 21
30.0
 31
0.0
100
AcDbAttribute
280
     0
  2
E:M2
 70
     0
280
     0
  0
ATTRIB
  5
1FF
330
1AA
100
AcDbEntity
  8
01-99
100
AcDbText
 10
107.5
 20
40.0
 30
0.0
 40
15.0
  1
Elektrischer Papierrollenspender WP1411
 41
0.9
  7
ROMANS8
100
AcDbAttribute
280
     0
  2
E:M3
 70
     0
280
     0
  0
ATTRIB
  5
200
330
1AA
100
AcDbEntity
  8
01-99
100
AcDbText
 10
107.5
 20
215.0
 30
0.0
 40
15.0
  1
.
 41
0.9
  7
ROMANS8
100
AcDbAttribute
280
     0
  2
E:M4
 70
     0
280
     0
  0
ATTRIB
  5
201
330
1AA
100
AcDbEntity
  8
06-99
100
AcDbText
 10
435.0
 20
89.99999999999273
 30
0.0
 40
12.5
  1
Häberle
 41
0.9
  7
ROMANS8
100
AcDbAttribute
280
     0
  2
E:M5
 70
     0
280
     0
  0
ATTRIB
  5
202
330
1AA
100
AcDbEntity
  8
06-99
100
AcDbText
 10
270.0
 20
90.0
 30
0.0
 40
12.5
  1
29.09.2014
 41
0.8596491228070174
  7
ROMANS8
 72
     5
 11
357.5
 21
90.0
 31
0.0
100
AcDbAttribute
280
     0
  2
E:M6
 70
     0
280
     0
  0
ATTRIB
  5
203
330
1AA
100
AcDbEntity
  8
01-99
100
AcDbText
 10
611.4285714285714
 20
40.0
 30
0.0
 40
15.0
  1
1:5
  7
ROMANS8
 72
     1
 11
627.5
 21
40.0
 31
0.0
100
AcDbAttribute
280
     0
  2
E:MA
 70
     0
280
     0
  0
ATTRIB
  5
204
330
1AA
100
AcDbEntity
  8
02-99
100
AcDbText
 10
837.5
 20
40.0
 30
0.0
 40
12.5
  1
.
  7
ROMANS8
100
AcDbAttribute
280
     0
  2
E:DOS
 70
     0
280
     0
  0
SEQEND
  5
205
330
1AA
100
AcDbEntity
  8
09-01
  0
DIMENSION
  5
206
330
2
100
AcDbEntity
  8
09-01
100
AcDbDimension
280
     0
  2
*D3
 10
1004.566054464376
 20
719.0410605268016
 30
0.0
 11
993.316054464376
 21
1009.041060802372
 31
0.0
 71
     5
 42
580.0000005511401
 73
     0
 74
     0
 75
     0
  3
Wagner$0
100
AcDbAlignedDimension
 13
980.8098425197059
 23
1299.041061077942
 33
0.0
 14
980.8098390449558
 24
719.0410605268016
 34
0.0
 50
90.0
100
AcDbRotatedDimension
1001
ACAD
1000
DSTYLE
1002
{
1070
    40
1040
5.0
1070
   271
1070
     1
1070
   272
1070
     1
1002
}
  0
DIMENSION
  5
213
330
2
100
AcDbEntity
  8
09-01
100
AcDbDimension
280
     0
  2
*D2
 10
980.8098425197059
 20
1332.942369000238
 30
0.0
 11
805.8098425137085
 21
1344.192369000239
 31
0.0
 71
     5
 42
350.0000000119944
 73
     0
 74
     0
 75
     0
  3
Wagner$0
100
AcDbAlignedDimension
 13
630.8098425077114
 23
1299.041061077943
 33
0.0
 14
980.8098425197059
 24
1299.041061077942
 34
0.0
100
AcDbRotatedDimension
1001
ACAD
1000
DSTYLE
1002
{
1070
    40
1040
5.0
1070
   271
1070
     1
1070
   272
1070
     1
1002
}
  0
LINE
  5
220
330
2
100
AcDbEntity
  8
03-01
100
AcDbLine
 10
966.3098425137068
 20
616.8071931552731
 30
0.0
 11
966.3098477792191
 21
469.6171942281571
 31
0.0
  0
LINE
  5
221
330
2
100
AcDbEntity
  8
03-01
100
AcDbLine
 10
964.3098433481718
 20
617.6171938258257
 30
0.0
 11
943.3098425137067
 21
617.6171938258257
 31
0.0
  0
LINE
  5
222
330
2
100
AcDbEntity
  8
05-01
100
AcDbLine
 10
955.6098450886274
 20
619.4942482823226
 30
0.0
 11
955.6098450886274
 21
616.7401395332417
 31
0.0
  0
LINE
  5
223
330
2
100
AcDbEntity
  8
03-01
100
AcDbLine
 10
964.3098425137068
 20
618.6171931552744
 30
0.0
 11
959.3098425137068
 21
618.6171931552744
 31
0.0
  0
LINE
  5
224
330
2
100
AcDbEntity
  8
03-01
100
AcDbLine
 10
964.3098433481718
 20
617.6171938258266
 30
0.0
 11
964.3098425137068
 21
618.6171931552744
 31
0.0
  0
LINE
  5
225
330
2
100
AcDbEntity
  8
03-01
100
AcDbLine
 10
944.409842513709
 20
618.6171931552744
 30
0.0
 11
959.3098425137068
 21
618.6171931552744
 31
0.0
  0
LINE
  5
226
330
2
100
AcDbEntity
  8
03-01
100
AcDbLine
 10
943.3098425137067
 20
648.6171932027709
 30
0.0
 11
943.3098425137067
 21
617.6171938258257
 31
0.0
  0
LINE
  5
227
330
2
100
AcDbEntity
  8
03-01
100
AcDbLine
 10
944.3098425137067
 20
618.6171931552744
 30
0.0
 11
944.3098425137067
 21
648.6171932027709
 31
0.0
  0
LINE
  5
228
330
2
100
AcDbEntity
  8
03-01
100
AcDbLine
 10
967.1098460423017
 20
647.6171931552726
 30
0.0
 11
966.3098474012876
 21
647.6171931552726
 31
0.0
  0
LINE
  5
229
330
2
100
AcDbEntity
  8
03-01
100
AcDbLine
 10
647.3098416792417
 20
617.6171938258257
 30
0.0
 11
668.3098425137067
 21
617.6171938258257
 31
0.0
  0
LINE
  5
22A
330
2
100
AcDbEntity
  8
03-01
100
AcDbLine
 10
644.5098389851118
 20
647.6171931552726
 30
0.0
 11
645.3098376261259
 21
647.6171931552726
 31
0.0
  0
LINE
  5
22B
330
2
100
AcDbEntity
  8
0
100
AcDbLine
 10
967.8098390474424
 20
719.0410644158019
 30
0.0
 11
980.8098390449558
 21
719.0410605268016
 31
0.0
  0
LINE
  5
22C
330
2
100
AcDbEntity
  8
0
100
AcDbLine
 10
967.8098390474424
 20
719.0410644158019
 30
0.0
 11
967.8098390474424
 21
719.4561213596953
 31
0.0
  0
LINE
  5
22D
330
2
100
AcDbEntity
  8
03-01
100
AcDbLine
 10
681.3098425029856
 20
773.1233782974904
 30
0.0
 11
681.3098425029893
 21
741.4124981565328
 31
0.0
  0
LINE
  5
22E
330
2
100
AcDbEntity
  8
0
100
AcDbLine
 10
682.3098425029857
 20
773.1233782974904
 30
0.0
 11
682.3098425029857
 21
742.4125107553036
 31
0.0
  0
LINE
  5
22F
330
2
100
AcDbEntity
  8
03-01
100
AcDbLine
 10
930.3098425029856
 20
773.1233782974904
 30
0.0
 11
930.3098425029894
 21
741.4124981565328
 31
0.0
  0
LINE
  5
230
330
2
100
AcDbEntity
  8
0
100
AcDbLine
 10
929.3098425029894
 20
773.1233782974904
 30
0.0
 11
929.3098425029857
 21
742.4125107553036
 31
0.0
  0
LINE
  5
231
330
2
100
AcDbEntity
  8
0
100
AcDbLine
 10
682.3098425029857
 20
742.4125107553036
 30
0.0
 11
929.3098425029857
 21
742.4125107553036
 31
0.0
  0
LINE
  5
232
330
2
100
AcDbEntity
  8
03-01
100
AcDbLine
 10
681.3098425029893
 20
741.4124981565328
 30
0.0
 11
930.3098425029894
 21
741.4124981565328
 31
0.0
  0
LINE
  5
233
330
2
100
AcDbEntity
  8
03-01
100
AcDbLine
 10
912.8098425137068
 20
1070.041061077942
 30
0.0
 11
898.8098425137067
 21
1070.041061077942
 31
0.0
  0
LINE
  5
234
330
2
100
AcDbEntity
  8
03-01
100
AcDbLine
 10
698.8098425137068
 20
1070.041061077942
 30
0.0
 11
712.8098425137068
 21
1070.041061077942
 31
0.0
  0
LINE
  5
235
330
2
100
AcDbEntity
  8
03-01
100
AcDbLine
 10
931.3098425137068
 20
817.3118745041211
 30
0.0
 11
931.3098425137068
 21
810.3118745041211
 31
0.0
  0
LINE
  5
236
330
2
100
AcDbEntity
  8
03-01
100
AcDbLine
 10
680.3098425137068
 20
817.3118745041211
 30
0.0
 11
680.3098425137068
 21
810.3118745041211
 31
0.0
  0
LINE
  5
237
330
2
100
AcDbEntity
  8
05-01
100
AcDbLine
 10
911.8098425137068
 20
890.0410610779417
 30
0.0
 11
699.8098425137068
 21
890.0410610779417
 31
0.0
  0
LINE
  5
238
330
2
100
AcDbEntity
  8
05-01
100
AcDbLine
 10
699.8098425137068
 20
1050.041061077942
 30
0.0
 11
699.8098425137068
 21
890.0410610779417
 31
0.0
  0
LINE
  5
239
330
2
100
AcDbEntity
  8
03-01
100
AcDbLine
 10
967.8098424418235
 20
1286.041061077942
 30
0.0
 11
980.8098425197059
 21
1299.041061077942
 31
0.0
  0
LINE
  5
23A
330
2
100
AcDbEntity
  8
03-01
100
AcDbLine
 10
643.8098420351678
 20
1286.041061077942
 30
0.0
 11
630.8098425077114
 21
1299.041061077943
 31
0.0
  0
LINE
  5
23B
330
2
100
AcDbEntity
  8
0
100
AcDbLine
 10
798.8583073931004
 20
436.2478277015553
 30
0.0
 11
812.7613776343132
 21
436.2478277015553
 31
0.0
  0
LINE
  5
23C
330
2
100
AcDbEntity
  8
05-01
100
AcDbLine
 10
656.0098399387861
 20
619.4942482823226
 30
0.0
 11
656.0098399387861
 21
616.7401395332417
 31
0.0
  0
LINE
  5
23D
330
2
100
AcDbEntity
  8
03-01
100
AcDbLine
 10
979.8098375069166
 20
648.6171932027709
 30
0.0
 11
979.8098375069166
 21
470.6271949338761
 31
0.0
  0
LINE
  5
23E
330
2
100
AcDbEntity
  8
03-01
100
AcDbLine
 10
631.8098475204969
 20
470.6271949338761
 30
0.0
 11
631.8098475204969
 21
648.6171932027709
 31
0.0
  0
LINE
  5
23F
330
2
100
AcDbEntity
  8
03-01
100
AcDbLine
 10
631.8098475204969
 20
648.6171932027709
 30
0.0
 11
979.8098375069166
 21
648.6171932027709
 31
0.0
  0
LINE
  5
240
330
2
100
AcDbEntity
  8
03-01
100
AcDbLine
 10
645.3098425137068
 20
616.8071931552731
 30
0.0
 11
645.3098372481945
 21
469.6171942281571
 31
0.0
  0
LINE
  5
241
330
2
100
AcDbEntity
  8
03-01
100
AcDbLine
 10
967.1098460423017
 20
616.8171933221665
 30
0.0
 11
967.1098460423017
 21
647.6171931552726
 31
0.0
  0
LINE
  5
242
330
2
100
AcDbEntity
  8
03-01
100
AcDbLine
 10
966.3098474012876
 20
617.6171938258257
 30
0.0
 11
966.3098474012876
 21
647.6171931552726
 31
0.0
  0
LINE
  5
243
330
2
100
AcDbEntity
  8
03-01
100
AcDbLine
 10
644.5098389851118
 20
616.8171933221665
 30
0.0
 11
644.5098389851118
 21
647.6171931552726
 31
0.0
  0
LINE
  5
244
330
2
100
AcDbEntity
  8
03-01
100
AcDbLine
 10
645.3098376261259
 20
617.6171938258257
 30
0.0
 11
645.3098376261259
 21
647.6171931552726
 31
0.0
  0
LINE
  5
245
330
2
100
AcDbEntity
  8
03-01
100
AcDbLine
 10
966.3098474012876
 20
617.6171938258257
 30
0.0
 11
645.3098376261259
 21
617.6171938258257
 31
0.0
  0
LINE
  5
246
330
2
100
AcDbEntity
  8
03-01
100
AcDbLine
 10
967.1098460423017
 20
616.8171933221665
 30
0.0
 11
644.5098389851118
 21
616.8171933221665
 31
0.0
  0
LINE
  5
247
330
2
100
AcDbEntity
  8
03-01
100
AcDbLine
 10
632.3098410831953
 20
440.4462894725666
 30
0.0
 11
979.2998452650572
 21
440.4462894725666
 31
0.0
  0
LINE
  5
248
330
2
100
AcDbEntity
  8
03-01
100
AcDbLine
 10
979.3098439442182
 20
440.4562881517258
 30
0.0
 11
979.3098439442182
 21
469.4462928104249
 31
0.0
  0
LINE
  5
249
330
2
100
AcDbEntity
  8
0
100
AcDbLine
 10
631.3098390566374
 20
439.4462874460087
 30
0.0
 11
631.3098390566374
 21
469.4462928104266
 31
0.0
  0
LINE
  5
24A
330
2
100
AcDbEntity
  8
03-01
100
AcDbLine
 10
632.3098410831953
 20
440.4462894725666
 30
0.0
 11
632.3098410831953
 21
469.4462928104249
 31
0.0
  0
LINE
  5
24B
330
2
100
AcDbEntity
  8
0
100
AcDbLine
 10
980.3098459707761
 20
469.4462928104249
 30
0.0
 11
631.3098390566374
 21
469.4462928104249
 31
0.0
  0
LINE
  5
24C
330
2
100
AcDbEntity
  8
03-01
100
AcDbLine
 10
979.2998452650572
 20
440.4462894725647
 30
0.0
 11
632.3198397623563
 21
440.4462894725647
 31
0.0
  0
LINE
  5
24D
330
2
100
AcDbEntity
  8
0
100
AcDbLine
 10
799.4598425029871
 20
436.2462954028996
 30
0.0
 11
812.1598425029878
 21
436.2462954145066
 31
0.0
  0
LINE
  5
24E
330
2
100
AcDbEntity
  8
0
100
AcDbLine
 10
799.4598425029871
 20
436.2462954028996
 30
0.0
 11
812.1598425029878
 21
436.2462954145066
 31
0.0
  0
LINE
  5
24F
330
2
100
AcDbEntity
  8
0
100
AcDbLine
 10
812.1598425029878
 20
436.2462954145066
 30
0.0
 11
799.4598425029871
 21
436.2462954028996
 31
0.0
  0
LINE
  5
250
330
2
100
AcDbEntity
  8
0
100
AcDbLine
 10
941.3098425137068
 20
648.612638270286
 30
0.0
 11
941.3098414408231
 21
648.6171932027718
 31
0.0
  0
LINE
  5
251
330
2
100
AcDbEntity
  8
03-01
100
AcDbLine
 10
647.3098425137068
 20
618.6171931552744
 30
0.0
 11
652.3098425137068
 21
618.6171931552744
 31
0.0
  0
LINE
  5
252
330
2
100
AcDbEntity
  8
03-01
100
AcDbLine
 10
647.3098416792417
 20
617.6171938258266
 30
0.0
 11
647.3098425137068
 21
618.6171931552744
 31
0.0
  0
LINE
  5
253
330
2
100
AcDbEntity
  8
03-01
100
AcDbLine
 10
667.2098425137082
 20
618.6171931552744
 30
0.0
 11
652.3098425137068
 21
618.6171931552744
 31
0.0
  0
ARC
  5
254
330
2
100
AcDbEntity
  8
0
100
AcDbCircle
 10
944.409842513709
 20
647.5171931552741
 30
0.0
 40
1.099999999999966
100
AcDbArc
 50
90.0
 51
95.21590857050245
  0
LINE
  5
255
330
2
100
AcDbEntity
  8
03-01
100
AcDbLine
 10
668.3098425137104
 20
648.6171932027709
 30
0.0
 11
668.3098425137067
 21
617.6171938258257
 31
0.0
  0
LINE
  5
256
330
2
100
AcDbEntity
  8
03-01
100
AcDbLine
 10
667.3098425137068
 20
618.6171931552744
 30
0.0
 11
667.3098425137104
 21
648.6171932027709
 31
0.0
  0
LINE
  5
257
330
2
100
AcDbEntity
  8
0
100
AcDbLine
 10
630.809845493939
 20
469.6171942281571
 30
0.0
 11
980.8098395334745
 21
469.6171942281571
 31
0.0
  0
LINE
  5
258
330
2
100
AcDbEntity
  8
0
100
AcDbLine
 10
980.8098395334745
 20
649.6171932502684
 30
0.0
 11
980.8098395334745
 21
469.6171942281571
 31
0.0
  0
LINE
  5
259
330
2
100
AcDbEntity
  8
0
100
AcDbLine
 10
630.809845493939
 20
649.6171932502684
 30
0.0
 11
630.809845493939
 21
469.6171942281571
 31
0.0
  0
LINE
  5
25A
330
2
100
AcDbEntity
  8
03-01
100
AcDbLine
 10
631.8108458982969
 20
470.6271949338761
 30
0.0
 11
979.8088391291166
 21
470.6271949338761
 31
0.0
  0
LINE
  5
25B
330
2
100
AcDbEntity
  8
0
100
AcDbLine
 10
630.809845493939
 20
649.6171932502684
 30
0.0
 11
980.8098395334745
 21
649.6171932502684
 31
0.0
  0
LINE
  5
25C
330
2
100
AcDbEntity
  8
0
100
AcDbLine
 10
811.8598425029885
 20
435.9462954145073
 30
0.0
 11
852.4332526952493
 21
435.9462935641785
 31
0.0
  0
LINE
  5
25D
330
2
100
AcDbEntity
  8
0
100
AcDbLine
 10
759.186432180155
 20
435.9462935641785
 30
0.0
 11
799.7598425029864
 21
435.9462954145073
 31
0.0
  0
ARC
  5
25E
330
2
100
AcDbEntity
  8
0
100
AcDbCircle
 10
759.186432180155
 20
440.9462936638065
 30
0.0
 40
5.000000000000014
100
AcDbArc
 50
250.0000000000017
 51
270.0
  0
ARC
  5
25F
330
2
100
AcDbEntity
  8
0
100
AcDbCircle
 10
852.4332526952493
 20
440.9462936638065
 30
0.0
 40
5.000000000000014
100
AcDbArc
 50
270.0
 51
289.9999999999982
  0
LINE
  5
260
330
2
100
AcDbEntity
  8
0
100
AcDbLine
 10
799.7598425029864
 20
435.9462954145073
 30
0.0
 11
759.186432180155
 21
435.9462935641785
 31
0.0
  0
LINE
  5
261
330
2
100
AcDbEntity
  8
0
100
AcDbLine
 10
852.4332526952493
 20
435.9462935641785
 30
0.0
 11
811.8598425029885
 21
435.9462954145073
 31
0.0
  0
LWPOLYLINE
  5
262
330
2
100
AcDbEntity
  8
0
100
AcDbPolyline
 90
        4
 70
   128
 43
0.0
 10
753.1388309763933
 20
437.8265461253986
 10
753.1544026898409
 20
437.820883684145
 10
753.200924115088
 20
437.8039559650288
 10
753.277810381558
 20
437.7759715843067
  0
LINE
  5
263
330
2
100
AcDbEntity
  8
0
100
AcDbLine
 10
753.2778097434857
 20
437.7759675111438
 30
0.0
 11
757.4763314635238
 21
436.2478304602491
 31
0.0
  0
LINE
  5
264
330
2
100
AcDbEntity
  8
0
100
AcDbLine
 10
854.1433534118768
 20
436.2478304602491
 30
0.0
 11
858.3418751319186
 21
437.7759675111438
 31
0.0
  0
LWPOLYLINE
  5
265
330
2
100
AcDbEntity
  8
0
100
AcDbPolyline
 90
        4
 70
   128
 43
0.0
 10
858.3418746458555
 20
437.7759715843067
 10
858.4187609123254
 20
437.8039559650288
 10
858.4652823375726
 20
437.820883684145
 10
858.4808540510202
 20
437.8265461253986
  0
ARC
  5
266
330
2
100
AcDbEntity
  8
0
100
AcDbCircle
 10
753.3098424377022
 20
438.2963974467856
 30
0.0
 40
0.5000000000000084
100
AcDbArc
 50
180.0
 51
250.0000000000017
  0
LWPOLYLINE
  5
267
330
2
100
AcDbEntity
  8
0
100
AcDbPolyline
 90
        4
 70
   128
 43
0.0
 10
753.277810381558
 20
437.7759715843067
 10
753.200924115088
 20
437.8039559650288
 10
753.1544026898409
 20
437.820883684145
 10
753.1388309763933
 20
437.8265461253986
  0
ARC
  5
268
330
2
100
AcDbEntity
  8
0
100
AcDbCircle
 10
858.3098424377022
 20
438.2963974467856
 30
0.0
 40
0.5000000000000084
100
AcDbArc
 50
289.9999999999982
 51
0.0
  0
LWPOLYLINE
  5
269
330
2
100
AcDbEntity
  8
0
100
AcDbPolyline
 90
        4
 70
   128
 43
0.0
 10
858.4808540510202
 20
437.8265461253986
 10
858.4652823375726
 20
437.820883684145
 10
858.4187609123254
 20
437.8039559650288
 10
858.3418746458555
 20
437.7759715843067
  0
LINE
  5
26A
330
2
100
AcDbEntity
  8
0
100
AcDbLine
 10
858.3418751319186
 20
437.7759675111438
 30
0.0
 11
854.1433534118768
 21
436.2478304602491
 31
0.0
  0
LINE
  5
26B
330
2
100
AcDbEntity
  8
0
100
AcDbLine
 10
757.4763314635238
 20
436.2478304602491
 30
0.0
 11
753.2778097434857
 21
437.7759675111438
 31
0.0
  0
LINE
  5
26C
330
2
100
AcDbEntity
  8
0
100
AcDbLine
 10
858.809841887858
 20
439.4462874460087
 30
0.0
 11
858.8098424377021
 21
438.2963974467856
 31
0.0
  0
LINE
  5
26D
330
2
100
AcDbEntity
  8
0
100
AcDbLine
 10
752.8098424377021
 20
438.2963974467856
 30
0.0
 11
752.8098431395555
 21
439.4462874460087
 31
0.0
  0
LINE
  5
26E
330
2
100
AcDbEntity
  8
0
100
AcDbLine
 10
858.809841887858
 20
439.4462874460087
 30
0.0
 11
980.3098459707761
 21
439.4462874460087
 31
0.0
  0
LINE
  5
26F
330
2
100
AcDbEntity
  8
0
100
AcDbLine
 10
631.3098390566374
 20
439.4462874460087
 30
0.0
 11
752.8098431395555
 21
439.4462874460087
 31
0.0
  0
LINE
  5
270
330
2
100
AcDbEntity
  8
0
100
AcDbLine
 10
980.3098459707761
 20
469.4462928104249
 30
0.0
 11
631.3098390566374
 21
469.4462928104249
 31
0.0
  0
LINE
  5
271
330
2
100
AcDbEntity
  8
0
100
AcDbLine
 10
631.3098390566374
 20
440.4562881517258
 30
0.0
 11
631.3098390566374
 21
469.4462928104249
 31
0.0
  0
LINE
  5
272
330
2
100
AcDbEntity
  8
0
100
AcDbLine
 10
980.3098459707761
 20
439.4462874460087
 30
0.0
 11
980.3098459707761
 21
469.4462928104249
 31
0.0
  0
LINE
  5
273
330
2
100
AcDbEntity
  8
0
100
AcDbLine
 10
979.2998452650572
 20
439.446302347168
 30
0.0
 11
632.3198397623563
 21
439.446302347168
 31
0.0
  0
LINE
  5
274
330
2
100
AcDbEntity
  8
0
100
AcDbLine
 10
812.1598425029878
 20
436.2462954145066
 30
0.0
 11
812.4098425029879
 21
436.2462954145066
 31
0.0
  0
LINE
  5
275
330
2
100
AcDbEntity
  8
0
100
AcDbLine
 10
812.4098425029879
 20
436.2462954145066
 30
0.0
 11
799.2544691989388
 21
436.2462928819504
 31
0.0
  0
LINE
  5
276
330
2
100
AcDbEntity
  8
0
100
AcDbLine
 10
812.1598425029878
 20
436.2462954145066
 30
0.0
 11
812.7598425029864
 21
436.2462954145066
 31
0.0
  0
LINE
  5
277
330
2
100
AcDbEntity
  8
0
100
AcDbLine
 10
812.7598425029864
 20
436.2462954145066
 30
0.0
 11
798.9068358184959
 21
436.2462928819504
 31
0.0
  0
LINE
  5
278
330
2
100
AcDbEntity
  8
0
100
AcDbLine
 10
804.9467042268442
 20
435.9462954323653
 30
0.0
 11
806.6729807791308
 21
435.946295413084
 31
0.0
  0
LINE
  5
279
330
2
100
AcDbEntity
  8
0
100
AcDbLine
 10
804.9467042268442
 20
435.9462954323653
 30
0.0
 11
803.3098425695861
 21
435.9463027047959
 31
0.0
  0
LINE
  5
27A
330
2
100
AcDbEntity
  8
0
100
AcDbLine
 10
806.6729807791308
 20
435.946295413084
 30
0.0
 11
804.9467042268442
 21
435.9462954323653
 31
0.0
  0
LINE
  5
27B
330
2
100
AcDbEntity
  8
0
100
AcDbLine
 10
806.6729807791308
 20
435.946295413084
 30
0.0
 11
808.3098424578274
 21
435.9463027047959
 31
0.0
  0
LINE
  5
27C
330
2
100
AcDbEntity
  8
0
100
AcDbLine
 10
811.8598425029885
 20
435.9462954145073
 30
0.0
 11
799.7598425029864
 21
435.9462954145073
 31
0.0
  0
LINE
  5
27D
330
2
100
AcDbEntity
  8
0
100
AcDbLine
 10
812.7598425029864
 20
436.2462954145066
 30
0.0
 11
813.9669492841749
 21
437.4534021956933
 31
0.0
  0
LINE
  5
27E
330
2
100
AcDbEntity
  8
0
100
AcDbLine
 10
797.6527357218001
 20
437.4534021956933
 30
0.0
 11
798.8598426783647
 21
436.2462928819504
 31
0.0
  0
LINE
  5
27F
330
2
100
AcDbEntity
  8
0
100
AcDbLine
 10
797.3598428981568
 20
439.446302347168
 30
0.0
 11
797.3598425029885
 21
438.1605089768799
 31
0.0
  0
LINE
  5
280
330
2
100
AcDbEntity
  8
0
100
AcDbLine
 10
814.2598425029865
 20
438.1605089768799
 30
0.0
 11
814.2598421292568
 21
439.446302347168
 31
0.0
  0
ARC
  5
281
330
2
100
AcDbEntity
  8
0
100
AcDbCircle
 10
798.3598425029886
 20
438.1605089768799
 30
0.0
 40
1.000000000000007
100
AcDbArc
 50
180.0
 51
225.0000000000004
  0
ARC
  5
282
330
2
100
AcDbEntity
  8
0
100
AcDbCircle
 10
813.2598425029865
 20
438.1605089768799
 30
0.0
 40
1.000000000000048
100
AcDbArc
 50
314.9999999999995
 51
0.0
  0
ARC
  5
283
330
2
100
AcDbEntity
  8
0
100
AcDbCircle
 10
799.7598425029864
 20
436.2462954145066
 30
0.0
 40
0.3000000000000114
100
AcDbArc
 50
180.0
 51
270.0
  0
ARC
  5
284
330
2
100
AcDbEntity
  8
0
100
AcDbCircle
 10
811.8598425029885
 20
436.2462954145066
 30
0.0
 40
0.2999999999999971
100
AcDbArc
 50
270.0
 51
0.0
  0
LINE
  5
285
330
2
100
AcDbEntity
  8
03-01
100
AcDbLine
 10
682.8098432858605
 20
965.0410610779417
 30
0.0
 11
693.8098425137068
 21
965.0410610779417
 31
0.0
  0
LINE
  5
286
330
2
100
AcDbEntity
  8
03-01
100
AcDbLine
 10
917.8098425137068
 20
965.0410610779417
 30
0.0
 11
932.8098425137069
 21
965.0410610779417
 31
0.0
  0
ARC
  5
287
330
2
100
AcDbEntity
  8
03-01
100
AcDbCircle
 10
924.8098425137069
 20
967.2910610779418
 30
0.0
 40
1.0
100
AcDbArc
 50
270.0
 51
0.0
  0
ARC
  5
288
330
2
100
AcDbEntity
  8
03-01
100
AcDbCircle
 10
924.8098425137069
 20
972.7910610779417
 30
0.0
 40
1.0
100
AcDbArc
 50
0.0
 51
90.0
  0
LINE
  5
289
330
2
100
AcDbEntity
  8
03-01
100
AcDbLine
 10
924.8098425137069
 20
973.7910610779417
 30
0.0
 11
915.8098419176603
 21
973.7910628660811
 31
0.0
  0
LINE
  5
28A
330
2
100
AcDbEntity
  8
03-01
100
AcDbLine
 10
915.8098419176603
 20
966.2910625680579
 30
0.0
 11
924.8098425137069
 21
966.2910610779418
 31
0.0
  0
LINE
  5
28B
330
2
100
AcDbEntity
  8
03-01
100
AcDbLine
 10
869.3098425137067
 20
947.6899840524056
 30
0.0
 11
872.3098425137068
 21
946.2910610779417
 31
0.0
  0
LINE
  5
28C
330
2
100
AcDbEntity
  8
03-01
100
AcDbLine
 10
872.3098425137068
 20
993.7910610779418
 30
0.0
 11
869.3098425137067
 21
992.3921381034761
 31
0.0
  0
LINE
  5
28D
330
2
100
AcDbEntity
  8
03-01
100
AcDbLine
 10
872.3098425137068
 20
946.2910610779417
 30
0.0
 11
913.3098443018461
 21
946.2910592898024
 31
0.0
  0
LINE
  5
28E
330
2
100
AcDbEntity
  8
03-01
100
AcDbLine
 10
913.3098443018461
 20
993.791058693756
 30
0.0
 11
872.3098425137068
 21
993.7910610779418
 31
0.0
  0
LINE
  5
28F
330
2
100
AcDbEntity
  8
03-01
100
AcDbLine
 10
914.8098425137067
 20
1000.041061077942
 30
0.0
 11
913.3098425137069
 21
1000.041061077942
 31
0.0
  0
LINE
  5
290
330
2
100
AcDbEntity
  8
03-01
100
AcDbLine
 10
913.3098425137069
 20
940.0410610779417
 30
0.0
 11
914.8098425137067
 21
940.0410610779417
 31
0.0
  0
ARC
  5
291
330
2
100
AcDbEntity
  8
03-01
100
AcDbCircle
 10
914.8098425137067
 20
941.0410610779418
 30
0.0
 40
1.0
100
AcDbArc
 50
270.0
 51
0.0
  0
ARC
  5
292
330
2
100
AcDbEntity
  8
03-01
100
AcDbCircle
 10
914.8098425137067
 20
999.0410610779418
 30
0.0
 40
1.0
100
AcDbArc
 50
0.0
 51
90.0
  0
ARC
  5
293
330
2
100
AcDbEntity
  8
03-01
100
AcDbCircle
 10
686.8098425137068
 20
972.7910610779417
 30
0.0
 40
1.0
100
AcDbArc
 50
90.0
 51
180.0
  0
ARC
  5
294
330
2
100
AcDbEntity
  8
03-01
100
AcDbCircle
 10
686.8098425137068
 20
967.2910610779418
 30
0.0
 40
1.0
100
AcDbArc
 50
180.0
 51
270.0
  0
LINE
  5
295
330
2
100
AcDbEntity
  8
03-01
100
AcDbLine
 10
686.8098425137068
 20
966.2910610779418
 30
0.0
 11
695.8098431097532
 21
966.2910625680579
 31
0.0
  0
LINE
  5
296
330
2
100
AcDbEntity
  8
03-01
100
AcDbLine
 10
695.8098431097532
 20
973.7910628660811
 30
0.0
 11
686.8098425137068
 21
973.7910610779417
 31
0.0
  0
LINE
  5
297
330
2
100
AcDbEntity
  8
03-01
100
AcDbLine
 10
739.3098425137068
 20
993.7910610779418
 30
0.0
 11
698.3098407255674
 21
993.791058693756
 31
0.0
  0
LINE
  5
298
330
2
100
AcDbEntity
  8
03-01
100
AcDbLine
 10
698.3098407255674
 20
946.2910592898024
 30
0.0
 11
739.3098425137068
 21
946.2910610779417
 31
0.0
  0
LINE
  5
299
330
2
100
AcDbEntity
  8
03-01
100
AcDbLine
 10
742.3098425137068
 20
992.3921381034761
 30
0.0
 11
739.3098425137068
 21
993.7910610779418
 31
0.0
  0
LINE
  5
29A
330
2
100
AcDbEntity
  8
03-01
100
AcDbLine
 10
739.3098425137068
 20
946.2910610779417
 30
0.0
 11
742.3098425137068
 21
947.6899840524056
 31
0.0
  0
LINE
  5
29B
330
2
100
AcDbEntity
  8
03-01
100
AcDbLine
 10
696.8098425137068
 20
940.0410610779417
 30
0.0
 11
698.3098425137068
 21
940.0410610779417
 31
0.0
  0
LINE
  5
29C
330
2
100
AcDbEntity
  8
03-01
100
AcDbLine
 10
698.3098425137068
 20
1000.041061077942
 30
0.0
 11
696.8098425137068
 21
1000.041061077942
 31
0.0
  0
ARC
  5
29D
330
2
100
AcDbEntity
  8
03-01
100
AcDbCircle
 10
696.8098425137068
 20
999.0410610779418
 30
0.0
 40
1.0
100
AcDbArc
 50
90.0
 51
180.0
  0
ARC
  5
29E
330
2
100
AcDbEntity
  8
03-01
100
AcDbCircle
 10
696.8098425137068
 20
941.0410610779418
 30
0.0
 40
1.0
100
AcDbArc
 50
180.0
 51
270.0
  0
LINE
  5
29F
330
2
100
AcDbEntity
  8
03-01
100
AcDbLine
 10
681.3098425137068
 20
809.3118745041211
 30
0.0
 11
683.8098411427999
 21
809.3118816956176
 31
0.0
  0
LINE
  5
2A0
330
2
100
AcDbEntity
  8
03-01
100
AcDbLine
 10
683.8098411427999
 20
818.3118850334777
 30
0.0
 11
681.3098425137068
 21
818.3118745041211
 31
0.0
  0
ARC
  5
2A1
330
2
100
AcDbEntity
  8
03-01
100
AcDbCircle
 10
681.3098425137068
 20
817.3118745041211
 30
0.0
 40
1.0
100
AcDbArc
 50
90.0
 51
180.0
  0
ARC
  5
2A2
330
2
100
AcDbEntity
  8
03-01
100
AcDbCircle
 10
681.3098425137068
 20
810.3118745041211
 30
0.0
 40
1.0
100
AcDbArc
 50
180.0
 51
270.0
  0
LINE
  5
2A3
330
2
100
AcDbEntity
  8
03-01
100
AcDbLine
 10
930.3098425137068
 20
818.3118745041211
 30
0.0
 11
927.8098438846136
 21
818.3118850334777
 31
0.0
  0
LINE
  5
2A4
330
2
100
AcDbEntity
  8
03-01
100
AcDbLine
 10
927.8098438846136
 20
809.3118816956176
 30
0.0
 11
930.3098425137068
 21
809.3118745041211
 31
0.0
  0
ARC
  5
2A5
330
2
100
AcDbEntity
  8
03-01
100
AcDbCircle
 10
930.3098425137068
 20
810.3118745041211
 30
0.0
 40
1.0
100
AcDbArc
 50
270.0
 51
0.0
  0
ARC
  5
2A6
330
2
100
AcDbEntity
  8
03-01
100
AcDbCircle
 10
930.3098425137068
 20
817.3118745041211
 30
0.0
 40
1.0
100
AcDbArc
 50
0.0
 51
90.0
  0
LINE
  5
2A7
330
2
100
AcDbEntity
  8
03-01
100
AcDbLine
 10
792.8098422454859
 20
821.3118762119902
 30
0.0
 11
779.809841977265
 21
821.3118762119902
 31
0.0
  0
LINE
  5
2A8
330
2
100
AcDbEntity
  8
03-01
100
AcDbLine
 10
779.809841977265
 20
806.3118607147826
 30
0.0
 11
792.8098422454859
 21
806.3118607147826
 31
0.0
  0
LINE
  5
2A9
330
2
100
AcDbEntity
  8
03-01
100
AcDbLine
 10
706.8098430501486
 20
821.3118762119902
 30
0.0
 11
683.8098425137068
 21
821.311874504121
 31
0.0
  0
LINE
  5
2AA
330
2
100
AcDbEntity
  8
03-01
100
AcDbLine
 10
683.8098425137068
 20
806.311874504121
 30
0.0
 11
706.8098430501486
 21
806.3118607147826
 31
0.0
  0
LINE
  5
2AB
330
2
100
AcDbEntity
  8
03-01
100
AcDbLine
 10
878.8098414408231
 20
821.3118762119902
 30
0.0
 11
865.8098411726022
 21
821.3118762119902
 31
0.0
  0
LINE
  5
2AC
330
2
100
AcDbEntity
  8
03-01
100
AcDbLine
 10
865.8098411726022
 20
806.3118607147826
 30
0.0
 11
878.8098414408231
 21
806.3118607147826
 31
0.0
  0
LINE
  5
2AD
330
2
100
AcDbEntity
  8
03-01
100
AcDbLine
 10
835.8098418431545
 20
821.3118762119902
 30
0.0
 11
822.8098434375787
 21
821.3118762119902
 31
0.0
  0
LINE
  5
2AE
330
2
100
AcDbEntity
  8
03-01
100
AcDbLine
 10
822.8098434375787
 20
806.3118607147826
 30
0.0
 11
835.8098418431545
 21
806.3118607147826
 31
0.0
  0
LINE
  5
2AF
330
2
100
AcDbEntity
  8
03-01
100
AcDbLine
 10
927.8098425137068
 20
821.311874504121
 30
0.0
 11
908.809842632916
 21
821.3118762119902
 31
0.0
  0
LINE
  5
2B0
330
2
100
AcDbEntity
  8
03-01
100
AcDbLine
 10
908.809842632916
 20
806.3118607147826
 30
0.0
 11
927.8098425137068
 21
806.311874504121
 31
0.0
  0
LINE
  5
2B1
330
2
100
AcDbEntity
  8
03-01
100
AcDbLine
 10
749.809840785172
 20
821.3118762119902
 30
0.0
 11
736.8098442422414
 21
821.3118762119902
 31
0.0
  0
LINE
  5
2B2
330
2
100
AcDbEntity
  8
03-01
100
AcDbLine
 10
736.8098442422414
 20
806.3118607147826
 30
0.0
 11
749.809840785172
 21
806.3118607147826
 31
0.0
  0
ARC
  5
2B3
330
2
100
AcDbEntity
  8
03-01
100
AcDbCircle
 10
735.8098425137068
 20
825.3118745041211
 30
0.0
 40
1.0
100
AcDbArc
 50
0.0
 51
90.0
  0
ARC
  5
2B4
330
2
100
AcDbEntity
  8
03-01
100
AcDbCircle
 10
735.8098425137068
 20
802.3118745041202
 30
0.0
 40
1.0
100
AcDbArc
 50
270.0
 51
0.0
  0
LINE
  5
2B5
330
2
100
AcDbEntity
  8
03-01
100
AcDbLine
 10
778.8098425137068
 20
826.3118745041211
 30
0.0
 11
750.8098425137068
 21
826.3118745041211
 31
0.0
  0
LINE
  5
2B6
330
2
100
AcDbEntity
  8
03-01
100
AcDbLine
 10
750.8098425137068
 20
801.3118745041202
 30
0.0
 11
778.8098425137068
 21
801.3118745041202
 31
0.0
  0
LINE
  5
2B7
330
2
100
AcDbEntity
  8
03-01
100
AcDbLine
 10
864.8098425137067
 20
826.3118745041211
 30
0.0
 11
836.8098425137068
 21
826.3118745041211
 31
0.0
  0
LINE
  5
2B8
330
2
100
AcDbEntity
  8
03-01
100
AcDbLine
 10
836.8098425137068
 20
801.3118745041202
 30
0.0
 11
864.8098425137067
 21
801.3118745041202
 31
0.0
  0
ARC
  5
2B9
330
2
100
AcDbEntity
  8
03-01
100
AcDbCircle
 10
778.8098425137068
 20
825.3118745041211
 30
0.0
 40
1.0
100
AcDbArc
 50
0.0
 51
90.0
  0
ARC
  5
2BA
330
2
100
AcDbEntity
  8
03-01
100
AcDbCircle
 10
778.8098425137068
 20
802.3118745041202
 30
0.0
 40
1.0
100
AcDbArc
 50
270.0
 51
0.0
  0
ARC
  5
2BB
330
2
100
AcDbEntity
  8
03-01
100
AcDbCircle
 10
707.8098425137068
 20
825.3118745041211
 30
0.0
 40
1.0
100
AcDbArc
 50
90.0
 51
180.0
  0
ARC
  5
2BC
330
2
100
AcDbEntity
  8
03-01
100
AcDbCircle
 10
707.8098425137068
 20
802.3118745041202
 30
0.0
 40
1.0
100
AcDbArc
 50
180.0
 51
270.0
  0
LINE
  5
2BD
330
2
100
AcDbEntity
  8
03-01
100
AcDbLine
 10
735.8098425137068
 20
826.3118745041211
 30
0.0
 11
707.8098425137068
 21
826.3118745041211
 31
0.0
  0
LINE
  5
2BE
330
2
100
AcDbEntity
  8
03-01
100
AcDbLine
 10
707.8098425137068
 20
801.3118745041202
 30
0.0
 11
735.8098425137068
 21
801.3118745041202
 31
0.0
  0
ARC
  5
2BF
330
2
100
AcDbEntity
  8
03-01
100
AcDbCircle
 10
750.8098425137068
 20
825.3118745041211
 30
0.0
 40
1.0
100
AcDbArc
 50
90.0
 51
180.0
  0
ARC
  5
2C0
330
2
100
AcDbEntity
  8
03-01
100
AcDbCircle
 10
750.8098425137068
 20
802.3118745041202
 30
0.0
 40
1.0
100
AcDbArc
 50
180.0
 51
270.0
  0
ARC
  5
2C1
330
2
100
AcDbEntity
  8
03-01
100
AcDbCircle
 10
821.8098425137068
 20
825.3118745041211
 30
0.0
 40
1.0
100
AcDbArc
 50
0.0
 51
90.0
  0
ARC
  5
2C2
330
2
100
AcDbEntity
  8
03-01
100
AcDbCircle
 10
821.8098425137068
 20
802.3118745041202
 30
0.0
 40
1.0
100
AcDbArc
 50
270.0
 51
0.0
  0
ARC
  5
2C3
330
2
100
AcDbEntity
  8
03-01
100
AcDbCircle
 10
793.8098425137068
 20
825.3118745041211
 30
0.0
 40
1.0
100
AcDbArc
 50
90.0
 51
180.0
  0
ARC
  5
2C4
330
2
100
AcDbEntity
  8
03-01
100
AcDbCircle
 10
793.8098425137068
 20
802.3118745041202
 30
0.0
 40
1.0
100
AcDbArc
 50
180.0
 51
270.0
  0
ARC
  5
2C5
330
2
100
AcDbEntity
  8
03-01
100
AcDbCircle
 10
907.8098425137069
 20
825.3118745041211
 30
0.0
 40
1.0
100
AcDbArc
 50
0.0
 51
90.0
  0
ARC
  5
2C6
330
2
100
AcDbEntity
  8
03-01
100
AcDbCircle
 10
907.8098425137069
 20
802.3118745041202
 30
0.0
 40
1.0
100
AcDbArc
 50
270.0
 51
0.0
  0
LINE
  5
2C7
330
2
100
AcDbEntity
  8
03-01
100
AcDbLine
 10
821.8098425137068
 20
826.3118745041211
 30
0.0
 11
793.8098425137068
 21
826.3118745041211
 31
0.0
  0
LINE
  5
2C8
330
2
100
AcDbEntity
  8
03-01
100
AcDbLine
 10
793.8098425137068
 20
801.3118745041202
 30
0.0
 11
821.8098425137068
 21
801.3118745041202
 31
0.0
  0
ARC
  5
2C9
330
2
100
AcDbEntity
  8
03-01
100
AcDbCircle
 10
836.8098425137068
 20
825.3118745041211
 30
0.0
 40
1.0
100
AcDbArc
 50
90.0
 51
180.0
  0
ARC
  5
2CA
330
2
100
AcDbEntity
  8
03-01
100
AcDbCircle
 10
836.8098425137068
 20
802.3118745041202
 30
0.0
 40
1.0
100
AcDbArc
 50
180.0
 51
270.0
  0
ARC
  5
2CB
330
2
100
AcDbEntity
  8
03-01
100
AcDbCircle
 10
864.8098425137067
 20
825.3118745041211
 30
0.0
 40
1.0
100
AcDbArc
 50
0.0
 51
90.0
  0
ARC
  5
2CC
330
2
100
AcDbEntity
  8
03-01
100
AcDbCircle
 10
864.8098425137067
 20
802.3118745041202
 30
0.0
 40
1.0
100
AcDbArc
 50
270.0
 51
0.0
  0
ARC
  5
2CD
330
2
100
AcDbEntity
  8
03-01
100
AcDbCircle
 10
879.8098425137068
 20
825.3118745041211
 30
0.0
 40
1.0
100
AcDbArc
 50
90.0
 51
180.0
  0
ARC
  5
2CE
330
2
100
AcDbEntity
  8
03-01
100
AcDbCircle
 10
879.8098425137068
 20
802.3118745041202
 30
0.0
 40
1.0
100
AcDbArc
 50
180.0
 51
270.0
  0
LINE
  5
2CF
330
2
100
AcDbEntity
  8
03-01
100
AcDbLine
 10
907.8098425137069
 20
826.3118745041211
 30
0.0
 11
879.8098425137068
 21
826.3118745041211
 31
0.0
  0
LINE
  5
2D0
330
2
100
AcDbEntity
  8
03-01
100
AcDbLine
 10
879.8098425137068
 20
801.3118745041202
 30
0.0
 11
907.8098425137069
 21
801.3118745041202
 31
0.0
  0
LINE
  5
2D1
330
2
100
AcDbEntity
  8
05-01
100
AcDbLine
 10
911.8098425137068
 20
1050.041061077942
 30
0.0
 11
699.8098425137068
 21
1050.041061077942
 31
0.0
  0
LINE
  5
2D2
330
2
100
AcDbEntity
  8
03-01
100
AcDbLine
 10
897.3098425137068
 20
1047.541061077942
 30
0.0
 11
897.3098425137068
 21
1052.166941403291
 31
0.0
  0
ARC
  5
2D3
330
2
100
AcDbEntity
  8
03-01
100
AcDbCircle
 10
705.8098425137067
 20
865.5410610779417
 30
0.0
 40
8.500000000000085
100
AcDbArc
 50
180.0
 51
0.0
  0
ARC
  5
2D4
330
2
100
AcDbEntity
  8
03-01
100
AcDbCircle
 10
705.8098425137067
 20
1047.541061077942
 30
0.0
 40
8.500000000000085
100
AcDbArc
 50
180.0
 51
0.0
  0
ARC
  5
2D5
330
2
100
AcDbEntity
  8
03-01
100
AcDbCircle
 10
698.8098425137068
 20
1061.041061077942
 30
0.0
 40
9.00000000000001
100
AcDbArc
 50
90.0
 51
260.4059317730732
  0
ARC
  5
2D6
330
2
100
AcDbEntity
  8
03-01
100
AcDbCircle
 10
898.8098425137067
 20
1061.041061077942
 30
0.0
 40
9.000000000000053
100
AcDbArc
 50
90.0
 51
260.4059317730732
  0
ARC
  5
2D7
330
2
100
AcDbEntity
  8
03-01
100
AcDbCircle
 10
698.8098425137068
 20
879.0410610779417
 30
0.0
 40
9.000000000000062
100
AcDbArc
 50
90.0
 51
260.4059317730732
  0
ARC
  5
2D8
330
2
100
AcDbEntity
  8
03-01
100
AcDbCircle
 10
898.8098425137067
 20
879.0410610779417
 30
0.0
 40
9.000000000000053
100
AcDbArc
 50
90.0
 51
260.4059317730732
  0
LINE
  5
2D9
330
2
100
AcDbEntity
  8
03-01
100
AcDbLine
 10
897.3098425137068
 20
865.5410610779417
 30
0.0
 11
897.3098425137068
 21
870.1669414032913
 31
0.0
  0
LINE
  5
2DA
330
2
100
AcDbEntity
  8
03-01
100
AcDbLine
 10
898.8098425137067
 20
888.0410610779417
 30
0.0
 11
912.8098425137068
 21
888.0410610779417
 31
0.0
  0
LINE
  5
2DB
330
2
100
AcDbEntity
  8
03-01
100
AcDbLine
 10
714.3098425137068
 20
870.1669414032913
 30
0.0
 11
714.3098425137068
 21
865.5410610779417
 31
0.0
  0
LINE
  5
2DC
330
2
100
AcDbEntity
  8
03-01
100
AcDbLine
 10
698.8098425137068
 20
888.0410610779417
 30
0.0
 11
712.8098425137068
 21
888.0410610779417
 31
0.0
  0
LINE
  5
2DD
330
2
100
AcDbEntity
  8
03-01
100
AcDbLine
 10
697.3098425137068
 20
1047.541061077942
 30
0.0
 11
697.3098425137068
 21
1052.166941403291
 31
0.0
  0
LINE
  5
2DE
330
2
100
AcDbEntity
  8
03-01
100
AcDbLine
 10
697.3098425137068
 20
865.5410610779417
 30
0.0
 11
697.3098425137068
 21
870.1669414032913
 31
0.0
  0
ARC
  5
2DF
330
2
100
AcDbEntity
  8
03-01
100
AcDbCircle
 10
905.8098425137067
 20
865.5410610779417
 30
0.0
 40
8.500000000000056
100
AcDbArc
 50
180.0
 51
0.0
  0
ARC
  5
2E0
330
2
100
AcDbEntity
  8
03-01
100
AcDbCircle
 10
712.8098425137068
 20
879.0410610779417
 30
0.0
 40
9.000000000000053
100
AcDbArc
 50
279.5940682268236
 51
90.0
  0
LINE
  5
2E1
330
2
100
AcDbEntity
  8
03-01
100
AcDbLine
 10
956.8098425452772
 20
1080.541061077942
 30
0.0
 11
654.80984248214
 21
1080.541061077942
 31
0.0
  0
LINE
  5
2E2
330
2
100
AcDbEntity
  8
03-01
100
AcDbLine
 10
914.3098425137068
 20
870.1669414032913
 30
0.0
 11
914.3098425137068
 21
865.5410610779417
 31
0.0
  0
ARC
  5
2E3
330
2
100
AcDbEntity
  8
03-01
100
AcDbCircle
 10
912.8098425137068
 20
879.0410610779417
 30
0.0
 40
9.000000000000062
100
AcDbArc
 50
279.5940682268236
 51
90.0
  0
ARC
  5
2E4
330
2
100
AcDbEntity
  8
03-01
100
AcDbCircle
 10
712.8098425137068
 20
1061.041061077942
 30
0.0
 40
9.0
100
AcDbArc
 50
279.5940682268236
 51
90.0
  0
ARC
  5
2E5
330
2
100
AcDbEntity
  8
03-01
100
AcDbCircle
 10
905.8098425137067
 20
1047.541061077942
 30
0.0
 40
8.500000000000056
100
AcDbArc
 50
180.0
 51
0.0
  0
LINE
  5
2E6
330
2
100
AcDbEntity
  8
03-01
100
AcDbLine
 10
714.3098425137068
 20
1052.166941403291
 30
0.0
 11
714.3098425137068
 21
1047.541061077942
 31
0.0
  0
LINE
  5
2E7
330
2
100
AcDbEntity
  8
03-01
100
AcDbLine
 10
914.3098425137068
 20
1052.166941403291
 30
0.0
 11
914.3098425137068
 21
1047.541061077942
 31
0.0
  0
ARC
  5
2E8
330
2
100
AcDbEntity
  8
03-01
100
AcDbCircle
 10
912.8098425137068
 20
1061.041061077942
 30
0.0
 40
9.000000000000062
100
AcDbArc
 50
279.5940682268236
 51
90.0
  0
LINE
  5
2E9
330
2
100
AcDbEntity
  8
03-01
100
AcDbLine
 10
654.8098494278455
 20
736.5410477265013
 30
0.0
 11
956.809835599568
 21
736.5410477265013
 31
0.0
  0
LINE
  5
2EA
330
2
100
AcDbEntity
  8
03-01
100
AcDbLine
 10
654.80984248214
 20
1080.541061077942
 30
0.0
 11
654.8098494278455
 21
736.5410477265013
 31
0.0
  0
LINE
  5
2EB
330
2
100
AcDbEntity
  8
03-01
100
AcDbLine
 10
956.809835599568
 20
736.5410477265013
 30
0.0
 11
956.8098425452772
 21
1080.541061077942
 31
0.0
  0
ARC
  5
2EC
330
2
100
AcDbEntity
  8
03-01
100
AcDbCircle
 10
705.8098425137067
 20
865.5410610779417
 30
0.0
 40
5.500000000000056
100
AcDbArc
 50
127.9798724448701
 51
180.0
  0
ARC
  5
2ED
330
2
100
AcDbEntity
  8
03-01
100
AcDbCircle
 10
705.8098425137067
 20
865.5410610779417
 30
0.0
 40
5.499999999999971
100
AcDbArc
 50
356.9999999999968
 51
52.02012755512992
  0
ARC
  5
2EE
330
2
100
AcDbEntity
  8
03-01
100
AcDbCircle
 10
701.8098425137068
 20
870.6645364609212
 30
0.0
 40
1.000000000000076
100
AcDbArc
 50
307.9798724448697
 51
0.0
  0
LINE
  5
2EF
330
2
100
AcDbEntity
  8
03-01
100
AcDbLine
 10
708.8098425137068
 20
875.0410610779418
 30
0.0
 11
708.8098425137068
 21
870.6645364609212
 31
0.0
  0
ARC
  5
2F0
330
2
100
AcDbEntity
  8
03-01
100
AcDbCircle
 10
709.8098425137068
 20
870.6645364609212
 30
0.0
 40
1.000000000000111
100
AcDbArc
 50
180.0
 51
232.0201275551299
  0
LINE
  5
2F1
330
2
100
AcDbEntity
  8
03-01
100
AcDbLine
 10
698.8098425137068
 20
882.0410610779417
 30
0.0
 11
712.8098425137068
 21
882.0410610779417
 31
0.0
  0
ARC
  5
2F2
330
2
100
AcDbEntity
  8
03-01
100
AcDbCircle
 10
712.8098425137068
 20
879.0410610779417
 30
0.0
 40
3.000000000000113
100
AcDbArc
 50
270.0
 51
90.0
  0
ARC
  5
2F3
330
2
100
AcDbEntity
  8
03-01
100
AcDbCircle
 10
698.8098425137068
 20
879.0410610779417
 30
0.0
 40
3.000000000000113
100
AcDbArc
 50
90.0
 51
270.0
  0
ARC
  5
2F4
330
2
100
AcDbEntity
  8
03-01
100
AcDbCircle
 10
701.8098425137068
 20
875.0410610779418
 30
0.0
 40
1.0
100
AcDbArc
 50
0.0
 51
90.0
  0
LINE
  5
2F5
330
2
100
AcDbEntity
  8
03-01
100
AcDbLine
 10
702.8098425137068
 20
870.6645364609212
 30
0.0
 11
702.8098425137068
 21
875.0410610779418
 31
0.0
  0
LINE
  5
2F6
330
2
100
AcDbEntity
  8
03-01
100
AcDbLine
 10
712.8098425137068
 20
876.0410610779418
 30
0.0
 11
709.8098425137068
 21
876.0410610779418
 31
0.0
  0
LINE
  5
2F7
330
2
100
AcDbEntity
  8
03-01
100
AcDbLine
 10
701.8098425137068
 20
876.0410610779418
 30
0.0
 11
698.8098425137068
 21
876.0410610779418
 31
0.0
  0
ARC
  5
2F8
330
2
100
AcDbEntity
  8
03-01
100
AcDbCircle
 10
709.8098425137068
 20
875.0410610779418
 30
0.0
 40
1.0
100
AcDbArc
 50
90.0
 51
180.0
  0
ARC
  5
2F9
330
2
100
AcDbEntity
  8
03-01
100
AcDbCircle
 10
905.8098425137067
 20
1047.541061077942
 30
0.0
 40
5.499999999999971
100
AcDbArc
 50
127.9798724448701
 51
180.0
  0
ARC
  5
2FA
330
2
100
AcDbEntity
  8
03-01
100
AcDbCircle
 10
905.8098425137067
 20
1047.541061077942
 30
0.0
 40
5.500000000000065
100
AcDbArc
 50
356.9999999999968
 51
52.02012755512992
  0
LINE
  5
2FB
330
2
100
AcDbEntity
  8
03-01
100
AcDbLine
 10
898.8098425137067
 20
1064.041061077942
 30
0.0
 11
912.8098425137068
 21
1064.041061077942
 31
0.0
  0
LINE
  5
2FC
330
2
100
AcDbEntity
  8
03-01
100
AcDbLine
 10
912.8098425137068
 20
1058.041061077942
 30
0.0
 11
909.8098425137068
 21
1058.041061077942
 31
0.0
  0
ARC
  5
2FD
330
2
100
AcDbEntity
  8
03-01
100
AcDbCircle
 10
909.8098425137068
 20
1052.664536460921
 30
0.0
 40
1.0
100
AcDbArc
 50
180.0
 51
232.0201275551299
  0
ARC
  5
2FE
330
2
100
AcDbEntity
  8
03-01
100
AcDbCircle
 10
912.8098425137068
 20
1061.041061077942
 30
0.0
 40
3.0
100
AcDbArc
 50
270.0
 51
90.0
  0
ARC
  5
2FF
330
2
100
AcDbEntity
  8
03-01
100
AcDbCircle
 10
901.8098425137068
 20
1052.664536460921
 30
0.0
 40
1.000000000000021
100
AcDbArc
 50
307.9798724448697
 51
0.0
  0
ARC
  5
300
330
2
100
AcDbEntity
  8
03-01
100
AcDbCircle
 10
898.8098425137067
 20
1061.041061077942
 30
0.0
 40
3.0
100
AcDbArc
 50
90.0
 51
270.0
  0
LINE
  5
301
330
2
100
AcDbEntity
  8
03-01
100
AcDbLine
 10
901.8098425137068
 20
1058.041061077942
 30
0.0
 11
898.8098425137067
 21
1058.041061077942
 31
0.0
  0
ARC
  5
302
330
2
100
AcDbEntity
  8
03-01
100
AcDbCircle
 10
901.8098425137068
 20
1057.041061077941
 30
0.0
 40
1.0
100
AcDbArc
 50
0.0
 51
90.0
  0
LINE
  5
303
330
2
100
AcDbEntity
  8
03-01
100
AcDbLine
 10
902.8098425137068
 20
1052.664536460921
 30
0.0
 11
902.8098425137068
 21
1057.041061077941
 31
0.0
  0
ARC
  5
304
330
2
100
AcDbEntity
  8
03-01
100
AcDbCircle
 10
909.8098425137068
 20
1057.041061077941
 30
0.0
 40
1.0
100
AcDbArc
 50
90.0
 51
180.0
  0
LINE
  5
305
330
2
100
AcDbEntity
  8
03-01
100
AcDbLine
 10
908.8098425137069
 20
1057.041061077941
 30
0.0
 11
908.8098425137069
 21
1052.664536460921
 31
0.0
  0
ARC
  5
306
330
2
100
AcDbEntity
  8
03-01
100
AcDbCircle
 10
905.8098425137067
 20
865.5410610779417
 30
0.0
 40
5.499999999999971
100
AcDbArc
 50
127.9798724448701
 51
180.0
  0
ARC
  5
307
330
2
100
AcDbEntity
  8
03-01
100
AcDbCircle
 10
905.8098425137067
 20
865.5410610779417
 30
0.0
 40
5.500000000000065
100
AcDbArc
 50
356.9999999999968
 51
52.02012755512992
  0
ARC
  5
308
330
2
100
AcDbEntity
  8
03-01
100
AcDbCircle
 10
898.8098425137067
 20
879.0410610779417
 30
0.0
 40
3.000000000000113
100
AcDbArc
 50
90.0
 51
270.0
  0
ARC
  5
309
330
2
100
AcDbEntity
  8
03-01
100
AcDbCircle
 10
909.8098425137068
 20
875.0410610779418
 30
0.0
 40
1.0
100
AcDbArc
 50
90.0
 51
180.0
  0
ARC
  5
30A
330
2
100
AcDbEntity
  8
03-01
100
AcDbCircle
 10
901.8098425137068
 20
870.6645364609212
 30
0.0
 40
1.000000000000111
100
AcDbArc
 50
307.9798724448697
 51
0.0
  0
LINE
  5
30B
330
2
100
AcDbEntity
  8
03-01
100
AcDbLine
 10
902.8098425137068
 20
870.6645364609212
 30
0.0
 11
902.8098425137068
 21
875.0410610779418
 31
0.0
  0
ARC
  5
30C
330
2
100
AcDbEntity
  8
03-01
100
AcDbCircle
 10
901.8098425137068
 20
875.0410610779418
 30
0.0
 40
1.0
100
AcDbArc
 50
0.0
 51
90.0
  0
LINE
  5
30D
330
2
100
AcDbEntity
  8
03-01
100
AcDbLine
 10
901.8098425137068
 20
876.0410610779418
 30
0.0
 11
898.8098425137067
 21
876.0410610779418
 31
0.0
  0
LINE
  5
30E
330
2
100
AcDbEntity
  8
03-01
100
AcDbLine
 10
898.8098425137067
 20
882.0410610779417
 30
0.0
 11
912.8098425137068
 21
882.0410610779417
 31
0.0
  0
ARC
  5
30F
330
2
100
AcDbEntity
  8
03-01
100
AcDbCircle
 10
912.8098425137068
 20
879.0410610779417
 30
0.0
 40
3.000000000000113
100
AcDbArc
 50
270.0
 51
90.0
  0
LINE
  5
310
330
2
100
AcDbEntity
  8
03-01
100
AcDbLine
 10
912.8098425137068
 20
876.0410610779418
 30
0.0
 11
909.8098425137068
 21
876.0410610779418
 31
0.0
  0
LINE
  5
311
330
2
100
AcDbEntity
  8
03-01
100
AcDbLine
 10
908.8098425137069
 20
875.0410610779418
 30
0.0
 11
908.8098425137069
 21
870.6645364609212
 31
0.0
  0
ARC
  5
312
330
2
100
AcDbEntity
  8
03-01
100
AcDbCircle
 10
909.8098425137068
 20
870.6645364609212
 30
0.0
 40
1.000000000000076
100
AcDbArc
 50
180.0
 51
232.0201275551299
  0
ARC
  5
313
330
2
100
AcDbEntity
  8
03-01
100
AcDbCircle
 10
705.8098425137067
 20
1047.541061077942
 30
0.0
 40
5.500000000000056
100
AcDbArc
 50
127.9798724448701
 51
180.0
  0
ARC
  5
314
330
2
100
AcDbEntity
  8
03-01
100
AcDbCircle
 10
705.8098425137067
 20
1047.541061077942
 30
0.0
 40
5.499999999999971
100
AcDbArc
 50
356.9999999999968
 51
52.02012755512992
  0
ARC
  5
315
330
2
100
AcDbEntity
  8
03-01
100
AcDbCircle
 10
701.8098425137068
 20
1052.664536460921
 30
0.0
 40
0.9999999999999872
100
AcDbArc
 50
307.9798724448697
 51
0.0
  0
LINE
  5
316
330
2
100
AcDbEntity
  8
03-01
100
AcDbLine
 10
702.8098425137068
 20
1052.664536460921
 30
0.0
 11
702.8098425137068
 21
1057.041061077941
 31
0.0
  0
ARC
  5
317
330
2
100
AcDbEntity
  8
03-01
100
AcDbCircle
 10
701.8098425137068
 20
1057.041061077941
 30
0.0
 40
1.0
100
AcDbArc
 50
0.0
 51
90.0
  0
LINE
  5
318
330
2
100
AcDbEntity
  8
03-01
100
AcDbLine
 10
701.8098425137068
 20
1058.041061077942
 30
0.0
 11
698.8098425137068
 21
1058.041061077942
 31
0.0
  0
ARC
  5
319
330
2
100
AcDbEntity
  8
03-01
100
AcDbCircle
 10
698.8098425137068
 20
1061.041061077942
 30
0.0
 40
3.0
100
AcDbArc
 50
90.0
 51
270.0
  0
LINE
  5
31A
330
2
100
AcDbEntity
  8
03-01
100
AcDbLine
 10
698.8098425137068
 20
1064.041061077942
 30
0.0
 11
712.8098425137068
 21
1064.041061077942
 31
0.0
  0
ARC
  5
31B
330
2
100
AcDbEntity
  8
03-01
100
AcDbCircle
 10
712.8098425137068
 20
1061.041061077942
 30
0.0
 40
3.0
100
AcDbArc
 50
270.0
 51
90.0
  0
LINE
  5
31C
330
2
100
AcDbEntity
  8
03-01
100
AcDbLine
 10
712.8098425137068
 20
1058.041061077942
 30
0.0
 11
709.8098425137068
 21
1058.041061077942
 31
0.0
  0
ARC
  5
31D
330
2
100
AcDbEntity
  8
03-01
100
AcDbCircle
 10
709.8098425137068
 20
1057.041061077941
 30
0.0
 40
1.0
100
AcDbArc
 50
90.0
 51
180.0
  0
LINE
  5
31E
330
2
100
AcDbEntity
  8
03-01
100
AcDbLine
 10
708.8098425137068
 20
1057.041061077941
 30
0.0
 11
708.8098425137068
 21
1052.664536460921
 31
0.0
  0
ARC
  5
31F
330
2
100
AcDbEntity
  8
03-01
100
AcDbCircle
 10
709.8098425137068
 20
1052.664536460921
 30
0.0
 40
1.000000000000056
100
AcDbArc
 50
180.0
 51
232.0201275551299
  0
LINE
  5
320
330
2
100
AcDbEntity
  8
03-01
100
AcDbLine
 10
694.3098400699163
 20
1091.041061130096
 30
0.0
 11
714.3098433481718
 21
1091.041061130096
 31
0.0
  0
LINE
  5
321
330
2
100
AcDbEntity
  8
03-01
100
AcDbLine
 10
714.3098433481718
 20
1091.041061130096
 30
0.0
 11
714.3098433481718
 21
1085.041061077942
 31
0.0
  0
LINE
  5
322
330
2
100
AcDbEntity
  8
03-01
100
AcDbLine
 10
694.3098400699163
 20
1091.041061130096
 30
0.0
 11
694.3098400699163
 21
1085.041061077942
 31
0.0
  0
LINE
  5
323
330
2
100
AcDbEntity
  8
03-01
100
AcDbLine
 10
917.3098449574972
 20
1091.041061130096
 30
0.0
 11
917.3098449574972
 21
1085.041061077942
 31
0.0
  0
LINE
  5
324
330
2
100
AcDbEntity
  8
03-01
100
AcDbLine
 10
897.3098416792417
 20
1091.041061130096
 30
0.0
 11
897.3098416792417
 21
1085.041061077942
 31
0.0
  0
LINE
  5
325
330
2
100
AcDbEntity
  8
03-01
100
AcDbLine
 10
917.3098449574972
 20
1091.041061130096
 30
0.0
 11
897.3098416792417
 21
1091.041061130096
 31
0.0
  0
ARC
  5
326
330
2
100
AcDbEntity
  8
03-01
100
AcDbCircle
 10
905.8098425137067
 20
1047.541061077942
 30
0.0
 40
5.500000000000065
100
AcDbArc
 50
180.0
 51
356.9999999999968
  0
ARC
  5
327
330
2
100
AcDbEntity
  8
03-01
100
AcDbCircle
 10
905.8098425137067
 20
865.5410610779417
 30
0.0
 40
5.500000000000065
100
AcDbArc
 50
180.0
 51
356.9999999999968
  0
ARC
  5
328
330
2
100
AcDbEntity
  8
03-01
100
AcDbCircle
 10
705.8098425137067
 20
1047.541061077942
 30
0.0
 40
5.500000000000056
100
AcDbArc
 50
180.0
 51
356.9999999999968
  0
ARC
  5
329
330
2
100
AcDbEntity
  8
03-01
100
AcDbCircle
 10
705.8098425137067
 20
865.5410610779417
 30
0.0
 40
5.500000000000056
100
AcDbArc
 50
180.0
 51
356.9999999999968
  0
LINE
  5
32A
330
2
100
AcDbEntity
  8
03-01
100
AcDbLine
 10
673.8098425137068
 20
902.0410610779418
 30
0.0
 11
940.8098425137067
 21
902.0410610779418
 31
0.0
  0
LINE
  5
32B
330
2
100
AcDbEntity
  8
03-01
100
AcDbLine
 10
650.3098256117445
 20
732.0410610779418
 30
0.0
 11
961.3098425137104
 21
732.0410610779418
 31
0.0
  0
LINE
  5
32C
330
2
100
AcDbEntity
  8
03-01
100
AcDbLine
 10
937.8098425137068
 20
1028.041061077942
 30
0.0
 11
673.8098425137068
 21
1028.041061077942
 31
0.0
  0
LINE
  5
32D
330
2
100
AcDbEntity
  8
03-01
100
AcDbLine
 10
961.309837268498
 20
1048.041060601105
 30
0.0
 11
961.3098425137067
 21
973.2014362227873
 31
0.0
  0
LINE
  5
32E
330
2
100
AcDbEntity
  8
03-01
100
AcDbLine
 10
650.3098477589155
 20
1048.041060601105
 30
0.0
 11
650.3098256117445
 21
732.0410610779418
 31
0.0
  0
LINE
  5
32F
330
2
100
AcDbEntity
  8
03-01
100
AcDbLine
 10
956.3098425137068
 20
1085.041061077942
 30
0.0
 11
655.3098425137068
 21
1085.041061077942
 31
0.0
  0
ARC
  5
330
330
2
100
AcDbEntity
  8
03-01
100
AcDbCircle
 10
655.3098425137068
 20
1080.041061077942
 30
0.0
 40
5.000000000000113
100
AcDbArc
 50
90.0
 51
180.0
  0
LINE
  5
331
330
2
100
AcDbEntity
  8
03-01
100
AcDbLine
 10
650.3098425137068
 20
1080.041061077942
 30
0.0
 11
650.3098477589155
 21
1078.041060861875
 31
0.0
  0
LINE
  5
332
330
2
100
AcDbEntity
  8
03-01
100
AcDbLine
 10
648.809837268498
 20
1076.541060616006
 30
0.0
 11
650.3098477589155
 21
1078.041060861875
 31
0.0
  0
LINE
  5
333
330
2
100
AcDbEntity
  8
03-01
100
AcDbLine
 10
648.809837268498
 20
1049.541059915651
 30
0.0
 11
648.809837268498
 21
1076.541060616006
 31
0.0
  0
LINE
  5
334
330
2
100
AcDbEntity
  8
03-01
100
AcDbLine
 10
650.3098477589155
 20
1048.041060601105
 30
0.0
 11
648.809837268498
 21
1049.541059915651
 31
0.0
  0
LINE
  5
335
330
2
100
AcDbEntity
  8
03-01
100
AcDbLine
 10
961.309837268498
 20
1048.041060601105
 30
0.0
 11
962.8098477589155
 21
1049.541059915651
 31
0.0
  0
LINE
  5
336
330
2
100
AcDbEntity
  8
03-01
100
AcDbLine
 10
962.8098477589155
 20
1049.541059915651
 30
0.0
 11
962.8098477589155
 21
1076.541060616006
 31
0.0
  0
LINE
  5
337
330
2
100
AcDbEntity
  8
03-01
100
AcDbLine
 10
962.8098477589155
 20
1076.541060616006
 30
0.0
 11
961.309837268498
 21
1078.041060861875
 31
0.0
  0
LINE
  5
338
330
2
100
AcDbEntity
  8
03-01
100
AcDbLine
 10
961.3098425137067
 20
1080.041061077942
 30
0.0
 11
961.309837268498
 21
1078.041060861875
 31
0.0
  0
ARC
  5
339
330
2
100
AcDbEntity
  8
03-01
100
AcDbCircle
 10
956.3098425137068
 20
1080.041061077942
 30
0.0
 40
5.0
100
AcDbArc
 50
0.0
 51
90.0
  0
LINE
  5
33A
330
2
100
AcDbEntity
  8
03-01
100
AcDbLine
 10
962.8098477589155
 20
895.5410570248259
 30
0.0
 11
961.309837268498
 21
897.0410675152434
 31
0.0
  0
LINE
  5
33B
330
2
100
AcDbEntity
  8
03-01
100
AcDbLine
 10
962.8098477589155
 20
871.5410679920806
 30
0.0
 11
962.8098477589155
 21
895.5410570248259
 31
0.0
  0
LINE
  5
33C
330
2
100
AcDbEntity
  8
03-01
100
AcDbLine
 10
961.309837268498
 20
870.0410575016631
 30
0.0
 11
962.8098477589155
 21
871.5410679920806
 31
0.0
  0
LINE
  5
33D
330
2
100
AcDbEntity
  8
03-01
100
AcDbLine
 10
650.3098477589155
 20
870.0410575016631
 30
0.0
 11
648.809837268498
 21
871.5410679920806
 31
0.0
  0
LINE
  5
33E
330
2
100
AcDbEntity
  8
03-01
100
AcDbLine
 10
648.809837268498
 20
895.5410570248259
 30
0.0
 11
650.3098477589155
 21
897.0410675152434
 31
0.0
  0
LINE
  5
33F
330
2
100
AcDbEntity
  8
03-01
100
AcDbLine
 10
648.809837268498
 20
871.5410679920806
 30
0.0
 11
648.809837268498
 21
895.5410570248259
 31
0.0
  0
LINE
  5
340
330
2
100
AcDbEntity
  8
03-01
100
AcDbLine
 10
962.8098477589155
 20
756.5410584553374
 30
0.0
 11
962.8098477589155
 21
783.5410684689177
 31
0.0
  0
LINE
  5
341
330
2
100
AcDbEntity
  8
03-01
100
AcDbLine
 10
961.309837268498
 20
755.0410479649199
 30
0.0
 11
962.8098477589155
 21
756.5410584553374
 31
0.0
  0
LINE
  5
342
330
2
100
AcDbEntity
  8
03-01
100
AcDbLine
 10
962.8098477589155
 20
783.5410684689177
 30
0.0
 11
961.309837268498
 21
785.0410491570128
 31
0.0
  0
LINE
  5
343
330
2
100
AcDbEntity
  8
03-01
100
AcDbLine
 10
650.3098477589155
 20
755.0410479649199
 30
0.0
 11
648.809837268498
 21
756.5410584553374
 31
0.0
  0
LINE
  5
344
330
2
100
AcDbEntity
  8
03-01
100
AcDbLine
 10
648.809837268498
 20
783.5410684689177
 30
0.0
 11
650.3098477589155
 21
785.0410491570128
 31
0.0
  0
LINE
  5
345
330
2
100
AcDbEntity
  8
03-01
100
AcDbLine
 10
648.809837268498
 20
756.5410584553374
 30
0.0
 11
648.809837268498
 21
783.5410684689177
 31
0.0
  0
LINE
  5
346
330
2
100
AcDbEntity
  8
03-01
100
AcDbLine
 10
693.499678836968
 20
935.0410551174773
 30
0.0
 11
691.2785788046384
 21
935.0410551174773
 31
0.0
  0
LINE
  5
347
330
2
100
AcDbEntity
  8
03-01
100
AcDbLine
 10
920.341106222775
 20
935.0410551174773
 30
0.0
 11
918.1200061904455
 21
935.0410551174773
 31
0.0
  0
LINE
  5
348
330
2
100
AcDbEntity
  8
03-01
100
AcDbLine
 10
670.8098371492887
 20
993.0410608991278
 30
0.0
 11
670.8098425137068
 21
998.2214672422733
 31
0.0
  0
LINE
  5
349
330
2
100
AcDbEntity
  8
03-01
100
AcDbLine
 10
670.8098425137068
 20
936.929957721809
 30
0.0
 11
670.8098425137068
 21
913.0410610779417
 31
0.0
  0
LINE
  5
34A
330
2
100
AcDbEntity
  8
03-01
100
AcDbLine
 10
670.8098425137068
 20
1017.041061077942
 30
0.0
 11
670.8098425137068
 21
998.2214672422733
 31
0.0
  0
LINE
  5
34B
330
2
100
AcDbEntity
  8
03-01
100
AcDbLine
 10
918.1200061904455
 20
935.0410551174773
 30
0.0
 11
920.341106222775
 21
935.0410551174773
 31
0.0
  0
LWPOLYLINE
  5
34C
330
2
100
AcDbEntity
  8
03-01
100
AcDbPolyline
 90
        3
 70
   128
 43
0.0
 10
918.1200061904455
 20
935.0410551174773
 10
917.9225583540464
 20
935.7215613468779
 10
917.8098459707761
 20
936.7819279774321
  0
LINE
  5
34D
330
2
100
AcDbEntity
  8
03-01
100
AcDbLine
 10
917.8098425137068
 20
936.7819292510375
 30
0.0
 11
917.8098425137068
 21
993.5548096931288
 31
0.0
  0
ARC
  5
34E
330
2
100
AcDbEntity
  8
03-01
100
AcDbCircle
 10
922.8482587897742
 20
993.608002754985
 30
0.0
 40
5.038693619555808
100
AcDbArc
 50
90.43685667526281
 51
180.6048945255765
  0
LINE
  5
34F
330
2
100
AcDbEntity
  8
03-01
100
AcDbLine
 10
922.8098425137067
 20
998.6465505172692
 30
0.0
 11
938.8098425137068
 21
998.6465505172692
 31
0.0
  0
LWPOLYLINE
  5
350
330
2
100
AcDbEntity
  8
03-01
100
AcDbPolyline
 90
        3
 70
   128
 43
0.0
 10
938.8098438919879
 20
998.6465498477301
 10
940.4404183567859
 20
998.3681812554678
 10
940.8098479451037
 20
998.2214644223532
  0
LWPOLYLINE
  5
351
330
2
100
AcDbEntity
  8
03-01
100
AcDbPolyline
 90
        3
 70
   128
 43
0.0
 10
670.8098371492887
 20
998.2214644893302
 10
671.7803646790052
 20
998.5374510630263
 10
672.8098412024046
 20
998.6465499147071
  0
LINE
  5
352
330
2
100
AcDbEntity
  8
03-01
100
AcDbLine
 10
672.8098425137068
 20
998.6465505172692
 30
0.0
 11
688.8098425137068
 21
998.6465505172692
 31
0.0
  0
ARC
  5
353
330
2
100
AcDbEntity
  8
03-01
100
AcDbCircle
 10
688.7572298429768
 20
993.5940621605759
 30
0.0
 40
5.052761694038842
100
AcDbArc
 50
359.5548757085464
 51
89.40337309055918
  0
LINE
  5
354
330
2
100
AcDbEntity
  8
03-01
100
AcDbLine
 10
693.8098425137068
 20
993.5548096931288
 30
0.0
 11
693.8098425137068
 21
936.7819292510375
 31
0.0
  0
LINE
  5
355
330
2
100
AcDbEntity
  8
03-01
100
AcDbLine
 10
693.8098425137068
 20
936.7819292510375
 30
0.0
 11
693.499678836968
 21
935.0410551174773
 31
0.0
  0
LINE
  5
356
330
2
100
AcDbEntity
  8
03-01
100
AcDbLine
 10
691.2785788046384
 20
935.0410551174773
 30
0.0
 11
693.499678836968
 21
935.0410551174773
 31
0.0
  0
LINE
  5
357
330
2
100
AcDbEntity
  8
03-01
100
AcDbLine
 10
670.8098425137068
 20
897.0410610779417
 30
0.0
 11
670.8098425137068
 21
902.0410610779418
 31
0.0
  0
LINE
  5
358
330
2
100
AcDbEntity
  8
03-01
100
AcDbLine
 10
940.8098425137067
 20
897.0410610779417
 30
0.0
 11
670.8098425137068
 21
897.0410610779417
 31
0.0
  0
LINE
  5
359
330
2
100
AcDbEntity
  8
03-01
100
AcDbLine
 10
670.8098425137068
 20
1028.041061077942
 30
0.0
 11
670.8098425137068
 21
1033.041061077942
 31
0.0
  0
LINE
  5
35A
330
2
100
AcDbEntity
  8
03-01
100
AcDbLine
 10
940.8098425137067
 20
1033.041061077942
 30
0.0
 11
940.8098425137067
 21
897.0410610779417
 31
0.0
  0
LINE
  5
35B
330
2
100
AcDbEntity
  8
03-01
100
AcDbLine
 10
670.8098425137068
 20
1033.041061077942
 30
0.0
 11
940.8098425137067
 21
1033.041061077942
 31
0.0
  0
LINE
  5
35C
330
2
100
AcDbEntity
  8
03-01
100
AcDbLine
 10
670.8098425137068
 20
1028.041061077942
 30
0.0
 11
670.8098425137068
 21
1017.041061077942
 31
0.0
  0
LINE
  5
35D
330
2
100
AcDbEntity
  8
03-01
100
AcDbLine
 10
940.8098425137067
 20
1028.041061077942
 30
0.0
 11
670.8098425137068
 21
1028.041061077942
 31
0.0
  0
LINE
  5
35E
330
2
100
AcDbEntity
  8
03-01
100
AcDbLine
 10
670.8098425137068
 20
1017.041061077942
 30
0.0
 11
940.8098425137067
 21
1017.041061077942
 31
0.0
  0
LINE
  5
35F
330
2
100
AcDbEntity
  8
03-01
100
AcDbLine
 10
670.8098425137068
 20
913.0410610779417
 30
0.0
 11
670.8098425137068
 21
902.0410610779418
 31
0.0
  0
LINE
  5
360
330
2
100
AcDbEntity
  8
03-01
100
AcDbLine
 10
670.8098425137068
 20
913.0410610779417
 30
0.0
 11
940.8098425137067
 21
913.0410546537495
 31
0.0
  0
LINE
  5
361
330
2
100
AcDbEntity
  8
03-01
100
AcDbLine
 10
670.8098425137068
 20
902.0410610779418
 30
0.0
 11
916.3152595030332
 21
902.0410627468718
 31
0.0
  0
LINE
  5
362
330
2
100
AcDbEntity
  8
03-01
100
AcDbLine
 10
961.3098425137067
 20
973.2014362227873
 30
0.0
 11
961.3098425137067
 21
887.0185341064516
 31
0.0
  0
LINE
  5
363
330
2
100
AcDbEntity
  8
03-01
100
AcDbLine
 10
682.8098432858605
 20
965.0410610779417
 30
0.0
 11
682.8098380961564
 21
998.6465505172692
 31
0.0
  0
LINE
  5
364
330
2
100
AcDbEntity
  8
03-01
100
AcDbLine
 10
932.8098425137069
 20
970.0410610779417
 30
0.0
 11
932.8098477837702
 21
998.6465505172692
 31
0.0
  0
LINE
  5
365
330
2
100
AcDbEntity
  8
03-01
100
AcDbLine
 10
932.8098425137069
 20
965.0410610779417
 30
0.0
 11
932.8098425137069
 21
970.0410610779417
 31
0.0
  0
LINE
  5
366
330
2
100
AcDbEntity
  8
03-01
100
AcDbLine
 10
961.3098425137067
 20
887.0185341064516
 30
0.0
 11
961.3098425137067
 21
848.8806859330953
 31
0.0
  0
LINE
  5
367
330
2
100
AcDbEntity
  8
03-01
100
AcDbLine
 10
961.3098425137104
 20
732.0410610779418
 30
0.0
 11
961.3098425137067
 21
848.8806859330953
 31
0.0
  0
LINE
  5
368
330
2
100
AcDbEntity
  8
03-01
100
AcDbLine
 10
920.341106222775
 20
935.0410551174773
 30
0.0
 11
938.8098438250089
 21
935.0410551174773
 31
0.0
  0
LINE
  5
369
330
2
100
AcDbEntity
  8
03-01
100
AcDbLine
 10
672.8098412024046
 20
935.0410551174773
 30
0.0
 11
691.2785788046384
 21
935.0410551174773
 31
0.0
  0
LINE
  5
36A
330
2
100
AcDbEntity
  8
03-01
100
AcDbLine
 10
670.8098425137068
 20
936.929957721809
 30
0.0
 11
670.8098425137068
 21
948.6373884646546
 31
0.0
  0
LINE
  5
36B
330
2
100
AcDbEntity
  8
03-01
100
AcDbLine
 10
672.8098412024046
 20
935.0410551174773
 30
0.0
 11
672.2344477640653
 21
935.0410551174773
 31
0.0
  0
ARC
  5
36C
330
2
100
AcDbEntity
  8
03-01
100
AcDbCircle
 10
672.7846893393616
 20
936.9377194660373
 30
0.0
 40
1.97486744929534
100
AcDbArc
 50
180.2252346227653
 51
253.822019710873
  0
ARC
  5
36D
330
2
100
AcDbEntity
  8
03-01
100
AcDbCircle
 10
938.8335745817384
 20
936.9387912655383
 30
0.0
 40
1.976293045563412
100
AcDbArc
 50
286.2088912083875
 51
359.7438544579146
  0
LINE
  5
36E
330
2
100
AcDbEntity
  8
03-01
100
AcDbLine
 10
939.3852372633482
 20
935.0410551174773
 30
0.0
 11
938.8098438250089
 21
935.0410551174773
 31
0.0
  0
LINE
  5
36F
330
2
100
AcDbEntity
  8
03-01
100
AcDbLine
 10
670.8098425137068
 20
948.6373884646546
 30
0.0
 11
670.8098425137068
 21
953.3669751530679
 31
0.0
  0
LINE
  5
370
330
2
100
AcDbEntity
  8
03-01
100
AcDbLine
 10
670.8098425137068
 20
953.3669751530679
 30
0.0
 11
670.8098371492887
 21
993.0410608991278
 31
0.0
  0
LINE
  5
371
330
2
100
AcDbEntity
  8
03-01
100
AcDbLine
 10
925.8098425137069
 20
972.7910610779417
 30
0.0
 11
925.8098425137069
 21
967.2910610779418
 31
0.0
  0
LINE
  5
372
330
2
100
AcDbEntity
  8
03-01
100
AcDbLine
 10
924.8098425137069
 20
973.7910610779417
 30
0.0
 11
924.8098425137069
 21
966.2910610779418
 31
0.0
  0
LINE
  5
373
330
2
100
AcDbEntity
  8
03-01
100
AcDbLine
 10
869.3098425137067
 20
947.6899840524056
 30
0.0
 11
869.3098425137067
 21
970.0410610779417
 31
0.0
  0
LINE
  5
374
330
2
100
AcDbEntity
  8
03-01
100
AcDbLine
 10
869.3098425137067
 20
970.0410610779417
 30
0.0
 11
869.3098425137067
 21
992.3921381034761
 31
0.0
  0
LINE
  5
375
330
2
100
AcDbEntity
  8
03-01
100
AcDbLine
 10
913.3098425137069
 20
1000.041061077942
 30
0.0
 11
913.3098425137069
 21
940.0410610779417
 31
0.0
  0
LINE
  5
376
330
2
100
AcDbEntity
  8
03-01
100
AcDbLine
 10
915.8098425137067
 20
999.0410610779418
 30
0.0
 11
915.8098425137067
 21
941.0410610779418
 31
0.0
  0
LINE
  5
377
330
2
100
AcDbEntity
  8
03-01
100
AcDbLine
 10
685.8098425137068
 20
967.2910610779418
 30
0.0
 11
685.8098425137068
 21
972.7910610779417
 31
0.0
  0
LINE
  5
378
330
2
100
AcDbEntity
  8
03-01
100
AcDbLine
 10
686.8098425137068
 20
973.7724743537855
 30
0.0
 11
686.8098397718931
 21
966.3096443160666
 31
0.0
  0
LINE
  5
379
330
2
100
AcDbEntity
  8
03-01
100
AcDbLine
 10
739.3098425137068
 20
946.2910610779417
 30
0.0
 11
739.3098425137068
 21
993.7910610779418
 31
0.0
  0
LINE
  5
37A
330
2
100
AcDbEntity
  8
03-01
100
AcDbLine
 10
742.3098425137068
 20
992.3921381034761
 30
0.0
 11
742.3098425137068
 21
947.800766266604
 31
0.0
  0
LINE
  5
37B
330
2
100
AcDbEntity
  8
03-01
100
AcDbLine
 10
742.3098425137068
 20
947.800766266604
 30
0.0
 11
742.3098425137068
 21
947.6899840524056
 31
0.0
  0
LINE
  5
37C
330
2
100
AcDbEntity
  8
03-01
100
AcDbLine
 10
698.3098425137068
 20
940.0410610779417
 30
0.0
 11
698.3098425137068
 21
1000.041061077942
 31
0.0
  0
LINE
  5
37D
330
2
100
AcDbEntity
  8
03-01
100
AcDbLine
 10
695.8098425137068
 20
941.0410610779418
 30
0.0
 11
695.8098425137068
 21
999.0410610779418
 31
0.0
  0
LINE
  5
37E
330
2
100
AcDbEntity
  8
03-01
100
AcDbLine
 10
681.3098435269857
 20
818.2660788639678
 30
0.0
 11
681.3098435269857
 21
809.3576878651274
 31
0.0
  0
LINE
  5
37F
330
2
100
AcDbEntity
  8
03-01
100
AcDbLine
 10
930.3098415004278
 20
818.2660788639678
 30
0.0
 11
930.3098415004278
 21
809.3576878651274
 31
0.0
  0
LINE
  5
380
330
2
100
AcDbEntity
  8
03-01
100
AcDbLine
 10
683.8098425137068
 20
821.311874504121
 30
0.0
 11
683.8098425137068
 21
806.311874504121
 31
0.0
  0
LINE
  5
381
330
2
100
AcDbEntity
  8
03-01
100
AcDbLine
 10
927.8098425137068
 20
821.311874504121
 30
0.0
 11
927.8098425137068
 21
806.311874504121
 31
0.0
  0
LINE
  5
382
330
2
100
AcDbEntity
  8
03-01
100
AcDbLine
 10
736.8098425137068
 20
825.3118745041211
 30
0.0
 11
736.8098425137068
 21
813.8118745041211
 31
0.0
  0
LINE
  5
383
330
2
100
AcDbEntity
  8
03-01
100
AcDbLine
 10
736.8098425137068
 20
813.8118745041211
 30
0.0
 11
736.8098425137068
 21
802.3118745041202
 31
0.0
  0
LINE
  5
384
330
2
100
AcDbEntity
  8
03-01
100
AcDbLine
 10
779.8098425137068
 20
825.3118745041211
 30
0.0
 11
779.8098425137068
 21
813.8118745041211
 31
0.0
  0
LINE
  5
385
330
2
100
AcDbEntity
  8
03-01
100
AcDbLine
 10
779.8098425137068
 20
813.8118745041211
 30
0.0
 11
779.8098425137068
 21
802.3118745041202
 31
0.0
  0
LINE
  5
386
330
2
100
AcDbEntity
  8
03-01
100
AcDbLine
 10
706.8098425137068
 20
802.3118745041202
 30
0.0
 11
706.8098425137068
 21
813.8118745041211
 31
0.0
  0
LINE
  5
387
330
2
100
AcDbEntity
  8
03-01
100
AcDbLine
 10
706.8098425137068
 20
813.8118745041211
 30
0.0
 11
706.8098425137068
 21
825.3118745041211
 31
0.0
  0
LINE
  5
388
330
2
100
AcDbEntity
  8
03-01
100
AcDbLine
 10
749.8098425137068
 20
802.3118745041202
 30
0.0
 11
749.8098425137068
 21
813.8118745041211
 31
0.0
  0
LINE
  5
389
330
2
100
AcDbEntity
  8
03-01
100
AcDbLine
 10
749.8098425137068
 20
813.8118745041211
 30
0.0
 11
749.8098425137068
 21
825.3118745041211
 31
0.0
  0
LINE
  5
38A
330
2
100
AcDbEntity
  8
03-01
100
AcDbLine
 10
822.8098425137067
 20
825.3118745041211
 30
0.0
 11
822.8098425137067
 21
813.8118745041211
 31
0.0
  0
LINE
  5
38B
330
2
100
AcDbEntity
  8
03-01
100
AcDbLine
 10
822.8098425137067
 20
813.8118745041211
 30
0.0
 11
822.8098425137067
 21
802.3118745041202
 31
0.0
  0
LINE
  5
38C
330
2
100
AcDbEntity
  8
03-01
100
AcDbLine
 10
792.8098425137068
 20
802.3118745041202
 30
0.0
 11
792.8098425137068
 21
813.8118745041211
 31
0.0
  0
LINE
  5
38D
330
2
100
AcDbEntity
  8
03-01
100
AcDbLine
 10
792.8098425137068
 20
813.8118745041211
 30
0.0
 11
792.8098425137068
 21
825.3118745041211
 31
0.0
  0
LINE
  5
38E
330
2
100
AcDbEntity
  8
03-01
100
AcDbLine
 10
908.8098425137069
 20
825.3118745041211
 30
0.0
 11
908.8098425137069
 21
813.8118745041211
 31
0.0
  0
LINE
  5
38F
330
2
100
AcDbEntity
  8
03-01
100
AcDbLine
 10
908.8098425137069
 20
813.8118745041211
 30
0.0
 11
908.8098425137069
 21
802.3118745041202
 31
0.0
  0
LINE
  5
390
330
2
100
AcDbEntity
  8
03-01
100
AcDbLine
 10
835.8098425137068
 20
802.3118745041202
 30
0.0
 11
835.8098425137068
 21
813.8118745041211
 31
0.0
  0
LINE
  5
391
330
2
100
AcDbEntity
  8
03-01
100
AcDbLine
 10
835.8098425137068
 20
813.8118745041211
 30
0.0
 11
835.8098425137068
 21
825.3118745041211
 31
0.0
  0
LINE
  5
392
330
2
100
AcDbEntity
  8
03-01
100
AcDbLine
 10
865.8098425137067
 20
825.3118745041211
 30
0.0
 11
865.8098425137067
 21
813.8118745041211
 31
0.0
  0
LINE
  5
393
330
2
100
AcDbEntity
  8
03-01
100
AcDbLine
 10
865.8098425137067
 20
813.8118745041211
 30
0.0
 11
865.8098425137067
 21
802.3118745041202
 31
0.0
  0
LINE
  5
394
330
2
100
AcDbEntity
  8
03-01
100
AcDbLine
 10
878.8098425137068
 20
802.3118745041202
 30
0.0
 11
878.8098425137068
 21
813.8118745041211
 31
0.0
  0
LINE
  5
395
330
2
100
AcDbEntity
  8
03-01
100
AcDbLine
 10
878.8098425137068
 20
813.8118745041211
 30
0.0
 11
878.8098425137068
 21
825.3118745041211
 31
0.0
  0
LINE
  5
396
330
2
100
AcDbEntity
  8
03-01
100
AcDbLine
 10
643.8098420368305
 20
732.4561213596953
 30
0.0
 11
643.8098420351678
 21
1286.041061077942
 31
0.0
  0
LINE
  5
397
330
2
100
AcDbEntity
  8
05-01
100
AcDbLine
 10
911.8098425137068
 20
1050.041061077942
 30
0.0
 11
911.8098425137068
 21
890.0410610779417
 31
0.0
  0
LINE
  5
398
330
2
100
AcDbEntity
  8
0
100
AcDbLine
 10
855.8098424377021
 20
842.6233635499265
 30
0.0
 11
755.8098424377021
 21
842.6233635499265
 31
0.0
  0
LINE
  5
399
330
2
100
AcDbEntity
  8
03-01
100
AcDbLine
 10
979.2998420743606
 20
720.4561382874144
 30
0.0
 11
632.3098410831953
 21
720.4561382874144
 31
0.0
  0
LINE
  5
39A
330
2
100
AcDbEntity
  8
0
100
AcDbLine
 10
980.3098459707799
 20
1298.46550527655
 30
0.0
 11
631.3098390566374
 21
1298.46550527655
 31
0.0
  0
LINE
  5
39B
330
2
100
AcDbEntity
  8
0
100
AcDbLine
 10
631.3098390566374
 20
773.1233782974904
 30
0.0
 11
980.3098459707761
 21
773.1233782974904
 31
0.0
  0
LINE
  5
39C
330
2
100
AcDbEntity
  8
03-01
100
AcDbLine
 10
979.2998420743606
 20
720.4561382874144
 30
0.0
 11
979.2998452655302
 21
1297.541067038406
 31
0.0
  0
LINE
  5
39D
330
2
100
AcDbEntity
  8
03-01
100
AcDbLine
 10
632.3098410831953
 20
720.4561382874144
 30
0.0
 11
632.3098410831953
 21
1297.541067038406
 31
0.0
  0
LINE
  5
39E
330
2
100
AcDbEntity
  8
03-01
100
AcDbLine
 10
979.2998452655302
 20
1297.541067038406
 30
0.0
 11
632.3098410831953
 21
1297.541067038406
 31
0.0
  0
LINE
  5
39F
330
2
100
AcDbEntity
  8
0
100
AcDbLine
 10
643.8098420368696
 20
719.0410644158009
 30
0.0
 11
630.8098424765012
 21
719.0410608369684
 31
0.0
  0
LINE
  5
3A0
330
2
100
AcDbEntity
  8
0
100
AcDbLine
 10
643.8098420368696
 20
719.0410644158009
 30
0.0
 11
643.8098420368696
 21
719.4561213596943
 31
0.0
  0
LINE
  5
3A1
330
2
100
AcDbEntity
  8
0
100
AcDbLine
 10
635.8098424918607
 20
719.4561213596943
 30
0.0
 11
635.8098444777752
 21
773.1233782974904
 31
0.0
  0
LINE
  5
3A2
330
2
100
AcDbEntity
  8
0
100
AcDbLine
 10
630.8098424765012
 20
719.0410608369684
 30
0.0
 11
630.809845493939
 21
800.5840927704467
 31
0.0
  0
LINE
  5
3A3
330
2
100
AcDbEntity
  8
0
100
AcDbLine
 10
980.8098425197059
 20
1299.041061077942
 30
0.0
 11
980.8098390449558
 21
719.0410605268016
 31
0.0
  0
LINE
  5
3A4
330
2
100
AcDbEntity
  8
0
100
AcDbLine
 10
630.809845493939
 20
800.5840927704467
 30
0.0
 11
630.8098425077114
 21
1299.041061077943
 31
0.0
  0
LINE
  5
3A5
330
2
100
AcDbEntity
  8
03-01
100
AcDbLine
 10
667.8098425137087
 20
1113.541061077942
 30
0.0
 11
943.8098425137084
 21
1113.541061077942
 31
0.0
  0
LINE
  5
3A6
330
2
100
AcDbEntity
  8
03-01
100
AcDbLine
 10
643.8098420351678
 20
1286.041061077942
 30
0.0
 11
967.8098424418235
 21
1286.041061077942
 31
0.0
  0
LINE
  5
3A7
330
2
100
AcDbEntity
  8
0
100
AcDbLine
 10
630.8098425077114
 20
1299.041061077943
 30
0.0
 11
980.8098425197059
 21
1299.041061077942
 31
0.0
  0
LINE
  5
3A8
330
2
100
AcDbEntity
  8
0
100
AcDbLine
 10
755.8098424377021
 20
805.6233635499266
 30
0.0
 11
855.8098424377021
 21
805.6233635499266
 31
0.0
  0
LINE
  5
3A9
330
2
100
AcDbEntity
  8
0
100
AcDbLine
 10
755.8098424377021
 20
842.6233635499265
 30
0.0
 11
855.8098424377021
 21
842.6233635499265
 31
0.0
  0
LINE
  5
3AA
330
2
100
AcDbEntity
  8
0
100
AcDbLine
 10
858.8098424377021
 20
839.6233635499266
 30
0.0
 11
858.8098424377021
 21
808.6233635499265
 31
0.0
  0
LINE
  5
3AB
330
2
100
AcDbEntity
  8
0
100
AcDbLine
 10
752.8098424377021
 20
808.6233635499265
 30
0.0
 11
752.8098424377021
 21
839.6233635499266
 31
0.0
  0
LINE
  5
3AC
330
2
100
AcDbEntity
  8
0
100
AcDbLine
 10
855.8098424377021
 20
805.6233635499266
 30
0.0
 11
755.8098424377021
 21
805.6233635499266
 31
0.0
  0
ARC
  5
3AD
330
2
100
AcDbEntity
  8
0
100
AcDbCircle
 10
855.8098424377021
 20
839.6233635536654
 30
0.0
 40
2.99999999666527
100
AcDbArc
 50
70.80569415102772
 51
90.0
  0
ARC
  5
3AE
330
2
100
AcDbEntity
  8
0
100
AcDbCircle
 10
755.8098424377021
 20
839.6233635536654
 30
0.0
 40
2.999999996665233
100
AcDbArc
 50
90.0
 51
109.1943058489722
  0
ARC
  5
3AF
330
2
100
AcDbEntity
  8
0
100
AcDbCircle
 10
855.8098424377021
 20
839.6233635536654
 30
0.0
 40
3.0
100
AcDbArc
 50
359.999999928609
 51
19.19430576312719
  0
ARC
  5
3B0
330
2
100
AcDbEntity
  8
0
100
AcDbCircle
 10
755.8098424377021
 20
839.6233635536654
 30
0.0
 40
3.0
100
AcDbArc
 50
160.8056942368728
 51
180.0000000713909
  0
ARC
  5
3B1
330
2
100
AcDbEntity
  8
0
100
AcDbCircle
 10
855.8098424377021
 20
808.6233635536654
 30
0.0
 40
3.000000001160963
100
AcDbArc
 50
340.8056941095135
 51
359.999999928609
  0
ARC
  5
3B2
330
2
100
AcDbEntity
  8
0
100
AcDbCircle
 10
755.8098424377021
 20
808.6233635536654
 30
0.0
 40
3.000000001160856
100
AcDbArc
 50
180.0000000713909
 51
199.1943058904865
  0
ARC
  5
3B3
330
2
100
AcDbEntity
  8
0
100
AcDbCircle
 10
855.8098424377021
 20
808.6233635536654
 30
0.0
 40
3.000000003738819
100
AcDbArc
 50
270.0
 51
289.1943058046242
  0
ARC
  5
3B4
330
2
100
AcDbEntity
  8
0
100
AcDbCircle
 10
755.8098424377021
 20
808.6233635536654
 30
0.0
 40
3.000000003738819
100
AcDbArc
 50
250.8056941952766
 51
270.0
  0
ARC
  5
3B5
330
2
100
AcDbEntity
  8
0
100
AcDbCircle
 10
858.1854567589761
 20
841.0899979619808
 30
0.0
 40
0.6634084350583144
100
AcDbArc
 50
283.6375563244138
 51
313.6133480872397
  0
ARC
  5
3B6
330
2
100
AcDbEntity
  8
0
100
AcDbCircle
 10
855.8098130894686
 20
839.6233393466699
 30
0.0
 40
3.000034564461929
100
AcDbArc
 50
19.19458394462056
 51
70.80530048730402
  0
ARC
  5
3B7
330
2
100
AcDbEntity
  8
0
100
AcDbCircle
 10
857.2766822130725
 20
841.9988711875676
 30
0.0
 40
0.6636324764374942
100
AcDbArc
 50
136.3919822836839
 51
166.3577093147778
  0
ARC
  5
3B8
330
2
100
AcDbEntity
  8
0
100
AcDbCircle
 10
753.4342282684374
 20
841.0899979619808
 30
0.0
 40
0.6634084350583423
100
AcDbArc
 50
226.3866519127602
 51
256.3624436755862
  0
ARC
  5
3B9
330
2
100
AcDbEntity
  8
0
100
AcDbCircle
 10
754.3430570974996
 20
841.9989087903532
 30
0.0
 40
0.6635672359952009
100
AcDbArc
 50
13.6403168307123
 51
43.60889955661265
  0
ARC
  5
3BA
330
2
100
AcDbEntity
  8
0
100
AcDbCircle
 10
755.8098724488299
 20
839.6233388357869
 30
0.0
 40
3.000035214911611
100
AcDbArc
 50
109.1947055193464
 51
160.8054100486806
  0
ARC
  5
3BB
330
2
100
AcDbEntity
  8
0
100
AcDbCircle
 10
857.2769285821777
 20
806.247972461063
 30
0.0
 40
0.663898269171216
100
AcDbArc
 50
193.6466533632345
 51
223.6012711112404
  0
ARC
  5
3BC
330
2
100
AcDbEntity
  8
0
100
AcDbCircle
 10
855.8097571063408
 20
808.6234335694616
 30
0.0
 40
3.00010584149162
100
AcDbArc
 50
289.1953577183711
 51
340.8047578496234
  0
ARC
  5
3BD
330
2
100
AcDbEntity
  8
0
100
AcDbCircle
 10
858.1856109765285
 20
807.1570015274073
 30
0.0
 40
0.6630974889318873
100
AcDbArc
 50
46.37945869800268
 51
76.36963689039339
  0
ARC
  5
3BE
330
2
100
AcDbEntity
  8
0
100
AcDbCircle
 10
754.3428107609725
 20
806.2479348393116
 30
0.0
 40
0.6638329908565651
100
AcDbArc
 50
316.3978473107635
 51
346.355320199627
  0
ARC
  5
3BF
330
2
100
AcDbEntity
  8
0
100
AcDbCircle
 10
753.4340740508887
 20
807.1570015274073
 30
0.0
 40
0.663097488931916
100
AcDbArc
 50
103.6303631096066
 51
133.6205413019973
  0
ARC
  5
3C0
330
2
100
AcDbEntity
  8
0
100
AcDbCircle
 10
755.8099537465423
 20
808.6234593948784
 30
0.0
 40
3.000138722295074
100
AcDbArc
 50
199.1955457755126
 51
250.8043386564839
  0
LINE
  5
3C1
330
2
100
AcDbEntity
  8
0
100
AcDbLine
 10
858.3418751319186
 20
840.4452955296546
 30
0.0
 11
854.1433534118768
 21
836.246773815893
 31
0.0
  0
LINE
  5
3C2
330
2
100
AcDbEntity
  8
0
100
AcDbLine
 10
852.4332526952493
 20
837.9568745325213
 30
0.0
 11
856.6317744152911
 21
842.155396246283
 31
0.0
  0
LINE
  5
3C3
330
2
100
AcDbEntity
  8
0
100
AcDbLine
 10
754.9879104601131
 20
842.155396246283
 30
0.0
 11
759.186432180155
 21
837.9568745325213
 31
0.0
  0
LINE
  5
3C4
330
2
100
AcDbEntity
  8
0
100
AcDbLine
 10
757.4763314635238
 20
836.246773815893
 30
0.0
 11
753.2778097434857
 21
840.4452955296546
 31
0.0
  0
LINE
  5
3C5
330
2
100
AcDbEntity
  8
0
100
AcDbLine
 10
856.6317744152911
 20
806.0913308578474
 30
0.0
 11
852.4332526952493
 21
810.2898525841673
 31
0.0
  0
LINE
  5
3C6
330
2
100
AcDbEntity
  8
0
100
AcDbLine
 10
854.1433534118768
 20
811.9999533007957
 30
0.0
 11
858.3418751319186
 21
807.8014315744757
 31
0.0
  0
LINE
  5
3C7
330
2
100
AcDbEntity
  8
0
100
AcDbLine
 10
753.2778097434857
 20
807.8014315744757
 30
0.0
 11
757.4763314635238
 21
811.9999533007957
 31
0.0
  0
LINE
  5
3C8
330
2
100
AcDbEntity
  8
0
100
AcDbLine
 10
759.186432180155
 20
810.2898525841673
 30
0.0
 11
754.9879104601131
 21
806.0913308578474
 31
0.0
  0
ARC
  5
3C9
330
2
100
AcDbEntity
  8
0
100
AcDbCircle
 10
839.3618785777544
 20
823.175399120163
 30
0.0
 40
19.73202420278426
100
AcDbArc
 50
41.48657886495888
 51
48.5134211350757
  0
LINE
  5
3CA
330
2
100
AcDbEntity
  8
0
100
AcDbLine
 10
759.186432180155
 20
837.9568745325213
 30
0.0
 11
852.4332526952493
 21
837.9568745325213
 31
0.0
  0
ARC
  5
3CB
330
2
100
AcDbEntity
  8
0
100
AcDbCircle
 10
772.2578064496592
 20
823.175399120163
 30
0.0
 40
19.73202420278426
100
AcDbArc
 50
131.4865788649243
 51
138.5134211350411
  0
LINE
  5
3CC
330
2
100
AcDbEntity
  8
0
100
AcDbLine
 10
854.1433534118768
 20
836.246773815893
 30
0.0
 11
854.1433534118768
 21
811.9999533007957
 31
0.0
  0
LINE
  5
3CD
330
2
100
AcDbEntity
  8
0
100
AcDbLine
 10
757.4763314635238
 20
811.9999533007957
 30
0.0
 11
757.4763314635238
 21
836.246773815893
 31
0.0
  0
ARC
  5
3CE
330
2
100
AcDbEntity
  8
0
100
AcDbCircle
 10
839.3596587171305
 20
825.0736664939804
 30
0.0
 40
19.73524299776732
100
AcDbArc
 50
311.4869183152777
 51
318.5125824295135
  0
LINE
  5
3CF
330
2
100
AcDbEntity
  8
0
100
AcDbLine
 10
852.4332526952493
 20
810.2898525841673
 30
0.0
 11
759.186432180155
 21
810.2898525841673
 31
0.0
  0
ARC
  5
3D0
330
2
100
AcDbEntity
  8
0
100
AcDbCircle
 10
772.2600263102868
 20
825.0736664939804
 30
0.0
 40
19.73524299776736
100
AcDbArc
 50
221.4874175704864
 51
228.5130816847223
  0
LINE
  5
3D1
330
2
100
AcDbEntity
  8
03-01
100
AcDbLine
 10
643.8098420368305
 20
732.4561213596953
 30
0.0
 11
967.8098391253248
 21
732.4561213596953
 31
0.0
  0
LINE
  5
3D2
330
2
100
AcDbEntity
  8
0
100
AcDbLine
 10
631.3098390566374
 20
719.4561213596953
 30
0.0
 11
980.3098459707761
 21
719.4561213596953
 31
0.0
  0
LINE
  5
3D3
330
2
100
AcDbEntity
  8
0
100
AcDbLine
 10
632.4098427759672
 20
719.4561213596953
 30
0.0
 11
979.2098422514463
 21
719.4561213596953
 31
0.0
  0
LINE
  5
3D4
330
2
100
AcDbEntity
  8
0
100
AcDbLine
 10
979.3027658926511
 20
1298.46550527655
 30
0.0
 11
632.3169191347624
 21
1298.46550527655
 31
0.0
  0
LINE
  5
3D5
330
2
100
AcDbEntity
  8
0
100
AcDbLine
 10
980.3098459707761
 20
719.4561213596953
 30
0.0
 11
980.3098459707799
 21
1298.46550527655
 31
0.0
  0
LINE
  5
3D6
330
2
100
AcDbEntity
  8
03-01
100
AcDbLine
 10
979.2998425029873
 20
797.9681850901379
 30
0.0
 11
979.2998452650572
 21
1297.455504570831
 31
0.0
  0
ARC
  5
3D7
330
2
100
AcDbEntity
  8
0
100
AcDbCircle
 10
805.8098425029857
 20
995.4681850899943
 30
0.0
 40
2.5
100
AcDbArc
 50
0.0
 51
180.0
  0
LINE
  5
3D8
330
2
100
AcDbEntity
  8
0
100
AcDbLine
 10
808.3098425029856
 20
995.4681850899943
 30
0.0
 11
808.3098425029856
 21
944.4681850899941
 31
0.0
  0
ARC
  5
3D9
330
2
100
AcDbEntity
  8
0
100
AcDbCircle
 10
805.8098425029857
 20
944.4681850899941
 30
0.0
 40
2.5
100
AcDbArc
 50
180.0
 51
0.0
  0
LINE
  5
3DA
330
2
100
AcDbEntity
  8
0
100
AcDbLine
 10
803.3098425029857
 20
995.4681850899943
 30
0.0
 11
803.3098425029857
 21
944.4681850899941
 31
0.0
  0
LINE
  5
3DB
330
2
100
AcDbEntity
  8
0
100
AcDbLine
 10
631.3098390566374
 20
1298.46550527655
 30
0.0
 11
631.3098390566374
 21
719.4561213596953
 31
0.0
  0
ARC
  5
3DC
330
2
100
AcDbEntity
  8
03-01
100
AcDbCircle
 10
556.6554328704151
 20
1290.541048587751
 30
0.0
 40
5.0
100
AcDbArc
 50
90.0
 51
180.0
  0
LINE
  5
3DD
330
2
100
AcDbEntity
  8
03-01
100
AcDbLine
 10
551.6554328704151
 20
1159.791051222801
 30
0.0
 11
551.6554328704151
 21
1290.541048587751
 31
0.0
  0
LINE
  5
3DE
330
2
100
AcDbEntity
  8
03-01
100
AcDbLine
 10
580.6554328704151
 20
1295.541048587751
 30
0.0
 11
556.6554328704151
 21
1295.541048587751
 31
0.0
  0
DIMENSION
  5
3DF
330
2
100
AcDbEntity
  8
09-01
100
AcDbDimension
280
     0
  2
*D1
 10
582.65543296541
 20
671.3944868919716
 30
0.0
 11
492.6554329654099
 21
682.6444868919716
 31
0.0
 71
     5
 42
180.0
 73
     0
 74
     0
 75
     0
  3
Wagner$0
100
AcDbAlignedDimension
 13
402.65543296541
 23
719.0410577754865
 33
0.0
 14
582.65543296541
 24
719.0410617508387
 34
0.0
100
AcDbRotatedDimension
1001
ACAD
1000
DSTYLE
1002
{
1070
    40
1040
5.0
1070
   271
1070
     1
1070
   272
1070
     1
1002
}
  0
LINE
  5
3EC
330
2
100
AcDbEntity
  8
03-01
100
AcDbLine
 10
385.8845351671698
 20
989.21458747207
 30
0.0
 11
386.8955969071649
 21
989.8831817594619
 31
0.0
  0
LINE
  5
3ED
330
2
100
AcDbEntity
  8
03-01
100
AcDbLine
 10
383.8845351674499
 20
989.2831817718343
 30
0.0
 11
385.2180566685092
 21
989.9501552556303
 31
0.0
  0
LINE
  5
3EE
330
2
100
AcDbEntity
  8
03-01
100
AcDbLine
 10
551.6554328704151
 20
1207.541059940458
 30
0.0
 11
551.6554328704151
 21
1187.541059940457
 31
0.0
  0
LINE
  5
3EF
330
2
100
AcDbEntity
  8
03-01
100
AcDbLine
 10
553.1547424504061
 20
1197.541059940458
 30
0.0
 11
548.2922888396024
 21
1197.541059940458
 31
0.0
  0
LINE
  5
3F0
330
2
100
AcDbEntity
  8
0
100
AcDbLine
 10
370.4916419443507
 20
988.2402886080509
 30
0.0
 11
370.4916418773173
 21
971.9260750456779
 31
0.0
  0
LINE
  5
3F1
330
2
100
AcDbEntity
  8
0
100
AcDbLine
 10
371.1987486573016
 20
971.6331818239586
 30
0.0
 11
371.1987487267434
 21
988.5331818239592
 31
0.0
  0
LINE
  5
3F2
330
2
100
AcDbEntity
  8
0
100
AcDbLine
 10
373.4845291877064
 20
997.9681793147337
 30
0.0
 11
372.4845271611485
 21
997.9681793147337
 31
0.0
  0
LINE
  5
3F3
330
2
100
AcDbEntity
  8
0
100
AcDbLine
 10
372.4845271611485
 20
941.9681850367796
 30
0.0
 11
373.4845291877064
 21
941.9681850367796
 31
0.0
  0
LINE
  5
3F4
330
2
100
AcDbEntity
  8
0
100
AcDbLine
 10
373.4845291877064
 20
988.1331831184143
 30
0.0
 11
372.4845420623096
 21
988.1331831184143
 31
0.0
  0
LINE
  5
3F5
330
2
100
AcDbEntity
  8
0
100
AcDbLine
 10
372.4845420623096
 20
972.033178803038
 30
0.0
 11
373.4845291877064
 21
972.033178803038
 31
0.0
  0
LINE
  5
3F6
330
2
100
AcDbEntity
  8
03-01
100
AcDbLine
 10
372.4845420623096
 20
972.0831871000045
 30
0.0
 11
383.4845350967844
 21
972.0831871000045
 31
0.0
  0
LINE
  5
3F7
330
2
100
AcDbEntity
  8
03-01
100
AcDbLine
 10
383.484535162519
 20
988.0831748214477
 30
0.0
 11
372.4845420623096
 21
988.0831748214477
 31
0.0
  0
LINE
  5
3F8
330
2
100
AcDbEntity
  8
03-01
100
AcDbLine
 10
386.5845423245701
 20
976.5831887689346
 30
0.0
 11
388.5845351152675
 21
976.5831817525214
 31
0.0
  0
LINE
  5
3F9
330
2
100
AcDbEntity
  8
03-01
100
AcDbLine
 10
388.5845351440293
 20
983.5831817525214
 30
0.0
 11
386.5845423245701
 21
983.5831880536789
 31
0.0
  0
LINE
  5
3FA
330
2
100
AcDbEntity
  8
03-01
100
AcDbLine
 10
385.8845304751667
 20
975.4171878066772
 30
0.0
 11
386.5845351104763
 21
975.4171884523858
 31
0.0
  0
LINE
  5
3FB
330
2
100
AcDbEntity
  8
03-01
100
AcDbLine
 10
386.584535154936
 20
986.2331817607392
 30
0.0
 11
385.8845304751667
 21
986.2331807580703
 31
0.0
  0
ARC
  5
3FC
330
2
100
AcDbEntity
  8
03-01
100
AcDbCircle
 10
384.3845351049931
 20
974.0831817697799
 30
0.0
 40
0.5
100
AcDbArc
 50
179.999999764566
 51
269.9999997645661
  0
LINE
  5
3FD
330
2
100
AcDbEntity
  8
03-01
100
AcDbLine
 10
384.3845351029413
 20
973.5831817697798
 30
0.0
 11
385.3845351029413
 21
973.5831817656707
 31
0.0
  0
ARC
  5
3FE
330
2
100
AcDbEntity
  8
03-01
100
AcDbCircle
 10
385.3845351049931
 20
974.0831817656708
 30
0.0
 40
0.5
100
AcDbArc
 50
269.9999997645661
 51
359.9999997645661
  0
LINE
  5
3FF
330
2
100
AcDbEntity
  8
03-01
100
AcDbLine
 10
551.6554337048801
 20
1198.841056614518
 30
0.0
 11
550.6554335409673
 21
1198.841056614518
 31
0.0
  0
LINE
  5
400
330
2
100
AcDbEntity
  8
03-01
100
AcDbLine
 10
550.6554335409673
 20
1196.241057305932
 30
0.0
 11
551.6554337048801
 21
1196.241057305932
 31
0.0
  0
LINE
  5
401
330
2
100
AcDbEntity
  8
03-01
100
AcDbLine
 10
503.5785134935649
 20
905.0410512381803
 30
0.0
 11
532.6554324531826
 21
929.693234294058
 31
0.0
  0
ARC
  5
402
330
2
100
AcDbEntity
  8
03-01
100
AcDbCircle
 10
395.4795430938393
 20
965.0410583907378
 30
0.0
 40
166.5040903599999
100
AcDbArc
 50
341.801826181437
 51
346.2985833579581
  0
LINE
  5
403
330
2
100
AcDbEntity
  8
03-01
100
AcDbLine
 10
553.655432870415
 20
913.0410583907378
 30
0.0
 11
553.6565460820711
 21
902.1465613637955
 31
0.0
  0
LINE
  5
404
330
2
100
AcDbEntity
  8
03-01
100
AcDbLine
 10
578.6554327754202
 20
1091.041058442892
 30
0.0
 11
578.6554327754202
 21
1083.541058377699
 31
0.0
  0
LINE
  5
405
330
2
100
AcDbEntity
  8
03-01
100
AcDbLine
 10
578.6554327754202
 20
1091.041058442892
 30
0.0
 11
575.6554329821738
 21
1091.041058442892
 31
0.0
  0
LINE
  5
406
330
2
100
AcDbEntity
  8
03-01
100
AcDbLine
 10
575.6554329821738
 20
1091.041058442892
 30
0.0
 11
575.6554329821738
 21
1085.041058390737
 31
0.0
  0
ARC
  5
407
330
2
100
AcDbEntity
  8
03-01
100
AcDbCircle
 10
395.4795430938393
 20
965.0410583907378
 30
0.0
 40
166.50409036
100
AcDbArc
 50
350.2284402139573
 51
9.860477800489981
  0
ARC
  5
408
330
2
100
AcDbEntity
  8
03-01
100
AcDbCircle
 10
396.0308611653236
 20
965.1434771736294
 30
0.0
 40
165.9433768587975
100
AcDbArc
 50
9.858235518679752
 51
11.59919192963402
  0
ARC
  5
409
330
2
100
AcDbEntity
  8
03-01
100
AcDbCircle
 10
395.4795430938393
 20
965.0410583907378
 30
0.0
 40
166.5040903599999
100
AcDbArc
 50
346.2985833579581
 51
347.7347737413428
  0
ARC
  5
40A
330
2
100
AcDbEntity
  8
03-01
100
AcDbCircle
 10
558.6554328704151
 20
902.0410583907377
 30
0.0
 40
5.000000000000072
100
AcDbArc
 50
178.7909352525652
 51
247.7683990231495
  0
ARC
  5
40B
330
2
100
AcDbEntity
  8
03-01
100
AcDbCircle
 10
395.7469605550505
 20
964.9769434897352
 30
0.0
 40
166.2290962872072
100
AcDbArc
 50
346.2982208828599
 51
346.6756408915056
  0
LINE
  5
40C
330
2
100
AcDbEntity
  8
03-01
100
AcDbLine
 10
465.655432870415
 20
970.0410583907379
 30
0.0
 11
465.6554307842525
 21
992.0410561853659
 31
0.0
  0
LINE
  5
40D
330
2
100
AcDbEntity
  8
03-01
100
AcDbLine
 10
475.6554361486705
 20
992.0410561853659
 30
0.0
 11
475.6554328704151
 21
970.0410583907379
 31
0.0
  0
ARC
  5
40E
330
2
100
AcDbEntity
  8
03-01
100
AcDbCircle
 10
470.655432870415
 20
970.0410583907379
 30
0.0
 40
5.000000000000035
100
AcDbArc
 50
180.0
 51
0.0
  0
ARC
  5
40F
330
2
100
AcDbEntity
  8
03-01
100
AcDbCircle
 10
478.655432870415
 20
992.0410583907377
 30
0.0
 40
3.0
100
AcDbArc
 50
90.0
 51
180.0
  0
ARC
  5
410
330
2
100
AcDbEntity
  8
03-01
100
AcDbCircle
 10
462.6554328704151
 20
992.0410583907377
 30
0.0
 40
3.000000000000014
100
AcDbArc
 50
0.0
 51
90.0
  0
LINE
  5
411
330
2
100
AcDbEntity
  8
03-01
100
AcDbLine
 10
438.6554282212528
 20
989.2210114294302
 30
0.0
 11
438.6554347372729
 21
995.0410583907379
 31
0.0
  0
LINE
  5
412
330
2
100
AcDbEntity
  8
03-01
100
AcDbLine
 10
454.7276973723419
 20
952.5638769252436
 30
0.0
 11
438.6554282212528
 21
989.2210114294302
 31
0.0
  0
ARC
  5
413
330
2
100
AcDbEntity
  8
03-01
100
AcDbCircle
 10
463.8860781689618
 20
956.5793546283439
 30
0.0
 40
10.00000000000002
100
AcDbArc
 50
203.6749727910676
 51
263.0946435910324
  0
LWPOLYLINE
  5
414
330
2
100
AcDbEntity
  8
03-01
100
AcDbPolyline
 90
        3
 70
   128
 43
0.0
 10
558.5570797378095
 20
998.646547227503
 10
558.6141958886655
 20
998.3681786352407
 10
558.6441006565364
 20
998.2214618021261
  0
ARC
  5
415
330
2
100
AcDbEntity
  8
03-01
100
AcDbCircle
 10
555.6188186150284
 20
998.0410583907378
 30
0.0
 40
3.000000000000007
100
AcDbArc
 50
270.0
 51
11.6439819552535
  0
LINE
  5
416
330
2
100
AcDbEntity
  8
03-01
100
AcDbLine
 10
438.6554347372729
 20
995.0410583907379
 30
0.0
 11
555.6188186150284
 21
995.0410583907379
 31
0.0
  0
ARC
  5
417
330
2
100
AcDbEntity
  8
03-01
100
AcDbCircle
 10
395.4795430938393
 20
965.0410583907378
 30
0.0
 40
166.5040903599999
100
AcDbArc
 50
347.7347737413428
 51
350.2801242099568
  0
ARC
  5
418
330
2
100
AcDbEntity
  8
03-01
100
AcDbCircle
 10
395.4795430938393
 20
965.0410583907378
 30
0.0
 40
166.50409036
100
AcDbArc
 50
11.49467281203562
 51
18.19817381856301
  0
LINE
  5
419
330
2
100
AcDbEntity
  8
03-01
100
AcDbLine
 10
558.6554328704151
 20
1033.041058390738
 30
0.0
 11
573.6554326543482
 21
1033.041057317854
 31
0.0
  0
ARC
  5
41A
330
2
100
AcDbEntity
  8
03-01
100
AcDbCircle
 10
558.6554328704151
 20
1028.041058390738
 30
0.0
 40
5.0
100
AcDbArc
 50
90.0
 51
180.0
  0
LINE
  5
41B
330
2
100
AcDbEntity
  8
03-01
100
AcDbLine
 10
553.655432870415
 20
1017.041058390738
 30
0.0
 11
553.655432870415
 21
1028.041058390738
 31
0.0
  0
ARC
  5
41C
330
2
100
AcDbEntity
  8
03-01
100
AcDbCircle
 10
558.6554328704151
 20
902.0410583907377
 30
0.0
 40
5.000000000000113
100
AcDbArc
 50
247.7683990231495
 51
270.0
  0
LINE
  5
41D
330
2
100
AcDbEntity
  8
03-01
100
AcDbLine
 10
559.2434138998032
 20
934.9577287003713
 30
0.0
 11
462.6837816870793
 21
946.6518935647272
 31
0.0
  0
ARC
  5
41E
330
2
100
AcDbEntity
  8
03-01
100
AcDbCircle
 10
530.6554328704151
 20
913.5410583907377
 30
0.0
 40
4.00000000000002
100
AcDbArc
 50
180.0
 51
300.0000000000103
  0
ARC
  5
41F
330
2
100
AcDbEntity
  8
03-01
100
AcDbCircle
 10
530.6554328704151
 20
913.5410583907377
 30
0.0
 40
4.000000000000041
100
AcDbArc
 50
59.99999999998967
 51
180.0
  0
LINE
  5
420
330
2
100
AcDbEntity
  8
03-01
100
AcDbLine
 10
529.1937024346589
 20
921.406383821588
 30
0.0
 11
532.6554324531826
 21
922.0497283631575
 31
0.0
  0
ARC
  5
421
330
2
100
AcDbEntity
  8
03-01
100
AcDbCircle
 10
530.6554328704151
 20
913.5410583907377
 30
0.0
 40
4.000000000000032
100
AcDbArc
 50
59.99999999998967
 51
300.0000000000103
  0
LINE
  5
422
330
2
100
AcDbEntity
  8
03-01
100
AcDbLine
 10
532.6087806427749
 20
905.0410512381803
 30
0.0
 11
529.1937024346589
 21
905.6757329598868
 31
0.0
  0
ARC
  5
423
330
2
100
AcDbEntity
  8
03-01
100
AcDbCircle
 10
530.6554328704151
 20
913.5410583907377
 30
0.0
 40
7.999999999999971
100
AcDbArc
 50
100.5280170029714
 51
259.4719829969267
  0
LINE
  5
424
330
2
100
AcDbEntity
  8
03-01
100
AcDbLine
 10
532.6554324531826
 20
922.0497283631575
 30
0.0
 11
557.5013327295346
 21
926.6672158693236
 31
0.0
  0
LINE
  5
425
330
2
100
AcDbEntity
  8
03-01
100
AcDbLine
 10
553.7422201680238
 20
901.1135127362987
 30
0.0
 11
532.6087806427749
 21
905.0410512381803
 31
0.0
  0
ARC
  5
426
330
2
100
AcDbEntity
  8
03-01
100
AcDbCircle
 10
579.6554328704151
 20
1082.541058390738
 30
0.0
 40
1.0
100
AcDbArc
 50
0.0
 51
90.0
  0
LINE
  5
427
330
2
100
AcDbEntity
  8
03-01
100
AcDbLine
 10
576.6554326804253
 20
1083.541058377699
 30
0.0
 11
579.6554328704151
 21
1083.541058390738
 31
0.0
  0
LINE
  5
428
330
2
100
AcDbEntity
  8
03-01
100
AcDbLine
 10
576.6554326804253
 20
733.5410538607848
 30
0.0
 11
580.6554328704151
 21
733.5410599007218
 31
0.0
  0
LINE
  5
429
330
2
100
AcDbEntity
  8
03-01
100
AcDbLine
 10
576.6554328704151
 20
1085.041058390737
 30
0.0
 11
576.6554328704151
 21
1080.041058390738
 31
0.0
  0
LINE
  5
42A
330
2
100
AcDbEntity
  8
03-01
100
AcDbLine
 10
556.6554328704151
 20
1080.041058390738
 30
0.0
 11
556.6554328704151
 21
1085.041058390737
 31
0.0
  0
LINE
  5
42B
330
2
100
AcDbEntity
  8
03-01
100
AcDbLine
 10
556.6554328704151
 20
1085.041058390737
 30
0.0
 11
576.6554328704151
 21
1085.041058390737
 31
0.0
  0
LINE
  5
42C
330
2
100
AcDbEntity
  8
03-01
100
AcDbLine
 10
576.6554326804253
 20
1048.0410579139
 30
0.0
 11
576.6554326804253
 21
897.0410648280394
 31
0.0
  0
LINE
  5
42D
330
2
100
AcDbEntity
  8
03-01
100
AcDbLine
 10
576.6554326804253
 20
870.041054814459
 30
0.0
 11
576.6554326804253
 21
732.0410731726897
 31
0.0
  0
LINE
  5
42E
330
2
100
AcDbEntity
  8
03-01
100
AcDbLine
 10
556.6554326617988
 20
1048.0410579139
 30
0.0
 11
556.6554328704151
 21
973.2014335355835
 31
0.0
  0
ARC
  5
42F
330
2
100
AcDbEntity
  8
03-01
100
AcDbCircle
 10
506.6554328704151
 20
973.2014335355835
 30
0.0
 40
50.00000000000005
100
AcDbArc
 50
310.2921477556302
 51
0.0
  0
LINE
  5
430
330
2
100
AcDbEntity
  8
03-01
100
AcDbLine
 10
538.9896954521718
 20
935.0635853622279
 30
0.0
 11
532.6554324531826
 21
929.693234294058
 31
0.0
  0
LINE
  5
431
330
2
100
AcDbEntity
  8
03-01
100
AcDbLine
 10
532.655432870415
 20
917.005160005875
 30
0.0
 11
532.6554324531826
 21
929.693234294058
 31
0.0
  0
ARC
  5
432
330
2
100
AcDbEntity
  8
03-01
100
AcDbCircle
 10
530.6554328704151
 20
913.5410583907377
 30
0.0
 40
4.000000000000029
100
AcDbArc
 50
300.0000000000103
 51
59.99999999998967
  0
LINE
  5
433
330
2
100
AcDbEntity
  8
03-01
100
AcDbLine
 10
532.6554324531826
 20
905.0410512381803
 30
0.0
 11
532.655432870415
 21
910.0769567755996
 31
0.0
  0
LINE
  5
434
330
2
100
AcDbEntity
  8
03-01
100
AcDbLine
 10
503.5785134935649
 20
905.0410512381803
 30
0.0
 11
532.6554324531826
 21
905.0410512381803
 31
0.0
  0
LINE
  5
435
330
2
100
AcDbEntity
  8
03-01
100
AcDbLine
 10
503.5785134935649
 20
905.0410512381803
 30
0.0
 11
482.3211702886583
 21
887.0185314192477
 31
0.0
  0
ARC
  5
436
330
2
100
AcDbEntity
  8
03-01
100
AcDbCircle
 10
514.6554328704151
 20
848.8806832458912
 30
0.0
 40
50.0
100
AcDbArc
 50
130.2921477556301
 51
180.0
  0
LINE
  5
437
330
2
100
AcDbEntity
  8
03-01
100
AcDbLine
 10
464.6554328704151
 20
762.0410583907378
 30
0.0
 11
464.6554328704151
 21
848.8806832458912
 31
0.0
  0
ARC
  5
438
330
2
100
AcDbEntity
  8
03-01
100
AcDbCircle
 10
494.655432870415
 20
762.0410583907378
 30
0.0
 40
30.0
100
AcDbArc
 50
180.0
 51
270.0
  0
LINE
  5
439
330
2
100
AcDbEntity
  8
03-01
100
AcDbLine
 10
494.655432870415
 20
732.0410583907378
 30
0.0
 11
576.6554326804253
 21
732.0410731726897
 31
0.0
  0
LINE
  5
43A
330
2
100
AcDbEntity
  8
03-01
100
AcDbLine
 10
556.6554326617988
 20
1048.0410579139
 30
0.0
 11
556.6554326617988
 21
1049.541057228447
 31
0.0
  0
LINE
  5
43B
330
2
100
AcDbEntity
  8
03-01
100
AcDbLine
 10
556.6554326617988
 20
1048.0410579139
 30
0.0
 11
576.6554326804253
 21
1048.0410579139
 31
0.0
  0
LINE
  5
43C
330
2
100
AcDbEntity
  8
03-01
100
AcDbLine
 10
556.6554326617988
 20
870.041054814459
 30
0.0
 11
556.6554326617988
 21
871.5410653048765
 31
0.0
  0
LINE
  5
43D
330
2
100
AcDbEntity
  8
03-01
100
AcDbLine
 10
556.6554326617988
 20
870.041054814459
 30
0.0
 11
576.6554326804253
 21
870.041054814459
 31
0.0
  0
LINE
  5
43E
330
2
100
AcDbEntity
  8
03-01
100
AcDbLine
 10
576.6554326804253
 20
895.5410543376219
 30
0.0
 11
576.6554326804253
 21
871.5410653048765
 31
0.0
  0
LINE
  5
43F
330
2
100
AcDbEntity
  8
03-01
100
AcDbLine
 10
556.6554326617988
 20
871.5410653048765
 30
0.0
 11
556.6554326617988
 21
895.5410543376219
 31
0.0
  0
LINE
  5
440
330
2
100
AcDbEntity
  8
03-01
100
AcDbLine
 10
576.6554326804253
 20
1076.541057928801
 30
0.0
 11
576.6554326804253
 21
1049.541057228447
 31
0.0
  0
LINE
  5
441
330
2
100
AcDbEntity
  8
03-01
100
AcDbLine
 10
556.6554326617988
 20
1049.541057228447
 30
0.0
 11
556.6554326617988
 21
1076.541057928801
 31
0.0
  0
LINE
  5
442
330
2
100
AcDbEntity
  8
03-01
100
AcDbLine
 10
556.6554326617988
 20
1049.541057228447
 30
0.0
 11
576.6554326804253
 21
1049.541057228447
 31
0.0
  0
LINE
  5
443
330
2
100
AcDbEntity
  8
03-01
100
AcDbLine
 10
556.6554326617988
 20
895.5410543376219
 30
0.0
 11
556.6554326617988
 21
897.0410648280394
 31
0.0
  0
LINE
  5
444
330
2
100
AcDbEntity
  8
03-01
100
AcDbLine
 10
576.6554326804253
 20
897.0410648280394
 30
0.0
 11
576.6554326804253
 21
895.5410543376219
 31
0.0
  0
LINE
  5
445
330
2
100
AcDbEntity
  8
03-01
100
AcDbLine
 10
556.6554326617988
 20
897.0410648280394
 30
0.0
 11
576.6554326804253
 21
897.0410648280394
 31
0.0
  0
LINE
  5
446
330
2
100
AcDbEntity
  8
03-01
100
AcDbLine
 10
552.4936634002187
 20
730.8285506399534
 30
0.0
 11
552.4724988457564
 21
732.0410688132869
 31
0.0
  0
LINE
  5
447
330
2
100
AcDbEntity
  8
03-01
100
AcDbLine
 10
480.3986223271167
 20
735.6451618700175
 30
0.0
 11
480.5046316394764
 21
729.5719799661128
 31
0.0
  0
LINE
  5
448
330
2
100
AcDbEntity
  8
03-01
100
AcDbLine
 10
471.034630765942
 20
739.6334234172118
 30
0.0
 11
474.1250719929012
 21
739.8766401702178
 31
0.0
  0
LINE
  5
449
330
2
100
AcDbEntity
  8
03-01
100
AcDbLine
 10
474.1250719929012
 20
739.8766401702178
 30
0.0
 11
474.1062743929578
 21
740.1839751940151
 31
0.0
  0
LINE
  5
44A
330
2
100
AcDbEntity
  8
03-01
100
AcDbLine
 10
470.6416573429378
 20
743.7145534449828
 30
0.0
 11
471.034630765942
 21
739.6334234172118
 31
0.0
  0
LINE
  5
44B
330
2
100
AcDbEntity
  8
03-01
100
AcDbLine
 10
449.1468589806827
 20
745.5271604949248
 30
0.0
 11
416.5979337677454
 21
744.9590160266279
 31
0.0
  0
LINE
  5
44C
330
2
100
AcDbEntity
  8
03-01
100
AcDbLine
 10
449.2079388404163
 20
742.0276823931945
 30
0.0
 11
449.1468589806827
 21
745.5271604949248
 31
0.0
  0
LINE
  5
44D
330
2
100
AcDbEntity
  8
03-01
100
AcDbLine
 10
470.8888198910135
 20
743.7340076318823
 30
0.0
 11
449.2079388404163
 21
742.0276823931945
 31
0.0
  0
LINE
  5
44E
330
2
100
AcDbEntity
  8
03-01
100
AcDbLine
 10
480.5046316394764
 20
729.5719799661128
 30
0.0
 11
552.4936634002187
 21
730.8285506399534
 31
0.0
  0
CIRCLE
  5
44F
330
2
100
AcDbEntity
  8
05-01
100
AcDbCircle
 10
470.655432870415
 20
970.0410583907379
 30
0.0
 40
30.0
  0
CIRCLE
  5
450
330
2
100
AcDbEntity
  8
03-01
100
AcDbCircle
 10
470.655432870415
 20
970.0410583907379
 30
0.0
 40
3.75
  0
CIRCLE
  5
451
330
2
100
AcDbEntity
  8
03-01
100
AcDbCircle
 10
470.655432870415
 20
970.0410583907379
 30
0.0
 40
2.75
  0
CIRCLE
  5
452
330
2
100
AcDbEntity
  8
03-01
100
AcDbCircle
 10
470.655432870415
 20
970.0410583907379
 30
0.0
 40
2.750000000000016
  0
ARC
  5
453
330
2
100
AcDbEntity
  8
03-01
100
AcDbCircle
 10
381.7006047583891
 20
842.8648727239941
 30
0.0
 40
3.000000000000011
100
AcDbArc
 50
90.99999999997569
 51
181.000000000027
  0
LINE
  5
454
330
2
100
AcDbEntity
  8
03-01
100
AcDbLine
 10
379.4558566117558
 20
799.5706919127715
 30
0.0
 11
378.7010616729203
 21
842.8125155046828
 31
0.0
  0
LINE
  5
455
330
2
100
AcDbEntity
  8
03-01
100
AcDbLine
 10
379.4602413529428
 20
799.3191407653794
 30
0.0
 11
379.4560354256901
 21
799.5603803092254
 31
0.0
  0
ARC
  5
456
330
2
100
AcDbEntity
  8
03-01
100
AcDbCircle
 10
384.959403676301
 20
799.4151290007849
 30
0.0
 40
5.500000000000066
100
AcDbArc
 50
181.000000000027
 51
280.5272833814109
  0
LINE
  5
457
330
2
100
AcDbEntity
  8
0
100
AcDbLine
 10
386.1427228951725
 20
794.0408709937346
 30
0.0
 11
385.9642741137068
 21
794.0077049001593
 31
0.0
  0
LINE
  5
458
330
2
100
AcDbEntity
  8
03-01
100
AcDbLine
 10
391.3716982143305
 20
795.0125753375632
 30
0.0
 11
386.2639140391621
 21
794.0634015494597
 31
0.0
  0
ARC
  5
459
330
2
100
AcDbEntity
  8
03-01
100
AcDbCircle
 10
391.5544019302251
 20
794.0294073192672
 30
0.0
 40
1.000000000000122
100
AcDbArc
 50
17.04847380895107
 51
100.5272833814108
  0
ARC
  5
45A
330
2
100
AcDbEntity
  8
03-01
100
AcDbCircle
 10
408.0807729677762
 20
764.013260659025
 30
0.0
 40
6.000000000000027
100
AcDbArc
 50
197.0484738089511
 51
258.3802759160274
  0
ARC
  5
45B
330
2
100
AcDbEntity
  8
03-01
100
AcDbCircle
 10
408.0807729677762
 20
764.013260659025
 30
0.0
 40
5.999999999999965
100
AcDbArc
 50
259.8482577622861
 51
270.9999999999757
  0
LINE
  5
45C
330
2
100
AcDbEntity
  8
03-01
100
AcDbLine
 10
399.7563790583881
 20
770.6937614375365
 30
0.0
 11
392.5104589894509
 21
794.3225879794454
 31
0.0
  0
LINE
  5
45D
330
2
100
AcDbEntity
  8
03-01
100
AcDbLine
 10
402.3444306124146
 20
762.2541766979557
 30
0.0
 11
399.9084007048878
 21
770.1979998046172
 31
0.0
  0
LINE
  5
45E
330
2
100
AcDbEntity
  8
03-01
100
AcDbLine
 10
464.8097046949733
 20
759.0025538773679
 30
0.0
 11
408.1854874063974
 21
758.0141744880866
 31
0.0
  0
LINE
  5
45F
330
2
100
AcDbEntity
  8
03-01
100
AcDbLine
 10
382.6554339432987
 20
845.8819958859693
 30
0.0
 11
464.6554328704151
 21
847.3133114283037
 31
0.0
  0
LINE
  5
460
330
2
100
AcDbEntity
  8
03-01
100
AcDbLine
 10
381.6482475390767
 20
845.8644158094639
 30
0.0
 11
382.4845325255665
 21
845.8790156537306
 31
0.0
  0
ARC
  5
461
330
2
100
AcDbEntity
  8
03-01
100
AcDbCircle
 10
388.1352999316878
 20
791.5355750260996
 30
0.0
 40
0.5
100
AcDbArc
 50
107.0484738090157
 51
165.5213391061188
  0
ARC
  5
462
330
2
100
AcDbEntity
  8
03-01
100
AcDbCircle
 10
388.1352999316878
 20
791.5355750260996
 30
0.0
 40
0.500000000000008
100
AcDbArc
 50
191.0751190333551
 51
197.0484738089511
  0
LWPOLYLINE
  5
463
330
2
100
AcDbEntity
  8
03-01
100
AcDbPolyline
 90
        9
 70
   128
 43
0.0
 10
387.8038596415791
 20
790.9109416896117
 10
387.7752643132481
 20
791.0042229586852
 10
387.7477567696842
 20
791.0938981467498
 10
387.7224247956547
 20
791.1765399867308
 10
387.7002071643147
 20
791.2489596301329
 10
387.6819830441746
 20
791.3084152632964
 10
387.6684229874882
 20
791.352582305075
 10
387.6600932383808
 20
791.3797918254149
 10
387.6572769189152
 20
791.3889709407103
  0
LINE
  5
464
330
2
100
AcDbEntity
  8
03-01
100
AcDbLine
 10
387.9887096015991
 20
792.0136035557134
 30
0.0
 11
392.7690010571751
 21
793.47951444924
 31
0.0
  0
LINE
  5
465
330
2
100
AcDbEntity
  8
03-01
100
AcDbLine
 10
396.784129406944
 20
763.3318917789075
 30
0.0
 11
401.5644114518436
 21
764.7977891856444
 31
0.0
  0
LINE
  5
466
330
2
100
AcDbEntity
  8
03-01
100
AcDbLine
 10
396.012920217152
 20
764.1413585080454
 30
0.0
 11
387.8038617321654
 21
790.9109561663972
 31
0.0
  0
ARC
  5
467
330
2
100
AcDbEntity
  8
03-01
100
AcDbCircle
 10
396.6375390768553
 20
763.8099203085203
 30
0.0
 40
0.5000000000000351
100
AcDbArc
 50
197.0484738089511
 51
287.0484738089161
  0
LWPOLYLINE
  5
468
330
2
100
AcDbEntity
  8
03-01
100
AcDbPolyline
 90
        9
 70
   128
 43
0.0
 10
396.1595069670948
 20
763.6633339816344
 10
396.1566906476292
 20
763.6725130969298
 10
396.1483459973606
 20
763.6997226172698
 10
396.1348008418354
 20
763.7438896590484
 10
396.1165767216953
 20
763.8033452922118
 10
396.0943590903553
 20
763.8757947379363
 10
396.0690122151646
 20
763.9584365779174
 10
396.0415195727619
 20
764.0481117659819
 10
396.0129242444309
 20
764.141363232733
  0
ARC
  5
469
330
2
100
AcDbEntity
  8
03-01
100
AcDbCircle
 10
387.8946923282274
 20
789.2793993774485
 30
0.0
 40
0.4999999999999886
100
AcDbArc
 50
55.5120880368619
 51
107.3804700514944
  0
ARC
  5
46A
330
2
100
AcDbEntity
  8
03-01
100
AcDbCircle
 10
386.2906877627975
 20
788.7773351906262
 30
0.0
 40
0.5
100
AcDbArc
 50
107.3804700514944
 51
172.8693965927671
  0
LINE
  5
46B
330
2
100
AcDbEntity
  8
03-01
100
AcDbLine
 10
386.1413300074419
 20
789.254506292973
 30
0.0
 11
387.7453345728682
 21
789.7565704797943
 31
0.0
  0
ARC
  5
46C
330
2
100
AcDbEntity
  8
03-01
100
AcDbCircle
 10
410.6011993005522
 20
785.7361135984447
 30
0.0
 40
25.00000000000001
100
AcDbArc
 50
172.8693965927671
 51
232.8414354908338
  0
ARC
  5
46D
330
2
100
AcDbEntity
  8
03-01
100
AcDbCircle
 10
432.1402926295668
 20
766.7335714913642
 30
0.0
 40
27.50000000000008
100
AcDbArc
 50
270.9999999999757
 51
308.2193512752358
  0
LINE
  5
46E
330
2
100
AcDbEntity
  8
03-01
100
AcDbLine
 10
417.7604537511142
 20
738.9783683711303
 30
0.0
 11
414.040403109062
 21
758.1163724218258
 31
0.0
  0
LINE
  5
46F
330
2
100
AcDbEntity
  8
03-01
100
AcDbLine
 10
432.6202338065923
 20
739.2377598745634
 30
0.0
 11
417.7604537511142
 21
738.9783683711303
 31
0.0
  0
LINE
  5
470
330
2
100
AcDbEntity
  8
03-01
100
AcDbLine
 10
403.65543296541
 20
1298.040059536101
 30
0.0
 11
581.6454328417676
 21
1298.040059536101
 31
0.0
  0
LINE
  5
471
330
2
100
AcDbEntity
  8
03-01
100
AcDbLine
 10
581.6454328417676
 20
1298.040059536101
 30
0.0
 11
581.6454328417676
 21
720.0410488539946
 31
0.0
  0
LINE
  5
472
330
2
100
AcDbEntity
  8
03-01
100
AcDbLine
 10
581.6454328417676
 20
720.0410488539946
 30
0.0
 11
403.65543296541
 21
720.0410488539937
 31
0.0
  0
CIRCLE
  5
473
330
2
100
AcDbEntity
  8
05-01
100
AcDbCircle
 10
470.655432870415
 20
970.0410583907379
 30
0.0
 40
79.99999999999997
  0
LINE
  5
474
330
2
100
AcDbEntity
  8
03-01
100
AcDbLine
 10
375.8845332734563
 20
808.991040068985
 30
0.0
 11
375.8845332652381
 21
806.9910400689851
 31
0.0
  0
LINE
  5
475
330
2
100
AcDbEntity
  8
03-01
100
AcDbLine
 10
375.8845332652381
 20
806.9910400689851
 30
0.0
 11
372.4845271611485
 21
806.9910399991805
 31
0.0
  0
LINE
  5
476
330
2
100
AcDbEntity
  8
03-01
100
AcDbLine
 10
375.8845333848076
 20
836.0910400689844
 30
0.0
 11
375.8845332734563
 21
808.991040068985
 31
0.0
  0
LINE
  5
477
330
2
100
AcDbEntity
  8
03-01
100
AcDbLine
 10
375.8845333930258
 20
838.0910400689845
 30
0.0
 11
375.8845333848076
 21
836.0910400689844
 31
0.0
  0
LINE
  5
478
330
2
100
AcDbEntity
  8
03-01
100
AcDbLine
 10
375.8845333930258
 20
838.0910400689845
 30
0.0
 11
372.4845271611485
 21
838.0910449106032
 31
0.0
  0
LINE
  5
479
330
2
100
AcDbEntity
  8
03-01
100
AcDbLine
 10
373.4945278668674
 20
1297.365498870016
 30
0.0
 11
373.4945278668674
 21
772.5410434848417
 31
0.0
  0
LINE
  5
47A
330
2
100
AcDbEntity
  8
03-01
100
AcDbLine
 10
373.4945278668674
 20
797.9733470374358
 30
0.0
 11
373.4945278668674
 21
1297.365498870016
 31
0.0
  0
LINE
  5
47B
330
2
100
AcDbEntity
  8
0
100
AcDbLine
 10
373.4845291877064
 20
995.4681816989195
 30
0.0
 11
372.4845271611485
 21
995.4681816989195
 31
0.0
  0
LINE
  5
47C
330
2
100
AcDbEntity
  8
0
100
AcDbLine
 10
373.4845291877064
 20
995.4681816989195
 30
0.0
 11
372.4845271611485
 21
995.4681816989195
 31
0.0
  0
LINE
  5
47D
330
2
100
AcDbEntity
  8
0
100
AcDbLine
 10
373.4845291877064
 20
944.4681826525938
 30
0.0
 11
372.4845271611485
 21
944.4681826525938
 31
0.0
  0
LINE
  5
47E
330
2
100
AcDbEntity
  8
0
100
AcDbLine
 10
373.4845291877064
 20
944.4681826525938
 30
0.0
 11
372.4845271611485
 21
944.4681826525938
 31
0.0
  0
LINE
  5
47F
330
2
100
AcDbEntity
  8
03-01
100
AcDbLine
 10
373.4845291877064
 20
806.8910532075697
 30
0.0
 11
372.4845271611485
 21
806.8910532075697
 31
0.0
  0
LINE
  5
480
330
2
100
AcDbEntity
  8
03-01
100
AcDbLine
 10
373.4845291877064
 20
838.1910466033751
 30
0.0
 11
372.4845271611485
 21
838.1910466033751
 31
0.0
  0
LINE
  5
481
330
2
100
AcDbEntity
  8
03-01
100
AcDbLine
 10
373.4945278668674
 20
1297.365498870016
 30
0.0
 11
373.4945278668674
 21
797.9733470374358
 31
0.0
  0
LINE
  5
482
330
2
100
AcDbEntity
  8
03-01
100
AcDbLine
 10
383.484535162519
 20
988.0831748214477
 30
0.0
 11
383.4845350967844
 21
972.0831871000045
 31
0.0
  0
LINE
  5
483
330
2
100
AcDbEntity
  8
03-01
100
AcDbLine
 10
388.5845351440293
 20
983.5831817525214
 30
0.0
 11
388.5845351152675
 21
976.5831817525214
 31
0.0
  0
LINE
  5
484
330
2
100
AcDbEntity
  8
03-01
100
AcDbLine
 10
386.5845351104763
 20
975.4171884523858
 30
0.0
 11
386.584535154936
 21
986.2331817607392
 31
0.0
  0
LINE
  5
485
330
2
100
AcDbEntity
  8
03-01
100
AcDbLine
 10
386.895596922368
 20
993.5831817594607
 30
0.0
 11
386.8955969071649
 21
989.8831817594619
 31
0.0
  0
ARC
  5
486
330
2
100
AcDbEntity
  8
03-01
100
AcDbCircle
 10
385.1845998259487
 20
999.2624814449454
 30
0.0
 40
0.3003265549026306
100
AcDbArc
 50
359.9131012535028
 51
87.25406418956659
  0
LWPOLYLINE
  5
487
330
2
100
AcDbEntity
  8
03-01
100
AcDbPolyline
 90
        6
 70
   128
 43
0.0
 10
385.4849260354313
 20
999.2620259490722
 10
385.552398493317
 20
999.0574628082031
 10
385.8682286048206
 20
998.3633220163101
 10
386.3366168046269
 20
997.1234261956924
 10
386.7398273253712
 20
995.4586237636322
 10
386.8956040644917
 20
993.5831785169357
  0
LINE
  5
488
330
2
100
AcDbEntity
  8
03-01
100
AcDbLine
 10
383.8845351049931
 20
974.0831817718335
 30
0.0
 11
383.8845351674499
 21
989.2831817718343
 31
0.0
  0
LINE
  5
489
330
2
100
AcDbEntity
  8
03-01
100
AcDbLine
 10
385.8845351671698
 20
989.21458747207
 30
0.0
 11
385.8845351049968
 21
974.0831817636154
 31
0.0
  0
LINE
  5
48A
330
2
100
AcDbEntity
  8
03-01
100
AcDbLine
 10
385.2180566685092
 20
989.9501552556303
 30
0.0
 11
385.2180566834359
 21
993.5831817663547
 31
0.0
  0
ARC
  5
48B
330
2
100
AcDbEntity
  8
03-01
100
AcDbCircle
 10
383.787338328344
 20
999.283233018351
 30
0.0
 40
0.2999427570178518
100
AcDbArc
 50
90.00232679759381
 51
180.0090583546839
  0
ARC
  5
48C
330
2
100
AcDbEntity
  8
03-01
100
AcDbCircle
 10
376.2989275341933
 20
993.9878454903009
 30
0.0
 40
8.928308889741606
100
AcDbArc
 50
357.4022342200363
 51
36.37698561975084
  0
LINE
  5
48D
330
2
100
AcDbEntity
  8
03-01
100
AcDbLine
 10
383.7873204716197
 20
999.5831817722336
 30
0.0
 11
384.268886973885
 21
999.583175775122
 31
0.0
  0
LINE
  5
48E
330
2
100
AcDbEntity
  8
03-01
100
AcDbLine
 10
385.1989876532826
 20
999.5624631610626
 30
0.0
 11
385.1976018452915
 21
999.5625227657074
 31
0.0
  0
ELLIPSE
  5
48F
330
2
100
AcDbEntity
  8
03-01
100
AcDbEllipse
 10
384.2688928200914
 20
993.5831817702547
 30
0.0
 11
-11.20191668927208
 21
0.0000000460305322
 31
0.0
210
0.0
220
0.0
230
1.0
 40
0.5356226230236221
 41
4.629387785387991
 42
4.712388980384807
  0
LINE
  5
490
330
2
100
AcDbEntity
  8
03-01
100
AcDbLine
 10
551.6554337048801
 20
1112.541058241728
 30
0.0
 11
580.6554328704151
 21
1112.541058391254
 31
0.0
  0
ARC
  5
491
330
2
100
AcDbEntity
  8
03-01
100
AcDbCircle
 10
556.6554328704151
 20
1118.541058403062
 30
0.0
 40
5.0
100
AcDbArc
 50
180.0
 51
269.9999999704014
  0
LINE
  5
492
330
2
100
AcDbEntity
  8
03-01
100
AcDbLine
 10
551.6554337048801
 20
1113.54105840564
 30
0.0
 11
581.6454328417676
 21
1113.541058390177
 31
0.0
  0
LINE
  5
493
330
2
100
AcDbEntity
  8
03-01
100
AcDbLine
 10
551.6554337048801
 20
1113.54105840564
 30
0.0
 11
551.6554337048801
 21
1112.541058241728
 31
0.0
  0
LINE
  5
494
330
2
100
AcDbEntity
  8
03-01
100
AcDbLine
 10
551.6554328704151
 20
1139.791051222801
 30
0.0
 11
551.6554328704151
 21
1118.541058403062
 31
0.0
  0
LINE
  5
495
330
2
100
AcDbEntity
  8
03-01
100
AcDbLine
 10
551.6554328704151
 20
1187.541059940457
 30
0.0
 11
550.6554335409673
 21
1187.541059046388
 31
0.0
  0
LINE
  5
496
330
2
100
AcDbEntity
  8
03-01
100
AcDbLine
 10
550.6554335409673
 20
1207.541062324643
 30
0.0
 11
551.6554328704151
 21
1207.541059940458
 31
0.0
  0
LINE
  5
497
330
2
100
AcDbEntity
  8
03-01
100
AcDbLine
 10
580.6554328704151
 20
1113.536503505749
 30
0.0
 11
580.6554328704151
 21
1297.541064351202
 31
0.0
  0
LINE
  5
498
330
2
100
AcDbEntity
  8
03-01
100
AcDbLine
 10
580.6554328704151
 20
721.0410583902485
 30
0.0
 11
580.6554328704151
 21
1112.541058391254
 31
0.0
  0
LINE
  5
499
330
2
100
AcDbEntity
  8
03-01
100
AcDbLine
 10
580.6554328704151
 20
1297.541064351202
 30
0.0
 11
581.6554329179125
 21
1297.541064351202
 31
0.0
  0
LINE
  5
49A
330
2
100
AcDbEntity
  8
03-01
100
AcDbLine
 10
580.6554328704151
 20
721.0410583902485
 30
0.0
 11
403.65543296541
 21
721.0410670544161
 31
0.0
  0
LINE
  5
49B
330
2
100
AcDbEntity
  8
0
100
AcDbLine
 10
370.4916418773173
 20
971.9260750456779
 30
0.0
 11
370.491641910834
 21
980.0831818268644
 31
0.0
  0
LINE
  5
49C
330
2
100
AcDbEntity
  8
0
100
AcDbLine
 10
370.491641910834
 20
980.0831818268644
 30
0.0
 11
370.4916419443507
 21
988.2402886080509
 31
0.0
  0
LINE
  5
49D
330
2
100
AcDbEntity
  8
0
100
AcDbLine
 10
371.1987487267434
 20
988.5331818239592
 30
0.0
 11
371.1987486920225
 21
980.0831818239585
 31
0.0
  0
LINE
  5
49E
330
2
100
AcDbEntity
  8
0
100
AcDbLine
 10
371.1987486920225
 20
980.0831818239585
 30
0.0
 11
371.1987486573016
 21
971.6331818239586
 31
0.0
  0
LINE
  5
49F
330
2
100
AcDbEntity
  8
03-01
100
AcDbLine
 10
379.4560354256901
 20
799.5603803092254
 30
0.0
 11
379.4558566117558
 21
799.5706919127715
 31
0.0
  0
LINE
  5
4A0
330
2
100
AcDbEntity
  8
0
100
AcDbLine
 10
386.2639140391621
 20
794.0634015494597
 30
0.0
 11
386.1427228951725
 21
794.0408709937346
 31
0.0
  0
ARC
  5
4A1
330
2
100
AcDbEntity
  8
03-01
100
AcDbCircle
 10
408.0807729677762
 20
764.013260659025
 30
0.0
 40
5.999999999999988
100
AcDbArc
 50
258.3802759160274
 51
259.8482577622861
  0
LINE
  5
4A2
330
2
100
AcDbEntity
  8
03-01
100
AcDbLine
 10
382.4845325255665
 20
845.8790156537306
 30
0.0
 11
382.6554339432987
 21
845.8819958859693
 31
0.0
  0
ARC
  5
4A3
330
2
100
AcDbEntity
  8
03-01
100
AcDbCircle
 10
388.1352999316878
 20
791.5355750260996
 30
0.0
 40
0.5000000000000079
100
AcDbArc
 50
165.5213391061188
 51
191.0751190333551
  0
LINE
  5
4A4
330
2
100
AcDbEntity
  8
03-01
100
AcDbLine
 10
582.65543296541
 20
1298.023981183172
 30
0.0
 11
582.65543296541
 21
1298.031059234739
 31
0.0
  0
LINE
  5
4A5
330
2
100
AcDbEntity
  8
03-01
100
AcDbLine
 10
581.6554328704151
 20
1299.041058390738
 30
0.0
 11
581.6454328417676
 21
1299.041059940458
 31
0.0
  0
LINE
  5
4A6
330
2
100
AcDbEntity
  8
0
100
AcDbLine
 10
582.65543296541
 20
1299.041059940458
 30
0.0
 11
402.65543296541
 21
1299.041059940458
 31
0.0
  0
LINE
  5
4A7
330
2
100
AcDbEntity
  8
0
100
AcDbLine
 10
402.65543296541
 20
719.0410577754865
 30
0.0
 11
582.65543296541
 21
719.0410617508387
 31
0.0
  0
LINE
  5
4A8
330
2
100
AcDbEntity
  8
03-01
100
AcDbLine
 10
403.65543296541
 20
720.0410488539937
 30
0.0
 11
403.65543296541
 21
1298.040059536101
 31
0.0
  0
LINE
  5
4A9
330
2
100
AcDbEntity
  8
0
100
AcDbLine
 10
402.65543296541
 20
719.0410577754865
 30
0.0
 11
402.65543296541
 21
1299.041059940458
 31
0.0
  0
LINE
  5
4AA
330
2
100
AcDbEntity
  8
0
100
AcDbLine
 10
582.65543296541
 20
719.0410617508387
 30
0.0
 11
582.65543296541
 21
1299.041059940458
 31
0.0
  0
ARC
  5
4AB
330
2
100
AcDbEntity
  8
0
100
AcDbCircle
 10
373.9845332793193
 20
810.4176298192433
 30
0.0
 40
5.0
100
AcDbArc
 50
179.999999764566
 51
199.9999997645947
  0
ARC
  5
4AC
330
2
100
AcDbEntity
  8
0
100
AcDbCircle
 10
373.9845333789454
 20
834.6644503343405
 30
0.0
 40
5.000000000000031
100
AcDbArc
 50
159.9999997645495
 51
179.999999764566
  0
LINE
  5
4AD
330
2
100
AcDbEntity
  8
0
100
AcDbLine
 10
368.9845332793193
 20
810.4176298397879
 30
0.0
 11
368.9845333789453
 21
834.664450354885
 31
0.0
  0
ARC
  5
4AE
330
2
100
AcDbEntity
  8
0
100
AcDbCircle
 10
371.3346370242762
 20
804.5410400876798
 30
0.0
 40
0.5
100
AcDbArc
 50
199.9999997645947
 51
269.9999997645661
  0
LWPOLYLINE
  5
4AF
330
2
100
AcDbEntity
  8
0
100
AcDbPolyline
 90
        4
 70
   128
 43
0.0
 10
370.8647858405384
 20
804.3700151521498
 10
370.8591233992847
 20
804.3856017667586
 10
370.8421956801685
 20
804.4321231920058
 10
370.8142112994465
 20
804.509013183766
  0
ARC
  5
4B0
330
2
100
AcDbEntity
  8
0
100
AcDbCircle
 10
371.3346371721964
 20
840.54104008768
 30
0.0
 40
0.5
100
AcDbArc
 50
89.99999976456608
 51
159.9999997645981
  0
LWPOLYLINE
  5
4B1
330
2
100
AcDbEntity
  8
0
100
AcDbPolyline
 90
        4
 70
   128
 43
0.0
 10
370.8142112994465
 20
840.5730717260176
 10
370.8421956801685
 20
840.6499617177779
 10
370.8591233992847
 20
840.6964831430251
 10
370.8647858405384
 20
840.7120548564726
  0
LINE
  5
4B2
330
2
100
AcDbEntity
  8
0
100
AcDbLine
 10
369.2860702820435
 20
836.3745510702738
 30
0.0
 11
370.8142072333103
 21
840.5730727840364
 31
0.0
  0
LINE
  5
4B3
330
2
100
AcDbEntity
  8
0
100
AcDbLine
 10
370.8142070851245
 20
804.5090073956007
 30
0.0
 11
369.2860701683603
 21
808.7075291219207
 31
0.0
  0
LINE
  5
4B4
330
2
100
AcDbEntity
  8
0
100
AcDbLine
 10
371.3346371742519
 20
841.0410400876799
 30
0.0
 11
372.4845271611485
 21
841.0410426933104
 31
0.0
  0
LINE
  5
4B5
330
2
100
AcDbEntity
  8
0
100
AcDbLine
 10
372.4845271611485
 20
804.0410273153121
 30
0.0
 11
371.3346370222207
 21
804.0410400876799
 31
0.0
  0
LINE
  5
4B6
330
2
100
AcDbEntity
  8
0
100
AcDbLine
 10
372.4845420805577
 20
1298.465502589346
 30
0.0
 11
402.4845314711056
 21
1298.465502589345
 31
0.0
  0
LINE
  5
4B7
330
2
100
AcDbEntity
  8
03-01
100
AcDbLine
 10
373.4945278668674
 20
1297.465500562788
 30
0.0
 11
402.4845314711091
 21
1297.465500562788
 31
0.0
  0
LINE
  5
4B8
330
2
100
AcDbEntity
  8
0
100
AcDbLine
 10
372.4845323901536
 20
771.5410548448999
 30
0.0
 11
372.4845420805577
 21
1298.465502589346
 31
0.0
  0
LINE
  5
4B9
330
2
100
AcDbEntity
  8
03-01
100
AcDbLine
 10
373.4945278668674
 20
797.9733470374358
 30
0.0
 11
373.4945278668674
 21
1297.365498870016
 31
0.0
  0
LINE
  5
4BA
330
2
100
AcDbEntity
  8
0
100
AcDbLine
 10
369.284535101091
 20
973.133181831824
 30
0.0
 11
369.2845351582073
 21
987.0331818318282
 31
0.0
  0
LINE
  5
4BB
330
2
100
AcDbEntity
  8
0
100
AcDbLine
 10
368.9845351047879
 20
974.0331818330568
 30
0.0
 11
368.9845351545118
 21
986.1331818330567
 31
0.0
  0
LINE
  5
4BC
330
2
100
AcDbEntity
  8
0
100
AcDbLine
 10
369.284535101091
 20
973.133181831824
 30
0.0
 11
370.4916418773173
 21
971.9260750456779
 31
0.0
  0
LINE
  5
4BD
330
2
100
AcDbEntity
  8
0
100
AcDbLine
 10
370.4916419443507
 20
988.2402886080509
 30
0.0
 11
369.2845351582036
 21
987.0331818318245
 31
0.0
  0
ARC
  5
4BE
330
2
100
AcDbEntity
  8
0
100
AcDbCircle
 10
371.1987487226324
 20
987.5331818239592
 30
0.0
 40
1.000000000000028
100
AcDbArc
 50
89.99999976456608
 51
134.9999997646177
  0
ARC
  5
4BF
330
2
100
AcDbEntity
  8
0
100
AcDbCircle
 10
371.1987486614089
 20
972.6331818239586
 30
0.0
 40
1.0
100
AcDbArc
 50
224.999999764582
 51
269.9999997645661
  0
LINE
  5
4C0
330
2
100
AcDbEntity
  8
0
100
AcDbLine
 10
372.4845420623096
 20
988.5331749883407
 30
0.0
 11
371.1987487267434
 21
988.5331818239592
 31
0.0
  0
LINE
  5
4C1
330
2
100
AcDbEntity
  8
0
100
AcDbLine
 10
371.1987486573016
 20
971.6331818239586
 30
0.0
 11
372.4845420623096
 21
971.6331869331115
 31
0.0
  0
ARC
  5
4C2
330
2
100
AcDbEntity
  8
0
100
AcDbCircle
 10
369.2845351545074
 20
986.1331818318239
 30
0.0
 40
0.2999999999999829
100
AcDbArc
 50
89.99999976456608
 51
179.999999764566
  0
ARC
  5
4C3
330
2
100
AcDbEntity
  8
0
100
AcDbCircle
 10
369.2845351047909
 20
974.0331818318246
 30
0.0
 40
0.2999999999999829
100
AcDbArc
 50
179.999999764566
 51
269.9999997645661
  0
ENDSEC
  0
SECTION
  2
OBJECTS
  0
DICTIONARY
  5
B
330
0
100
AcDbDictionary
281
     1
  3
ACAD_COLOR
350
4D
  3
ACAD_GROUP
350
3A
  3
ACAD_LAYOUT
350
18
  3
ACAD_MATERIAL
350
D
  3
ACAD_MLEADERSTYLE
350
50
  3
ACAD_MLINESTYLE
350
3B
  3
ACAD_PLOTSETTINGS
350
3C
  3
ACAD_PLOTSTYLENAME
350
A
  3
ACAD_SCALELIST
350
4E
  3
ACAD_TABLESTYLE
350
4F
  3
ACAD_VISUALSTYLE
350
31
  3
ACDB_RECOMPOSE_DATA
350
4CE
  3
AcDbVariableDictionary
350
4C5
  0
DICTIONARY
  5
32
330
2E
100
AcDbDictionary
280
     1
281
     1
  0
DICTIONARY
  5
21
330
20
100
AcDbDictionary
280
     1
281
     1
  3
ACAD_LAYERFILTERS
360
22
  3
ACAD_LAYERSTATES
360
23
  3
ACLYDICTIONARY
360
24
  0
DICTIONARY
  5
7
330
6
100
AcDbDictionary
280
     1
281
     1
  3
ADSK_XREC_LAYER_RECONCILED
360
8
  0
DICTIONARY
  5
1AF
330
1AE
100
AcDbDictionary
280
     1
281
     1
  3
ADSK_XREC_LAYER_RECONCILED
360
1B0
  0
DICTIONARY
  5
1C3
330
1C2
100
AcDbDictionary
280
     1
281
     1
  3
ADSK_XREC_LAYER_RECONCILED
360
1C4
  0
DICTIONARY
  5
1E3
330
1E2
100
AcDbDictionary
280
     1
281
     1
  3
ADSK_XREC_LAYER_RECONCILED
360
1E4
  0
DICTIONARY
  5
1B6
330
1B5
100
AcDbDictionary
280
     1
281
     1
  3
ADSK_XREC_LAYER_RECONCILED
360
1B7
  0
DICTIONARY
  5
B4
330
B3
100
AcDbDictionary
280
     1
281
     1
  3
ADSK_XREC_LAYER_RECONCILED
360
B5
  0
DICTIONARY
  5
130
330
12F
100
AcDbDictionary
280
     1
281
     1
  3
ADSK_XREC_LAYER_RECONCILED
360
131
  0
DICTIONARY
  5
9E
330
9D
100
AcDbDictionary
280
     1
281
     1
  3
ADSK_XREC_LAYER_RECONCILED
360
9F
  0
DICTIONARY
  5
52
330
51
100
AcDbDictionary
280
     1
281
     1
  3
ADSK_XREC_LAYER_RECONCILED
360
53
  0
DICTIONARY
  5
1DD
330
1DC
100
AcDbDictionary
280
     1
281
     1
  0
DICTIONARY
  5
8D
330
8C
100
AcDbDictionary
280
     1
281
     1
  0
DICTIONARY
  5
3
330
2
100
AcDbDictionary
280
     1
281
     1
  3
ACAD_SORTENTS
360
4C4
  0
DICTIONARY
  5
4D
102
{ACAD_REACTORS
330
B
102
}
330
B
100
AcDbDictionary
281
     1
  0
DICTIONARY
  5
3A
102
{ACAD_REACTORS
330
B
102
}
330
B
100
AcDbDictionary
281
     1
  0
DICTIONARY
  5
18
102
{ACAD_REACTORS
330
B
102
}
330
B
100
AcDbDictionary
281
     1
  3
Layout1
350
1F
  3
Model
350
17
  0
DICTIONARY
  5
D
102
{ACAD_REACTORS
330
B
102
}
330
B
100
AcDbDictionary
281
     1
  3
ByBlock
350
45
  3
ByLayer
350
3D
  3
Global
350
C
  0
DICTIONARY
  5
50
102
{ACAD_REACTORS
330
B
102
}
330
B
100
AcDbDictionary
281
     1
  0
DICTIONARY
  5
3B
102
{ACAD_REACTORS
330
B
102
}
330
B
100
AcDbDictionary
281
     1
  3
Standard
350
54
  0
DICTIONARY
  5
3C
102
{ACAD_REACTORS
330
B
102
}
330
B
100
AcDbDictionary
281
     1
  0
ACDBDICTIONARYWDFLT
  5
A
102
{ACAD_REACTORS
330
B
102
}
330
B
100
AcDbDictionary
281
     1
  3
Normal
350
9
100
AcDbDictionaryWithDefault
340
9
  0
DICTIONARY
  5
4E
102
{ACAD_REACTORS
330
B
102
}
330
B
100
AcDbDictionary
281
     1
  3
A0
350
59
  3
A1
350
5A
  3
A2
350
5B
  3
A3
350
5C
  3
A4
350
5D
  3
A5
350
5E
  3
A6
350
5F
  3
A7
350
60
  3
A8
350
61
  3
A9
350
62
  3
B0
350
63
  3
B1
350
64
  3
B2
350
65
  3
B3
350
66
  3
B4
350
67
  3
B5
350
68
  3
B6
350
69
  3
B7
350
6A
  3
B8
350
6B
  3
B9
350
6C
  3
C0
350
6D
  3
C1
350
6E
  3
C2
350
6F
  3
C3
350
70
  3
C4
350
71
  3
C5
350
72
  3
C6
350
73
  3
C7
350
74
  3
C8
350
75
  3
C9
350
76
  3
D0
350
77
  3
D1
350
78
  3
D2
350
79
  0
DICTIONARY
  5
4F
102
{ACAD_REACTORS
330
B
102
}
330
B
100
AcDbDictionary
281
     1
  3
Standard
350
55
  0
DICTIONARY
  5
31
102
{ACAD_REACTORS
330
B
102
}
330
B
100
AcDbDictionary
281
     1
  3
2dWireframe
350
30
  3
3dWireframe
350
58
  3
Realistic
350
57
  0
XRECORD
  5
4CE
102
{ACAD_REACTORS
330
B
102
}
330
B
100
AcDbXrecord
280
     1
 90
        1
330
55
  0
DICTIONARY
  5
4C5
102
{ACAD_REACTORS
330
B
102
}
330
B
100
AcDbDictionary
281
     1
  3
CANNOSCALE
350
4C8
  3
CMLEADERSTYLE
350
4C7
  3
CTABLESTYLE
350
4C6
  3
LAYEREVAL
350
4CA
  3
LAYERNOTIFY
350
4CB
  3
LIGHTINGUNITS
350
4C9
  0
DICTIONARY
  5
22
102
{ACAD_REACTORS
330
21
102
}
330
21
100
AcDbDictionary
281
     1
  0
DICTIONARY
  5
23
102
{ACAD_REACTORS
330
21
102
}
330
21
100
AcDbDictionary
281
     1
  0
DICTIONARY
  5
24
102
{ACAD_REACTORS
330
21
102
}
330
21
100
AcDbDictionary
281
     1
1001
ACAD
1000
<All
  0
XRECORD
  5
8
102
{ACAD_REACTORS
330
7
102
}
330
7
100
AcDbXrecord
280
     1
290
     1
  0
XRECORD
  5
1B0
102
{ACAD_REACTORS
330
1AF
102
}
330
1AF
100
AcDbXrecord
280
     1
290
     1
  0
XRECORD
  5
1C4
102
{ACAD_REACTORS
330
1C3
102
}
330
1C3
100
AcDbXrecord
280
     1
290
     1
  0
XRECORD
  5
1E4
102
{ACAD_REACTORS
330
1E3
102
}
330
1E3
100
AcDbXrecord
280
     1
290
     1
  0
XRECORD
  5
1B7
102
{ACAD_REACTORS
330
1B6
102
}
330
1B6
100
AcDbXrecord
280
     1
290
     1
  0
XRECORD
  5
B5
102
{ACAD_REACTORS
330
B4
102
}
330
B4
100
AcDbXrecord
280
     1
290
     1
  0
XRECORD
  5
131
102
{ACAD_REACTORS
330
130
102
}
330
130
100
AcDbXrecord
280
     1
290
     1
  0
XRECORD
  5
9F
102
{ACAD_REACTORS
330
9E
102
}
330
9E
100
AcDbXrecord
280
     1
290
     1
  0
XRECORD
  5
53
102
{ACAD_REACTORS
330
52
102
}
330
52
100
AcDbXrecord
280
     1
290
     1
  0
SORTENTSTABLE
  5
4C4
102
{ACAD_REACTORS
330
3
102
}
330
3
100
AcDbSortentsTable
330
2
331
256
  5
3F5
331
19D
  5
42F
331
213
  5
42C
331
252
  5
3F9
331
475
  5
113
331
471
  5
117
331
46D
  5
11B
331
4AC
  5
B8
331
384
  5
2BB
331
3FE
  5
24D
331
469
  5
11F
331
4A8
  5
BC
331
380
  5
2BF
331
3BF
  5
280
331
3FA
  5
251
331
435
  5
17D
331
37C
  5
2C3
331
3BB
  5
284
331
297
  5
3A8
331
12E
  5
466
331
3F6
  5
255
331
3F2
  5
259
331
293
  5
3AC
331
B0
  5
4B1
331
431
  5
181
331
30D
  5
332
331
378
  5
2C7
331
165
  5
44D
331
28F
  5
3B0
331
2CE
  5
371
331
EB
  5
485
331
309
  5
336
331
2CA
  5
375
331
161
  5
451
331
305
  5
33A
331
344
  5
2FB
331
28B
  5
3B4
331
301
  5
33E
331
340
  5
2FF
331
24E
  5
3FD
331
24A
  5
401
331
246
  5
405
331
242
  5
409
331
465
  5
133
331
4A4
  5
C0
331
4A0
  5
C4
331
461
  5
151
331
3B7
  5
288
331
45D
  5
155
331
49C
  5
C8
331
3B3
  5
28C
331
459
  5
159
331
498
  5
CC
331
3EE
  5
25D
331
42D
  5
206
331
374
  5
2CB
331
370
  5
2CF
331
3AF
  5
290
331
429
  5
222
331
425
  5
226
331
36C
  5
2D3
331
3AB
  5
294
331
287
  5
3B8
331
2C6
  5
379
331
11E
  5
46A
331
15D
  5
455
331
159
  5
459
331
421
  5
22A
331
368
  5
2D7
331
283
  5
3BC
331
2C2
  5
37D
331
11A
  5
46E
331
2FD
  5
342
331
33C
  5
303
331
155
  5
45D
331
9C
  5
4B5
331
DB
  5
489
331
338
  5
307
331
27F
  5
3C0
331
2BE
  5
381
331
2F9
  5
346
331
116
  5
472
331
2BA
  5
385
331
112
  5
476
331
151
  5
461
331
2F5
  5
34A
331
334
  5
30B
331
27B
  5
3C4
331
98
  5
4B9
331
2F1
  5
34E
331
330
  5
30F
331
23E
  5
40D
331
23A
  5
411
331
181
  5
431
331
236
  5
415
331
17D
  5
435
331
232
  5
419
331
179
  5
439
331
455
  5
15D
331
494
  5
D0
331
490
  5
D4
331
451
  5
161
331
44D
  5
165
331
48C
  5
D8
331
3A7
  5
298
331
449
  5
169
331
488
  5
DC
331
3A3
  5
29C
331
4C3
  5
7A
331
3DE
  5
261
331
41D
  5
22E
331
364
  5
2DB
331
360
  5
2DF
331
39F
  5
2A0
331
D7
  5
48D
331
3DA
  5
265
331
419
  5
232
331
415
  5
236
331
35C
  5
2E3
331
39B
  5
2A4
331
94
  5
4BD
331
D3
  5
491
331
2B6
  5
389
331
10E
  5
47A
331
3D6
  5
269
331
277
  5
3C8
331
3D2
  5
26D
331
411
  5
23A
331
CF
  5
495
331
358
  5
2E7
331
273
  5
3CC
331
2B2
  5
38D
331
10A
  5
47E
331
2ED
  5
352
331
32C
  5
313
331
CB
  5
499
331
328
  5
317
331
26F
  5
3D0
331
2AE
  5
391
331
2E9
  5
356
331
106
  5
482
331
2E5
  5
35A
331
324
  5
31B
331
26B
  5
3D4
331
2AA
  5
395
331
2E1
  5
35E
331
320
  5
31F
331
175
  5
43D
331
22E
  5
41D
331
171
  5
441
331
22A
  5
421
331
226
  5
425
331
16D
  5
445
331
222
  5
429
331
169
  5
449
331
445
  5
16D
331
484
  5
F8
331
4BF
  5
92
331
480
  5
108
331
4BB
  5
96
331
441
  5
171
331
43D
  5
175
331
47C
  5
10C
331
4B7
  5
9A
331
397
  5
2A8
331
439
  5
179
331
478
  5
110
331
393
  5
2AC
331
4B3
  5
A2
331
3CE
  5
271
331
40D
  5
23E
331
354
  5
2EB
331
350
  5
2EF
331
38F
  5
2B0
331
C7
  5
49D
331
3CA
  5
275
331
409
  5
242
331
405
  5
246
331
34C
  5
2F3
331
38B
  5
2B4
331
2A6
  5
399
331
C3
  5
4A1
331
3C6
  5
279
331
267
  5
3D8
331
401
  5
24A
331
348
  5
2F7
331
263
  5
3DC
331
2A2
  5
39D
331
BF
  5
4A5
331
2DD
  5
362
331
31C
  5
323
331
3C2
  5
27D
331
318
  5
327
331
25F
  5
3EC
331
29E
  5
3A1
331
BB
  5
4A9
331
2D9
  5
366
331
2D5
  5
36A
331
314
  5
32B
331
25B
  5
3F0
331
29A
  5
3A5
331
2D1
  5
36E
331
310
  5
32F
331
255
  5
3F6
331
251
  5
3FA
331
474
  5
114
331
470
  5
118
331
4AF
  5
B2
331
46C
  5
11C
331
4AB
  5
B9
331
387
  5
2B8
331
383
  5
2BC
331
3FD
  5
24E
331
468
  5
120
331
37F
  5
2C0
331
3BE
  5
281
331
3F9
  5
252
331
B7
  5
4AD
331
434
  5
17E
331
37B
  5
2C4
331
3BA
  5
285
331
296
  5
3A9
331
3F5
  5
256
331
3F1
  5
25A
331
292
  5
3AD
331
430
  5
18E
331
30C
  5
333
331
164
  5
44E
331
308
  5
337
331
347
  5
2F8
331
28E
  5
3B1
331
2CD
  5
372
331
2C9
  5
376
331
121
  5
467
331
160
  5
452
331
304
  5
33B
331
343
  5
2FC
331
28A
  5
3B5
331
300
  5
33F
331
24D
  5
3FE
331
249
  5
402
331
206
  5
42D
331
245
  5
406
331
241
  5
40A
331
4A7
  5
BD
331
4A3
  5
C1
331
464
  5
134
331
49F
  5
C5
331
460
  5
152
331
3B6
  5
289
331
45C
  5
156
331
49B
  5
C9
331
377
  5
2C8
331
373
  5
2CC
331
3B2
  5
28D
331
458
  5
15A
331
3ED
  5
25E
331
42C
  5
213
331
36F
  5
2D0
331
3AE
  5
291
331
428
  5
223
331
A3
  5
4B2
331
424
  5
227
331
36B
  5
2D4
331
3AA
  5
295
331
286
  5
3B9
331
2C5
  5
37A
331
11D
  5
46B
331
33F
  5
300
331
15C
  5
456
331
420
  5
22B
331
158
  5
45A
331
DE
  5
486
331
33B
  5
304
331
282
  5
3BD
331
2C1
  5
37E
331
2FC
  5
343
331
119
  5
46F
331
115
  5
473
331
154
  5
45E
331
9B
  5
4B6
331
337
  5
308
331
27E
  5
3C1
331
2BD
  5
382
331
DA
  5
48A
331
2F8
  5
347
331
2B9
  5
386
331
111
  5
477
331
150
  5
462
331
2F4
  5
34B
331
333
  5
30C
331
27A
  5
3C5
331
2F0
  5
34F
331
23D
  5
40E
331
239
  5
412
331
180
  5
432
331
235
  5
416
331
17C
  5
436
331
231
  5
41A
331
497
  5
CD
331
178
  5
43A
331
454
  5
15E
331
493
  5
D1
331
48F
  5
D5
331
450
  5
162
331
3A6
  5
299
331
44C
  5
166
331
48B
  5
D9
331
367
  5
2D8
331
448
  5
16A
331
3A2
  5
29D
331
4C2
  5
8B
331
3DD
  5
262
331
41C
  5
22F
331
363
  5
2DC
331
35F
  5
2E0
331
39E
  5
2A1
331
D6
  5
48E
331
3D9
  5
266
331
97
  5
4BA
331
418
  5
233
331
414
  5
237
331
35B
  5
2E4
331
39A
  5
2A5
331
93
  5
4BE
331
D2
  5
492
331
276
  5
3C9
331
2B5
  5
38A
331
10D
  5
47B
331
32F
  5
310
331
3D5
  5
26A
331
3D1
  5
26E
331
410
  5
23B
331
CE
  5
496
331
272
  5
3CD
331
2B1
  5
38E
331
109
  5
47F
331
2EC
  5
353
331
32B
  5
314
331
8B
  5
4C2
331
CA
  5
49A
331
327
  5
318
331
26E
  5
3D1
331
2AD
  5
392
331
2E8
  5
357
331
105
  5
483
331
2A9
  5
396
331
2E4
  5
35B
331
323
  5
31C
331
26A
  5
3D5
331
2E0
  5
35F
331
174
  5
43E
331
22D
  5
41E
331
229
  5
422
331
170
  5
442
331
225
  5
426
331
16C
  5
446
331
221
  5
42A
331
487
  5
DD
331
168
  5
44A
331
4BE
  5
93
331
444
  5
16E
331
483
  5
105
331
47F
  5
109
331
4BA
  5
97
331
440
  5
172
331
43C
  5
176
331
47B
  5
10D
331
4B6
  5
9B
331
357
  5
2E8
331
396
  5
2A9
331
438
  5
17A
331
392
  5
2AD
331
4B2
  5
A3
331
3CD
  5
272
331
40C
  5
23F
331
353
  5
2EC
331
34F
  5
2F0
331
38E
  5
2B1
331
C6
  5
49E
331
3C9
  5
276
331
408
  5
243
331
404
  5
247
331
34B
  5
2F4
331
38A
  5
2B5
331
2A5
  5
39A
331
C2
  5
4A2
331
3C5
  5
27A
331
31F
  5
320
331
266
  5
3D9
331
3C1
  5
27E
331
400
  5
24B
331
262
  5
3DD
331
2A1
  5
39E
331
BE
  5
4A6
331
2DC
  5
363
331
31B
  5
324
331
134
  5
464
331
317
  5
328
331
25E
  5
3ED
331
29D
  5
3A2
331
BA
  5
4AA
331
2D8
  5
367
331
2D4
  5
36B
331
313
  5
32C
331
25A
  5
3F1
331
299
  5
3A6
331
2D0
  5
36F
331
254
  5
3F7
331
477
  5
111
331
250
  5
3FB
331
473
  5
115
331
46F
  5
119
331
4AE
  5
B6
331
46B
  5
11D
331
4AA
  5
BA
331
386
  5
2B9
331
382
  5
2BD
331
3FC
  5
24F
331
437
  5
17B
331
37E
  5
2C1
331
3BD
  5
282
331
B6
  5
4AE
331
3F8
  5
253
331
3F4
  5
257
331
295
  5
3AA
331
B2
  5
4AF
331
433
  5
17F
331
30F
  5
330
331
37A
  5
2C5
331
3B9
  5
286
331
167
  5
44B
331
3F0
  5
25B
331
291
  5
3AE
331
30B
  5
334
331
163
  5
44F
331
307
  5
338
331
346
  5
2F9
331
28D
  5
3B2
331
2CC
  5
373
331
2C8
  5
377
331
120
  5
468
331
303
  5
33C
331
342
  5
2FD
331
289
  5
3B6
331
24C
  5
3FF
331
248
  5
403
331
244
  5
407
331
240
  5
40B
331
467
  5
121
331
4A6
  5
BE
331
4A2
  5
C2
331
463
  5
143
331
45F
  5
153
331
49E
  5
C6
331
3B5
  5
28A
331
45B
  5
157
331
49A
  5
CA
331
42F
  5
19D
331
376
  5
2C9
331
372
  5
2CD
331
3B1
  5
28E
331
3EC
  5
25F
331
42B
  5
220
331
427
  5
224
331
36E
  5
2D1
331
3AD
  5
292
331
15F
  5
453
331
A2
  5
4B3
331
423
  5
228
331
36A
  5
2D5
331
3A9
  5
296
331
285
  5
3BA
331
2C4
  5
37B
331
11C
  5
46C
331
2FF
  5
340
331
33E
  5
301
331
15B
  5
457
331
157
  5
45B
331
DD
  5
487
331
33A
  5
305
331
281
  5
3BE
331
2C0
  5
37F
331
2FB
  5
344
331
118
  5
470
331
114
  5
474
331
153
  5
45F
331
9A
  5
4B7
331
2F7
  5
348
331
336
  5
309
331
27D
  5
3C2
331
2BC
  5
383
331
D9
  5
48B
331
2B8
  5
387
331
110
  5
478
331
2F3
  5
34C
331
332
  5
30D
331
279
  5
3C6
331
23C
  5
40F
331
238
  5
413
331
17F
  5
433
331
234
  5
417
331
17B
  5
437
331
230
  5
41B
331
457
  5
15B
331
496
  5
CE
331
492
  5
D2
331
453
  5
15F
331
48E
  5
D6
331
44F
  5
163
331
3A5
  5
29A
331
44B
  5
167
331
48A
  5
DA
331
41F
  5
22C
331
366
  5
2D9
331
362
  5
2DD
331
3A1
  5
29E
331
3DC
  5
263
331
41B
  5
230
331
4C1
  5
8E
331
35E
  5
2E1
331
39D
  5
2A2
331
D5
  5
48F
331
3D8
  5
267
331
96
  5
4BB
331
417
  5
234
331
413
  5
238
331
35A
  5
2E5
331
399
  5
2A6
331
92
  5
4BF
331
D1
  5
493
331
275
  5
3CA
331
2B4
  5
38B
331
10C
  5
47C
331
2EF
  5
350
331
32E
  5
311
331
3D4
  5
26B
331
3D0
  5
26F
331
8E
  5
4C1
331
CD
  5
497
331
32A
  5
315
331
271
  5
3CE
331
2B0
  5
38F
331
2EB
  5
354
331
108
  5
480
331
143
  5
463
331
326
  5
319
331
26D
  5
3D2
331
2AC
  5
393
331
C9
  5
49B
331
2E7
  5
358
331
2A8
  5
397
331
2E3
  5
35C
331
322
  5
31D
331
269
  5
3D6
331
177
  5
43B
331
173
  5
43F
331
22C
  5
41F
331
228
  5
423
331
16F
  5
443
331
224
  5
427
331
16B
  5
447
331
1AA
  5
42E
331
220
  5
42B
331
447
  5
16B
331
486
  5
DE
331
4BD
  5
94
331
443
  5
16F
331
482
  5
106
331
47E
  5
10A
331
4B9
  5
98
331
43F
  5
173
331
43B
  5
177
331
47A
  5
10E
331
395
  5
2AA
331
4B5
  5
9C
331
40F
  5
23C
331
356
  5
2E9
331
391
  5
2AE
331
4B1
  5
B0
331
3CC
  5
273
331
40B
  5
240
331
352
  5
2ED
331
34E
  5
2F1
331
38D
  5
2B2
331
C5
  5
49F
331
3C8
  5
277
331
407
  5
244
331
403
  5
248
331
34A
  5
2F5
331
389
  5
2B6
331
265
  5
3DA
331
2A4
  5
39B
331
C1
  5
4A3
331
2DF
  5
360
331
31E
  5
321
331
3C4
  5
27B
331
3C0
  5
27F
331
BD
  5
4A7
331
261
  5
3DE
331
2A0
  5
39F
331
F8
  5
484
331
2DB
  5
364
331
31A
  5
325
331
133
  5
465
331
7A
  5
4C3
331
316
  5
329
331
25D
  5
3EE
331
29C
  5
3A3
331
B9
  5
4AB
331
2D7
  5
368
331
298
  5
3A7
331
2D3
  5
36C
331
312
  5
32D
331
259
  5
3F2
331
257
  5
3F4
331
253
  5
3F8
331
476
  5
112
331
472
  5
116
331
46E
  5
11A
331
4AD
  5
B7
331
46A
  5
11E
331
4A9
  5
BB
331
3FF
  5
24C
331
385
  5
2BA
331
381
  5
2BE
331
3FB
  5
250
331
436
  5
17C
331
37D
  5
2C2
331
3BC
  5
283
331
3F7
  5
254
331
3F3
  5
258
331
294
  5
3AB
331
B1
  5
4B0
331
432
  5
180
331
30E
  5
331
331
379
  5
2C6
331
3B8
  5
287
331
166
  5
44C
331
290
  5
3AF
331
2CF
  5
370
331
30A
  5
335
331
2CB
  5
374
331
162
  5
450
331
306
  5
339
331
345
  5
2FA
331
28C
  5
3B3
331
302
  5
33D
331
341
  5
2FE
331
288
  5
3B7
331
24F
  5
3FC
331
24B
  5
400
331
247
  5
404
331
18E
  5
430
331
243
  5
408
331
466
  5
12E
331
4A5
  5
BF
331
4A1
  5
C3
331
462
  5
150
331
45E
  5
154
331
49D
  5
C7
331
3B4
  5
28B
331
45A
  5
158
331
499
  5
CB
331
3EF
  5
25C
331
42E
  5
1AA
331
375
  5
2CA
331
371
  5
2CE
331
3B0
  5
28F
331
42A
  5
221
331
426
  5
225
331
36D
  5
2D2
331
3AC
  5
293
331
2C7
  5
378
331
11F
  5
469
331
15E
  5
454
331
A1
  5
4B4
331
422
  5
229
331
369
  5
2D6
331
3A8
  5
297
331
284
  5
3BB
331
2C3
  5
37C
331
11B
  5
46D
331
2FE
  5
341
331
33D
  5
302
331
15A
  5
458
331
156
  5
45C
331
DC
  5
488
331
339
  5
306
331
280
  5
3BF
331
2BF
  5
380
331
2FA
  5
345
331
117
  5
471
331
D8
  5
48C
331
113
  5
475
331
152
  5
460
331
99
  5
4B8
331
2F6
  5
349
331
335
  5
30A
331
27C
  5
3C3
331
2BB
  5
384
331
2F2
  5
34D
331
331
  5
30E
331
278
  5
3C7
331
23F
  5
40C
331
23B
  5
410
331
237
  5
414
331
17E
  5
434
331
233
  5
418
331
17A
  5
438
331
456
  5
15C
331
495
  5
CF
331
491
  5
D3
331
452
  5
160
331
44E
  5
164
331
48D
  5
D7
331
3A4
  5
29B
331
44A
  5
168
331
489
  5
DB
331
3DF
  5
260
331
41E
  5
22D
331
365
  5
2DA
331
361
  5
2DE
331
3A0
  5
29F
331
3DB
  5
264
331
41A
  5
231
331
4C0
  5
91
331
416
  5
235
331
35D
  5
2E2
331
39C
  5
2A3
331
D4
  5
490
331
3D7
  5
268
331
2B7
  5
388
331
10F
  5
479
331
95
  5
4BC
331
412
  5
239
331
359
  5
2E6
331
398
  5
2A7
331
91
  5
4C0
331
D0
  5
494
331
274
  5
3CB
331
2B3
  5
38C
331
10B
  5
47D
331
2EE
  5
351
331
32D
  5
312
331
3D3
  5
26C
331
CC
  5
498
331
329
  5
316
331
270
  5
3CF
331
2AF
  5
390
331
2EA
  5
355
331
107
  5
481
331
2E6
  5
359
331
325
  5
31A
331
26C
  5
3D3
331
2AB
  5
394
331
C8
  5
49C
331
2E2
  5
35D
331
321
  5
31E
331
268
  5
3D7
331
22F
  5
41C
331
176
  5
43C
331
172
  5
440
331
22B
  5
420
331
227
  5
424
331
16E
  5
444
331
223
  5
428
331
16A
  5
448
331
446
  5
16C
331
485
  5
EB
331
481
  5
107
331
4BC
  5
95
331
442
  5
170
331
47D
  5
10B
331
4B8
  5
99
331
43E
  5
174
331
43A
  5
178
331
479
  5
10F
331
394
  5
2AB
331
4B4
  5
A1
331
3CF
  5
270
331
40E
  5
23D
331
355
  5
2EA
331
351
  5
2EE
331
390
  5
2AF
331
3CB
  5
274
331
40A
  5
241
331
4B0
  5
B1
331
34D
  5
2F2
331
38C
  5
2B3
331
2A7
  5
398
331
C4
  5
4A0
331
3C7
  5
278
331
406
  5
245
331
402
  5
249
331
349
  5
2F6
331
388
  5
2B7
331
264
  5
3DB
331
2A3
  5
39C
331
C0
  5
4A4
331
2DE
  5
361
331
31D
  5
322
331
3C3
  5
27C
331
319
  5
326
331
260
  5
3DF
331
29F
  5
3A0
331
BC
  5
4A8
331
2DA
  5
365
331
315
  5
32A
331
25C
  5
3EF
331
29B
  5
3A4
331
B8
  5
4AC
331
2D6
  5
369
331
2D2
  5
36D
331
311
  5
32E
331
258
  5
3F3
  0
LAYOUT
  5
1F
102
{ACAD_REACTORS
330
18
102
}
330
18
100
AcDbPlotSettings
  1

  2

  4

  6

 40
0.0
 41
0.0
 42
0.0
 43
0.0
 44
0.0
 45
0.0
 46
0.0
 47
0.0
 48
0.0
 49
0.0
140
0.0
141
0.0
142
1.0
143
1.0
 70
   688
 72
     0
 73
     0
 74
     5
  7

 75
    16
147
1.0
 76
     0
 77
     2
 78
   300
148
0.0
149
0.0
100
AcDbLayout
  1
Layout1
 70
     1
 71
     1
 10
0.0
 20
0.0
 11
420.0
 21
297.0
 12
0.0
 22
0.0
 32
0.0
 14
1.000000000000000E+20
 24
1.000000000000000E+20
 34
1.000000000000000E+20
 15
-1.000000000000000E+20
 25
-1.000000000000000E+20
 35
-1.000000000000000E+20
146
0.0
 13
0.0
 23
0.0
 33
0.0
 16
1.0
 26
0.0
 36
0.0
 17
0.0
 27
1.0
 37
0.0
 76
     0
330
1C
  0
LAYOUT
  5
17
102
{ACAD_XDICTIONARY
360
19
102
}
102
{ACAD_REACTORS
330
18
102
}
330
18
100
AcDbPlotSettings
  1

  2
Microsoft XPS Document Writer
  4
A4
  6

 40
3.174999952316284
 41
3.174999952316284
 42
3.175003051757812
 43
3.17498779296875
 44
210.0156707763672
 45
297.0106506347656
 46
0.0
 47
0.0
 48
0.0
 49
0.0
140
0.0
141
0.0
142
1.0
143
10.36617523691078
 70
 11952
 72
     1
 73
     1
 74
     0
  7

 75
     0
147
0.0964675955350731
 76
     0
 77
     2
 78
   300
148
36.54896740527443
149
5.578139542627013
100
AcDbLayout
  1
Model
 70
     1
 71
     0
 10
0.0
 20
0.0
 11
0.0
 21
0.0
 12
0.0
 22
0.0
 32
0.0
 14
0.0
 24
0.0
 34
0.0
 15
279.4
 25
215.9
 35
0.0
146
0.0
 13
0.0
 23
0.0
 33
0.0
 16
1.0
 26
0.0
 36
0.0
 17
0.0
 27
1.0
 37
0.0
 76
     0
330
2
331
2F
1001
ACAD_PSEXT
1000
Microsoft XPS Document Writer
1000
Microsoft XPS Document Writer
1000
XPSPort:
1000

1070
     0
  0
MATERIAL
  5
45
102
{ACAD_XDICTIONARY
360
46
102
}
102
{ACAD_REACTORS
330
D
102
}
330
D
100
AcDbMaterial
  1
ByBlock
 72
     0
 43
0.0008202099737533
 43
0.0
 43
0.0
 43
0.0
 43
0.0
 43
0.0008202099737533
 43
0.0
 43
0.0
 43
0.0
 43
0.0
 43
1.0
 43
0.0
 43
0.0
 43
0.0
 43
0.0
 43
1.0
 77
     0
 47
0.0008202099737533
 47
0.0
 47
0.0
 47
0.0
 47
0.0
 47
0.0008202099737533
 47
0.0
 47
0.0
 47
0.0
 47
0.0
 47
1.0
 47
0.0
 47
0.0
 47
0.0
 47
0.0
 47
1.0
171
     0
 49
0.0008202099737533
 49
0.0
 49
0.0
 49
0.0
 49
0.0
 49
0.0008202099737533
 49
0.0
 49
0.0
 49
0.0
 49
0.0
 49
1.0
 49
0.0
 49
0.0
 49
0.0
 49
0.0
 49
1.0
175
     0
142
0.0008202099737533
142
0.0
142
0.0
142
0.0
142
0.0
142
0.0008202099737533
142
0.0
142
0.0
142
0.0
142
0.0
142
1.0
142
0.0
142
0.0
142
0.0
142
0.0
142
1.0
179
     0
144
0.0008202099737533
144
0.0
144
0.0
144
0.0
144
0.0
144
0.0008202099737533
144
0.0
144
0.0
144
0.0
144
0.0
144
1.0
144
0.0
144
0.0
144
0.0
144
0.0
144
1.0
147
0.0008202099737533
147
0.0
147
0.0
147
0.0
147
0.0
147
0.0008202099737533
147
0.0
147
0.0
147
0.0
147
0.0
147
1.0
147
0.0
147
0.0
147
0.0
147
0.0
147
1.0
  0
MATERIAL
  5
3D
102
{ACAD_XDICTIONARY
360
3E
102
}
102
{ACAD_REACTORS
330
D
102
}
330
D
100
AcDbMaterial
  1
ByLayer
 72
     0
 43
0.0008202099737533
 43
0.0
 43
0.0
 43
0.0
 43
0.0
 43
0.0008202099737533
 43
0.0
 43
0.0
 43
0.0
 43
0.0
 43
1.0
 43
0.0
 43
0.0
 43
0.0
 43
0.0
 43
1.0
 77
     0
 47
0.0008202099737533
 47
0.0
 47
0.0
 47
0.0
 47
0.0
 47
0.0008202099737533
 47
0.0
 47
0.0
 47
0.0
 47
0.0
 47
1.0
 47
0.0
 47
0.0
 47
0.0
 47
0.0
 47
1.0
171
     0
 49
0.0008202099737533
 49
0.0
 49
0.0
 49
0.0
 49
0.0
 49
0.0008202099737533
 49
0.0
 49
0.0
 49
0.0
 49
0.0
 49
1.0
 49
0.0
 49
0.0
 49
0.0
 49
0.0
 49
1.0
175
     0
142
0.0008202099737533
142
0.0
142
0.0
142
0.0
142
0.0
142
0.0008202099737533
142
0.0
142
0.0
142
0.0
142
0.0
142
1.0
142
0.0
142
0.0
142
0.0
142
0.0
142
1.0
179
     0
144
0.0008202099737533
144
0.0
144
0.0
144
0.0
144
0.0
144
0.0008202099737533
144
0.0
144
0.0
144
0.0
144
0.0
144
1.0
144
0.0
144
0.0
144
0.0
144
0.0
144
1.0
147
0.0008202099737533
147
0.0
147
0.0
147
0.0
147
0.0
147
0.0008202099737533
147
0.0
147
0.0
147
0.0
147
0.0
147
1.0
147
0.0
147
0.0
147
0.0
147
0.0
147
1.0
  0
MATERIAL
  5
C
102
{ACAD_XDICTIONARY
360
E
102
}
102
{ACAD_REACTORS
330
D
102
}
330
D
100
AcDbMaterial
  1
Global
 72
     0
 43
0.0008202099737533
 43
0.0
 43
0.0
 43
0.0
 43
0.0
 43
0.0008202099737533
 43
0.0
 43
0.0
 43
0.0
 43
0.0
 43
1.0
 43
0.0
 43
0.0
 43
0.0
 43
0.0
 43
1.0
 77
     0
 47
0.0008202099737533
 47
0.0
 47
0.0
 47
0.0
 47
0.0
 47
0.0008202099737533
 47
0.0
 47
0.0
 47
0.0
 47
0.0
 47
1.0
 47
0.0
 47
0.0
 47
0.0
 47
0.0
 47
1.0
171
     0
 49
0.0008202099737533
 49
0.0
 49
0.0
 49
0.0
 49
0.0
 49
0.0008202099737533
 49
0.0
 49
0.0
 49
0.0
 49
0.0
 49
1.0
 49
0.0
 49
0.0
 49
0.0
 49
0.0
 49
1.0
175
     0
142
0.0008202099737533
142
0.0
142
0.0
142
0.0
142
0.0
142
0.0008202099737533
142
0.0
142
0.0
142
0.0
142
0.0
142
1.0
142
0.0
142
0.0
142
0.0
142
0.0
142
1.0
179
     0
144
0.0008202099737533
144
0.0
144
0.0
144
0.0
144
0.0
144
0.0008202099737533
144
0.0
144
0.0
144
0.0
144
0.0
144
1.0
144
0.0
144
0.0
144
0.0
144
0.0
144
1.0
147
0.0008202099737533
147
0.0
147
0.0
147
0.0
147
0.0
147
0.0008202099737533
147
0.0
147
0.0
147
0.0
147
0.0
147
1.0
147
0.0
147
0.0
147
0.0
147
0.0
147
1.0
  0
MLINESTYLE
  5
54
102
{ACAD_REACTORS
330
3B
102
}
330
3B
100
AcDbMlineStyle
  2
STANDARD
 70
     0
  3

 62
   256
 51
90.0
 52
90.0
 71
     2
 49
0.5
 62
   256
  6
BYLAYER
 49
-0.5
 62
   256
  6
BYLAYER
  0
ACDBPLACEHOLDER
  5
9
102
{ACAD_REACTORS
330
A
102
}
330
A
  0
SCALE
  5
59
102
{ACAD_REACTORS
330
4E
102
}
330
4E
100
AcDbScale
 70
     0
300
1:1
140
1.0
141
1.0
290
     1
  0
SCALE
  5
5A
102
{ACAD_REACTORS
330
4E
102
}
330
4E
100
AcDbScale
 70
     0
300
1:2
140
1.0
141
2.0
290
     0
  0
SCALE
  5
5B
102
{ACAD_REACTORS
330
4E
102
}
330
4E
100
AcDbScale
 70
     0
300
1:4
140
1.0
141
4.0
290
     0
  0
SCALE
  5
5C
102
{ACAD_REACTORS
330
4E
102
}
330
4E
100
AcDbScale
 70
     0
300
1:5
140
1.0
141
5.0
290
     0
  0
SCALE
  5
5D
102
{ACAD_REACTORS
330
4E
102
}
330
4E
100
AcDbScale
 70
     0
300
1:8
140
1.0
141
8.0
290
     0
  0
SCALE
  5
5E
102
{ACAD_REACTORS
330
4E
102
}
330
4E
100
AcDbScale
 70
     0
300
1:10
140
1.0
141
10.0
290
     0
  0
SCALE
  5
5F
102
{ACAD_REACTORS
330
4E
102
}
330
4E
100
AcDbScale
 70
     0
300
1:16
140
1.0
141
16.0
290
     0
  0
SCALE
  5
60
102
{ACAD_REACTORS
330
4E
102
}
330
4E
100
AcDbScale
 70
     0
300
1:20
140
1.0
141
20.0
290
     0
  0
SCALE
  5
61
102
{ACAD_REACTORS
330
4E
102
}
330
4E
100
AcDbScale
 70
     0
300
1:30
140
1.0
141
30.0
290
     0
  0
SCALE
  5
62
102
{ACAD_REACTORS
330
4E
102
}
330
4E
100
AcDbScale
 70
     0
300
1:40
140
1.0
141
40.0
290
     0
  0
SCALE
  5
63
102
{ACAD_REACTORS
330
4E
102
}
330
4E
100
AcDbScale
 70
     0
300
1:50
140
1.0
141
50.0
290
     0
  0
SCALE
  5
64
102
{ACAD_REACTORS
330
4E
102
}
330
4E
100
AcDbScale
 70
     0
300
1:100
140
1.0
141
100.0
290
     0
  0
SCALE
  5
65
102
{ACAD_REACTORS
330
4E
102
}
330
4E
100
AcDbScale
 70
     0
300
2:1
140
2.0
141
1.0
290
     0
  0
SCALE
  5
66
102
{ACAD_REACTORS
330
4E
102
}
330
4E
100
AcDbScale
 70
     0
300
4:1
140
4.0
141
1.0
290
     0
  0
SCALE
  5
67
102
{ACAD_REACTORS
330
4E
102
}
330
4E
100
AcDbScale
 70
     0
300
8:1
140
8.0
141
1.0
290
     0
  0
SCALE
  5
68
102
{ACAD_REACTORS
330
4E
102
}
330
4E
100
AcDbScale
 70
     0
300
10:1
140
10.0
141
1.0
290
     0
  0
SCALE
  5
69
102
{ACAD_REACTORS
330
4E
102
}
330
4E
100
AcDbScale
 70
     0
300
100:1
140
100.0
141
1.0
290
     0
  0
SCALE
  5
6A
102
{ACAD_REACTORS
330
4E
102
}
330
4E
100
AcDbScale
 70
     0
300
1/128" = 1'-0"
140
0.0078125
141
12.0
290
     0
  0
SCALE
  5
6B
102
{ACAD_REACTORS
330
4E
102
}
330
4E
100
AcDbScale
 70
     0
300
1/64" = 1'-0"
140
0.015625
141
12.0
290
     0
  0
SCALE
  5
6C
102
{ACAD_REACTORS
330
4E
102
}
330
4E
100
AcDbScale
 70
     0
300
1/32" = 1'-0"
140
0.03125
141
12.0
290
     0
  0
SCALE
  5
6D
102
{ACAD_REACTORS
330
4E
102
}
330
4E
100
AcDbScale
 70
     0
300
1/16" = 1'-0"
140
0.0625
141
12.0
290
     0
  0
SCALE
  5
6E
102
{ACAD_REACTORS
330
4E
102
}
330
4E
100
AcDbScale
 70
     0
300
3/32" = 1'-0"
140
0.09375
141
12.0
290
     0
  0
SCALE
  5
6F
102
{ACAD_REACTORS
330
4E
102
}
330
4E
100
AcDbScale
 70
     0
300
1/8" = 1'-0"
140
0.125
141
12.0
290
     0
  0
SCALE
  5
70
102
{ACAD_REACTORS
330
4E
102
}
330
4E
100
AcDbScale
 70
     0
300
3/16" = 1'-0"
140
0.1875
141
12.0
290
     0
  0
SCALE
  5
71
102
{ACAD_REACTORS
330
4E
102
}
330
4E
100
AcDbScale
 70
     0
300
1/4" = 1'-0"
140
0.25
141
12.0
290
     0
  0
SCALE
  5
72
102
{ACAD_REACTORS
330
4E
102
}
330
4E
100
AcDbScale
 70
     0
300
3/8" = 1'-0"
140
0.375
141
12.0
290
     0
  0
SCALE
  5
73
102
{ACAD_REACTORS
330
4E
102
}
330
4E
100
AcDbScale
 70
     0
300
1/2" = 1'-0"
140
0.5
141
12.0
290
     0
  0
SCALE
  5
74
102
{ACAD_REACTORS
330
4E
102
}
330
4E
100
AcDbScale
 70
     0
300
3/4" = 1'-0"
140
0.75
141
12.0
290
     0
  0
SCALE
  5
75
102
{ACAD_REACTORS
330
4E
102
}
330
4E
100
AcDbScale
 70
     0
300
1" = 1'-0"
140
1.0
141
12.0
290
     0
  0
SCALE
  5
76
102
{ACAD_REACTORS
330
4E
102
}
330
4E
100
AcDbScale
 70
     0
300
1-1/2" = 1'-0"
140
1.5
141
12.0
290
     0
  0
SCALE
  5
77
102
{ACAD_REACTORS
330
4E
102
}
330
4E
100
AcDbScale
 70
     0
300
3" = 1'-0"
140
3.0
141
12.0
290
     0
  0
SCALE
  5
78
102
{ACAD_REACTORS
330
4E
102
}
330
4E
100
AcDbScale
 70
     0
300
6" = 1'-0"
140
6.0
141
12.0
290
     0
  0
SCALE
  5
79
102
{ACAD_REACTORS
330
4E
102
}
330
4E
100
AcDbScale
 70
     0
300
1'-0" = 1'-0"
140
12.0
141
12.0
290
     0
  0
TABLESTYLE
  5
55
102
{ACAD_XDICTIONARY
360
56
102
}
102
{ACAD_REACTORS
330
4F
102
}
330
4F
100
AcDbTableStyle
280
     0
  3
Standard
 70
     0
 71
     0
 40
1.5
 41
1.5
280
     0
281
     0
  7
Standard
140
4.5
170
     2
 62
     0
 63
     7
283
     0
 90
      512
 91
        0
  1

274
    -2
284
     1
 64
     0
275
    -2
285
     1
 65
     0
276
    -2
286
     1
 66
     0
277
    -2
287
     1
 67
     0
278
    -2
288
     1
 68
     0
279
    -2
289
     1
 69
     0
  7
Standard
140
6.0
170
     5
 62
     0
 63
     7
283
     0
 90
      512
 91
        0
  1

274
    -2
284
     1
 64
     0
275
    -2
285
     1
 65
     0
276
    -2
286
     1
 66
     0
277
    -2
287
     1
 67
     0
278
    -2
288
     1
 68
     0
279
    -2
289
     1
 69
     0
  7
Standard
140
4.5
170
     5
 62
     0
 63
     7
283
     0
 90
      512
 91
        0
  1

274
    -2
284
     1
 64
     0
275
    -2
285
     1
 65
     0
276
    -2
286
     1
 66
     0
277
    -2
287
     1
 67
     0
278
    -2
288
     1
 68
     0
279
    -2
289
     1
 69
     0
  0
VISUALSTYLE
  5
30
102
{ACAD_REACTORS
330
31
102
}
330
31
100
AcDbVisualStyle
  2
2dWireframe
 70
     4
177
     2
291
     0
 71
     0
176
     1
 72
     2
176
     1
 73
     0
176
     1
 90
        0
176
     1
 40
0.6
176
     1
 41
30.0
176
     1
 63
     7
176
     1
 74
     1
176
     1
 91
        4
176
     1
 64
     7
176
     1
 65
   257
176
     1
 75
     1
176
     1
175
     1
176
     1
 42
1.0
176
     1
 92
        0
176
     1
 66
   257
176
     1
 43
1.0
176
     1
 76
     1
176
     1
 77
     6
176
     1
 78
     2
176
     1
 67
     7
176
     1
 79
     5
176
     1
170
     0
176
     1
171
     0
176
     1
290
     0
176
     1
 93
        1
176
     1
 44
0.0
176
     1
173
     0
176
     1
  0
VISUALSTYLE
  5
58
102
{ACAD_REACTORS
330
31
102
}
330
31
100
AcDbVisualStyle
  2
3dWireframe
 70
     5
177
     2
291
     0
 71
     0
176
     1
 72
     2
176
     1
 73
     0
176
     1
 90
        0
176
     1
 40
0.6
176
     1
 41
30.0
176
     1
 63
     7
176
     1
 74
     1
176
     1
 91
        4
176
     1
 64
     7
176
     1
 65
   257
176
     1
 75
     1
176
     1
175
     1
176
     1
 42
1.0
176
     1
 92
        0
176
     1
 66
   257
176
     1
 43
1.0
176
     1
 76
     1
176
     1
 77
     6
176
     1
 78
     2
176
     1
 67
     7
176
     1
 79
     5
176
     1
170
     0
176
     1
171
     0
176
     1
290
     0
176
     1
 93
        1
176
     1
 44
0.0
176
     1
173
     0
176
     1
  0
VISUALSTYLE
  5
57
102
{ACAD_REACTORS
330
31
102
}
330
31
100
AcDbVisualStyle
  2
Realistic
 70
     8
177
     2
291
     0
 71
     2
176
     1
 72
     2
176
     1
 73
     0
176
     1
 90
        0
176
     1
 40
0.6
176
     1
 41
30.0
176
     1
 63
     7
176
     1
 74
     1
176
     1
 91
        0
176
     1
 64
     7
176
     1
 65
   257
176
     1
 75
     1
176
     1
175
     1
176
     1
 42
1.0
176
     1
 92
        8
176
     1
 66
     8
176
     1
 43
1.0
176
     1
 76
     1
176
     1
 77
     6
176
     1
 78
     2
176
     1
 67
     7
176
     1
 79
     5
176
     1
170
     0
176
     1
171
     0
176
     1
290
     0
176
     1
 93
       13
176
     1
 44
0.0
176
     1
173
     0
176
     1
  0
DICTIONARYVAR
  5
4C8
102
{ACAD_REACTORS
330
4C5
102
}
330
4C5
100
DictionaryVariables
280
     0
  1
1:1
  0
DICTIONARYVAR
  5
4C7
102
{ACAD_REACTORS
330
4C5
102
}
330
4C5
100
DictionaryVariables
280
     0
  1
STANDARD
  0
DICTIONARYVAR
  5
4C6
102
{ACAD_REACTORS
330
4C5
102
}
330
4C5
100
DictionaryVariables
280
     0
  1
STANDARD
  0
DICTIONARYVAR
  5
4CA
102
{ACAD_REACTORS
330
4C5
102
}
330
4C5
100
DictionaryVariables
280
     0
  1
1
  0
DICTIONARYVAR
  5
4CB
102
{ACAD_REACTORS
330
4C5
102
}
330
4C5
100
DictionaryVariables
280
     0
  1
15
  0
DICTIONARYVAR
  5
4C9
102
{ACAD_REACTORS
330
4C5
102
}
330
4C5
100
DictionaryVariables
280
     0
  1
0
  0
DICTIONARY
  5
19
330
17
100
AcDbDictionary
280
     1
281
     1
  3
ADSK_XREC_LAYOUTTHUMBNAIL
360
1A
  0
DICTIONARY
  5
46
330
45
100
AcDbDictionary
280
     1
281
     1
  3
BUMPTILE
360
47
  3
DIFFUSETILE
360
48
  3
OPACITYTILE
360
49
  3
REFLECTIONTILE
360
4A
  3
REFRACTIONTILE
360
4B
  3
SPECULARTILE
360
4C
  0
DICTIONARY
  5
3E
330
3D
100
AcDbDictionary
280
     1
281
     1
  3
BUMPTILE
360
3F
  3
DIFFUSETILE
360
40
  3
OPACITYTILE
360
41
  3
REFLECTIONTILE
360
42
  3
REFRACTIONTILE
360
43
  3
SPECULARTILE
360
44
  0
DICTIONARY
  5
E
330
C
100
AcDbDictionary
280
     1
281
     1
  3
BUMPTILE
360
F
  3
DIFFUSETILE
360
10
  3
OPACITYTILE
360
11
  3
REFLECTIONTILE
360
12
  3
REFRACTIONTILE
360
13
  3
SPECULARTILE
360
14
  0
DICTIONARY
  5
56
330
55
100
AcDbDictionary
280
     1
281
     1
  3
ACAD_ROUNDTRIP_2008_TABLESTYLE_CELLSTYLEMAP
360
4CC
  0
XRECORD
  5
1A
102
{ACAD_REACTORS
330
19
102
}
330
19
100
AcDbXrecord
280
     1
310
280000000001000084000000010008000000000000840000000000000000000000010000000000000000000000000000FFFFFF000000000000000000000000000000000000000000000000000000000000000000330000006600000099000000CC000000FF00000000330000333300006633000099330000CC330000FF3300
310
0000660000336600006666000099660000CC660000FF66000000990000339900006699000099990000CC990000FF99000000CC000033CC000066CC000099CC0000CCCC0000FFCC000000FF000033FF000066FF000099FF0000CCFF0000FFFF000000003300330033006600330099003300CC003300FF003300003333003333
310
33006633330099333300CC333300FF33330000663300336633006666330099663300CC663300FF66330000993300339933006699330099993300CC993300FF99330000CC330033CC330066CC330099CC3300CCCC3300FFCC330000FF330033FF330066FF330099FF3300CCFF3300FFFF330000006600330066006600660099
310
006600CC006600FF00660000336600333366006633660099336600CC336600FF33660000666600336666006666660099666600CC666600FF66660000996600339966006699660099996600CC996600FF99660000CC660033CC660066CC660099CC6600CCCC6600FFCC660000FF660033FF660066FF660099FF6600CCFF6600
310
FFFF660000009900330099006600990099009900CC009900FF00990000339900333399006633990099339900CC339900FF33990000669900336699006666990099669900CC669900FF66990000999900339999006699990099999900CC999900FF99990000CC990033CC990066CC990099CC9900CCCC9900FFCC990000FF99
310
0033FF990066FF990099FF9900CCFF9900FFFF99000000CC003300CC006600CC009900CC00CC00CC00FF00CC000033CC003333CC006633CC009933CC00CC33CC00FF33CC000066CC003366CC006666CC009966CC00CC66CC00FF66CC000099CC003399CC006699CC009999CC00CC99CC00FF99CC0000CCCC0033CCCC0066CC
310
CC0099CCCC00CCCCCC00FFCCCC0000FFCC0033FFCC0066FFCC0099FFCC00CCFFCC00FFFFCC000000FF003300FF006600FF009900FF00CC00FF00FF00FF000033FF003333FF006633FF009933FF00CC33FF00FF33FF000066FF003366FF006666FF009966FF00CC66FF00FF66FF000099FF003399FF006699FF009999FF00CC
310
99FF00FF99FF0000CCFF0033CCFF0066CCFF0099CCFF00CCCCFF00FFCCFF0000FFFF0033FFFF0066FFFF0099FFFF00CCFFFF00FFFFFF00000000000D0D0D001A1A1A00282828003535350043434300505050005D5D5D006B6B6B00787878008686860093939300A1A1A100AEAEAE00BBBBBB00C9C9C900D6D6D600E4E4E400
310
F1F1F100FFFFFF0000000000000000000000000000000000000000000000000000000000000000000000000000000000E2E2E2E2E2E2E2E2E2E2E2E2E2E2E2E2E2E2E2E2E2E2E2E2E2E2E2E2E2E2E2E2E2E2E2E2E2E2E2E2E2E2E2E2E2E2E2E2E2E2E2E2E2E2E2E2E2E2E2E2E2E2E2E2E2E2E2E2E2E2E2E2E2E2E2E2E2E2E2
310
E2E2BEBEBEBEBEBEBEBEBEBEBEBEBEBEBEBEBEBEBEBEBEBEBEBEBEBEBEBEBEBEBEBEBEBEBEBEBEBEBEBEBEBEBEBEBEBEBEBEBEBEBEBEBEBEBEBEBEBEBEBEBEBEBEBEBEBEBEBEBEBEBEBEBEBEBEBEBEBEBEBEBEBEBEBEBEBEBEBEBEBEBEBEBEBEE2E2E2E2E2E2E2E2E2E2E2E2E2E2E2E2E2E2E2E2E2E2E2E2E2E2E2E2E2E2E2
310
E2E2E2E2E2E2E2E2E2E2E2E2E2E2E2E2E2E2E2E2E2E2E2E2E2E2E2E2E2E2E2E2E2E2E2E2E2E2E2E2E2E2E2E2E2E2E2E2E2E2E2E2E2E2E2E2E2E2E2E2E2E2E2E2E2E2E2E2E2E2E2E2E2E2E2E2E2E2E2E2E2E2E2E2E2E2E2E2E2E2E2E2E2E2E2E2E2E2E2E2E2E2E2E2E2E2E2E2E2E2E2E2E2E2E2E2E2E2E2E2E2E2E2E2E2E2E2
310
E2E2E2E2BEE2E2E2E2E2E2E2E2E2E2E2E2E2E2E2E2E2E2E2E2E2E2E2E2E2E2E2E2E2E2E2E2E2E2E2E2E2E2E2E2E2E2E2E2E2E2E2E2E2E2E2E2E2E2E2E2E2E2E2E2E2E2E2E2E2E2E2E2E2E2E2E2E2E2E2E2E2E2E2E2E2E2E2E2E2E2E2E2E2E2E2E2BEE2E2E2E2E2E2E2E2E2E2E2E2E2E2E2E2E2E2E2E2E2E2E2E2E2E2E2E2E2
310
E2E2E2E2E2E2E2E2E2E2E2E2E2E2E2E2E2E2E2E2E2E2E2E2E2E2E2E2E2E2E2E2E2E2E2E2E2E2E2E2E2E2E2E2E2E2E2E2E2E2E2E2E2E2E2E2E2E2E2E2E2E2E2E2E2E2E2E2E2E2E2E2E2E2E2E2E2E2E2E2E2E2E2E2E2E2E2E2E2E2E2E2E2E2E2E2E2E2E2E2E2E2E2E2E2E2E2E2E2E2E2E2E2E2E2E2E2E2E2E2E2E2E2E2E2E2E2
310
E2E2E2E2E2E2BEE2E2E2E2E2E2E2E2E2E2E2E2E2E2E2E2E2E2E2E2E2E2E2E2E2E2E2E2E2E2E2E2E2E2E2E2E2E2E2E2E2E2E2E2E2E2E2E2E2E2E2E2E2E2E2E2E2E2E2E2E2E2E2E2E2E2E2E2E2E2E2E2E2E2E2E2E2E2E2E2E2E2E2E2E2E2E2E2E2E2E2E2BEE2E2E2E2E2E2E2E2E2E2E2E2E2E2E2E2E2E2E2E2E2E2E2E2E2E2E2
310
E2E2E2E2E2E2E2E2E2E2E2E2E2E2E2E2E2E2E2E2E2E2E2E2E2E2E2E2E2E2E2E2E2E2E2E2E2E2E2E2E2E2E2E2E2E2E2E2E2E2E2E2E2E2E2E2E2E2E2E2E2E2E2E2E2E2E2E2E2E2E2E2E2E2E2E2E2E2E2E2E2E2E2E2E2E2E2E2E2E2E2E2E2E2E2E2E2E2E2E2E2E2E2E2E2E2E2E2E2E2E2E2E2E2E2E2E2E2E2E2E2E2E2E2E2E2E2
310
E2E2E2E2E2E2E2E2BEE2E2E2E2E2E2E2E2DCDCDCDCDCDCDCDCDCDCDCDCDCDCDCDCDCDCDCDCDCDCDCDCDCDCDCDCDCDCDCDCDCDCDCDCDCDCDCDCDCDCDCDCDCDCDCDCDCDCDCDCDCDCDCDCDCDCDCDCDCDCDCDCDCDCDCDCDCDCDCDCDCDCDCDCDCDCDCDCDCC3E2E2BEE2E2E2E2E2E2E2E2E2E2E2E2E2E2E2E2E2E2E2E2E2E2E2E2E2
310
E2E2E2E2E2E2E2E2E2E2E2E2E2E2E2E2E2E2E2E2E2E2E2E2E2E2E2E2E2E2E2E2E2E2E2E2E2E2E2E2E2E2E2E2E2E2E2E2E2E2E2E2E2E2E2E2E2E2E2E2E2E2E2E2E2E2E2E2E2E2E2E2E2E2E2E2E2E2E2E2E2E2E2E2E2E2E2E2E2E2E2E2E2E2E2E2E2E2E2E2E2E2E2E2E2E2E2E2E2E2E2E2E2E2E2E2E2E2E2E2E2E2E2E2E2E2E2
310
E2E2E2E2E2E2E2E2E2E2BEE2E2E2E2E2E2E2E2DCDCDCDCDCDCDCDCDCDCDCE2DCDCDCDCDCDCDCDCDCDCDCDCDCDCDCDCDCDCE2DCDCDCDCDCDCE2E2E2E2DCE2E2E2DCDCDCDCE2E2E2DCDCDCDCDCDCDCDCDCDCE2E2E2BEE2E2E2E2E2E2E2E2DCE2DCDCDCE2E2DCE2E2BEE2E2E2E2E2E2E2E2E2E2E2E2E2E2E2E2E2E2E2E2E2E2E2
310
E2E2E2E2E2E2E2E2E2E2E2E2E2E2E2E2E2E2E2E2E2E2E2E2E2E2E2E2E2E2E2E2E2E2E2E2E2E2E2E2E2E2E2E2E2E2E2E2E2E2E2E2E2E2E2E2E2E2E2E2E2E2E2E2E2E2E2E2E2E2E2E2E2E2E2E2E2E2E2E2E2E2E2E2E2E2E2E2E2E2E2E2E2E2E2E2E2E2E2E2E2E2E2E2E2E2E2E2E2E2E2E2E2E2E2E2E2E2E2E2E2E2E2E2E2E2E2
310
E2E2E2E2E2E2E2E2E2E2E2E2BEE2E2E2E2E2E2E2E2DCDCDCDCDCDCDCDCDCDCDCDCDCDCDCDCDCDCDCDCDCDCDCDCDCDCDCDCDCDCE2DCDCDCE2DCDCE2E2E2E2DCE2E2E2DCDCDCDCE2E2E2DCDCDCDCDCDCDCDCDCDCE2E2E2DCE2E2E2E2E2E2E2E2DCDCDCDCDCE2E2DCE2E2BEE2E2E2E2E2E2E2E2E2E2E2E2E2E2E2E2E2E2E2E2E2
310
E2E2E2E2E2E2E2E2E2E2E2E2E2E2E2E2E2E2E2E2E2E2E2E2E2E2E2E2E2E2E2E2E2E2E2E2E2E2E2E2E2E2E2E2E2E2E2E2E2E2E2E2E2E2E2E2E2E2E2E2E2E2E2E2E2E2E2E2E2E2E2E2E2E2E2E2E2E2E2E2E2E2E2E2E2E2E2E2E2E2E2E2E2E2E2E2E2E2E2E2E2E2E2E2E2E2E2E2E2E2E2E2E2E2E2E2E2E2E2E2E2E2E2E2E2E2E2
310
E2E2E2E2E2E2E2E2E2E2E2E2E2E2BEE2E2E2E2E2E2E2E2DCF5F5F5F5F5F5F5F5F5F5F5F5F5F5E2E2E2E2E2E2E2E2E2E2E2E2E2E2E2E2E2E2E2E2E2E2E2E2E2E2DCF5F5F5F5F5F5F5E2E2E2DCDCDCDCDCDCDCDCDCE2E2E2E2F5F5F5F5F5F5F5F5F5DCDCF5DCDCF5F5F5E2E2BEE2E2E2E2E2E2E2E2E2E2E2E2E2E2E2E2E2E2E2
310
E2E2E2E2E2E2E2E2E2E2E2E2E2E2E2E2E2E2E2E2E2E2E2E2E2E2E2E2E2E2E2E2E2E2E2E2E2E2E2E2E2E2E2E2E2E2E2E2E2E2E2E2E2E2E2E2E2E2E2E2E2E2E2E2E2E2E2E2E2E2E2E2E2E2E2E2E2E2E2E2E2E2E2E2E2E2E2E2E2E2E2E2E2E2E2E2E2E2E2E2E2E2E2E2E2E2E2E2E2E2E2E2E2E2E2E2E2E2E2E2E2E2E2E2E2E2E2
310
E2E2E2E2E2E2E2E2E2E2E2E2E2E2E2E2BEE2E2E2E2E2E2E2E2DCF5F5F5F5F5F5F5F5F5F5F5F5F5F5E2E2E2E2E2E2E2E2E2E2E2E2E2E2E2E2E2E2E2E2E2E2E2E2E2E2DCF5F5F5F5F5F5F5F5E2E2DCF5F5F5F5F5F5F5F5E2E2E2E2F5F5F5F5F5F5F5F5F5F5F5F5F5DCF5F5F5E2E2BEE2E2E2E2E2E2E2E2E2E2E2E2E2E2E2E2E2
310
E2E2E2E2E2E2E2E2E2E2E2E2E2E2E2E2E2E2E2E2E2E2E2E2E2E2E2E2E2E2E2E2E2E2E2E2E2E2E2E2E2E2E2E2E2E2E2E2E2E2E2E2E2E2E2E2E2E2E2E2E2E2E2E2E2E2E2E2E2E2E2E2E2E2E2E2E2E2E2E2E2E2E2E2E2E2E2E2E2E2E2E2E2E2E2E2E2E2E2E2E2E2E2E2E2E2E2E2E2E2E2E2E2E2E2E2E2E2E2E2E2E2E2E2E2E2E2
310
E2E2E2E2E2E2E2E2E2E2E2E2E2E2E2E2E2E2BEE2E2E2E2E2E2E2E2DCF5F5F5F5F5F5F5F5DCF5F5F5F5F5BEBEBEBEBEBEBEBEBEF5F5F5F5F5F5BEBEBEBEBEBEDCDCDCDCDCDCDCDCDCDCDCDCDCDCDCDCDCDCDCDCDCDCDCDCDCDCDCDCDCF5F5F5F5DCF5DCDCDCDCDCDCDCDCDCDCDCE2E2BEE2E2E2E2E2E2E2E2E2E2E2E2E2E2E2
310
E2E2E2E2E2E2E2E2E2E2E2E2E2E2E2E2E2E2E2E2E2E2E2E2E2E2E2E2E2E2E2E2E2E2E2E2E2E2E2E2E2E2E2E2E2E2E2E2E2E2E2E2E2E2E2E2E2E2E2E2E2E2E2E2E2E2E2E2E2E2E2E2E2E2E2E2E2E2E2E2E2E2E2E2E2E2E2E2E2E2E2E2E2E2E2E2E2E2E2E2E2E2E2E2E2E2E2E2E2E2E2E2E2E2E2E2E2E2E2E2E2E2E2E2E2E2E2
310
E2E2E2E2E2E2E2E2E2E2E2E2E2E2E2E2E2E2E2E2BEE2E2E2E2E2E2E2E2DCF5F5F5F5F5F5F5F5F5F5F5F5F5F5BEBEBEBEBEBEBEBEBEF5F5F5F5F5F5BEBEBEBEBEBEE2E2E2E2E2E2E2E2E2E2E2E2E2E2E2E2E2E2E2E2E2E2E2E2DCE22D2D2D2D2D2D2D2D2D2D2D2DE22D2D2D2D2DE2DCE2E2BEE2E2E2E2E2E2E2E2E2E2E2E2E2
310
E2E2E2E2E2E2E2E2E2E2E2E2E2E2E2E2E2E2E2E2E2E2E2E2E2E2E2E2E2E2E2E2E2E2E2E2E2E2E2E2E2E2E2E2E2E2E2E2E2E2E2E2E2E2E2E2E2E2E2E2E2E2E2E2E2E2E2E2E2E2E2E2E2E2E2E2E2E2E2E2E2E2E2E2E2E2E2E2E2E2E2E2E2E2E2E2E2E2E2E2E2E2E2E2E2E2E2E2E2E2E2E2E2E2E2E2E2E2E2E2E2E2E2E2E2E2E2
310
E2E2E2E2E2E2E2E2E2E2E2E2E2E2E2E2E2E2E2E2E2E2BEE2E2E2E2E2E2E2E2DCDCDCDCDCDCDCDCDCDCDCDCDCDCDCDCDCDCDCDCDCDCDCDCDCDCDCDCDCDCDCDCDCDCDCDCDCDCDCDCDCDCDCDCDCDCDCDCDCDCDCDCDCDCDCDCDCDCDCDCDCE2E2E2E2E2E2E2E2E22D2D2D2D2D2D2D2D2D2DE2DCE2E2BEE2E2E2E2E2E2E2E2E2E2E2
310
E2E2E2E2E2E2E2E2E2E2E2E2E2E2E2E2E2E2E2E2E2E2E2E2E2E2E2E2E2E2E2E2E2E2E2E2E2E2E2E2E2E2E2E2E2E2E2E2E2E2E2E2E2E2E2E2E2E2E2E2E2E2E2E2E2E2E2E2E2E2E2E2E2E2E2E2E2E2E2E2E2E2E2E2E2E2E2E2E2E2E2E2E2E2E2E2E2E2E2E2E2E2E2E2E2E2E2E2E2E2E2E2E2E2E2E2E2E2E2E2E2E2E2E2E2E2E2
310
E2E2E2E2E2E2E2E2E2E2E2E2E2E2E2E2E2E2E2E2E2E2E2E2BEE2E2E2E2E2E2E2E2DCE2E2E2E2E2E2E2E2E2E2E2E2E2E2E2E2E2E2E2E2E2E2E2E2E2E2E2E2E2E2E2E2E2E2E2E2E2E2E2E2E2E2E2E2E2E2E2E2E2E2E2E2E2E2E2E2E2E2E2DCE2E2E2E22D2D2D2D2D2D2D2D2D2D2D2D2D2D2DE2DCE2E2BEE2E2E2E2E2E2E2E2E2
310
E2E2E2E2E2E2E2E2E2E2E2E2E2E2E2E2E2E2E2E2E2E2E2E2E2E2E2E2E2E2E2E2E2E2E2E2E2E2E2E2E2E2E2E2E2E2E2E2E2E2E2E2E2E2E2E2E2E2E2E2E2E2E2E2E2E2E2E2E2E2E2E2E2E2E2E2E2E2E2E2E2E2E2E2E2E2E2E2E2E2E2E2E2E2E2E2E2E2E2E2E2E2E2E2E2E2E2E2E2E2E2E2E2E2E2E2E2E2E2E2E2E2E2E2E2E2E2
310
E2E2E2E2E2E2E2E2E2E2E2E2E2E2E2E2E2E2E2E2E2E2E2E2E2E2BEE2E2E2E2E2E2E2E2BEBEBEBEBEBEBEBEF5BEBEBEBEBEBEBEBEBEBEBEBEBEBEBEBEBEBEBEBEBEBEBEBEBEBEBEBEBEBEBEBEBEBEBEBEBEBEBEBEBEBEBEBEBEBEBEBEBEBEBEBEE2E2E2E22D2D2D2D2D2D2D2D2D2D2D2D2D2DE2E2DCE2E2BEE2E2E2E2E2E2E2
310
E2E2E2E2E2E2E2E2E2E2E2E2E2E2E2E2E2E2E2E2E2E2E2E2E2E2E2E2E2E2E2E2E2E2E2E2E2E2E2E2E2E2E2E2E2E2E2E2E2E2E2E2E2E2E2E2E2E2E2E2E2E2E2E2E2E2E2E2E2E2E2E2E2E2E2E2E2E2E2E2E2E2E2E2E2E2E2E2E2E2E2E2E2E2E2E2E2E2E2E2E2E2E2E2E2E2E2E2E2E2E2E2E2E2E2E2E2E2E2E2E2E2E2E2E2E2E2
310
E2E2E2E2E2E2E2E2E2E2E2E2E2E2E2E2E2E2E2E2E2E2E2E2E2E2E2E2BEE2E2E2E2E2E2E2E2DCF5F5F5F5F5F5F5F5F5E2E2E2E2E2E2E2E2E2E2E2E2E2E2E2E2E2E2E2E2E2E2E2E2E2E2E2E2E2E2E2E2E2E2E2E2E2E2E2E2E2E2E2E2E2E2E2E2E2E2DCE2E2E22D2D2D2D2DE22D2D2D2D2D2D2D2D2DE2E2DCE2E2BEE2E2E2E2E2
310
E2E2E2E2E2E2E2E2E2E2E2E2E2E2E2E2E2E2E2E2E2E2E2E2E2E2E2E2E2E2E2E2E2E2E2E2E2E2E2E2E2E2E2E2E2E2E2E2E2E2E2E2E2E2E2E2E2E2E2E2E2E2E2E2E2E2E2E2E2E2E2E2E2E2E2E2E2E2E2E2E2E2E2E2E2E2E2E2E2E2E2E2E2E2E2E2E2E2E2E2E2E2E2E2E2E2E2E2E2E2E2E2E2E2E2E2E2E2E2E2E2E2E2E2E2E2E2
310
E2E2E2E2E2E2E2E2E2E2E2E2E2E2E2E2E2E2E2E2E2E2E2E2E2E2E2E2E2E2BEE2E2E2E2E2E2E2E2DCF5F5E2F5E2E2E2E2E2E2E2E2E2E2E2E2E2E2E2E2E2E2E2E2E2E2E2E2E2E2E2E2E2E2E2E2E2E2E2E2E2E2E2E2E2E2E2E2E2E2E2E2E2E2E2E2E2E2E2DCE2E2E2E2E2E2E2E2E2E2E2E2E2E2E2E2E2E2E2E2DCE2E2BEE2E2E2
310
E2E2E2E2E2E2E2E2E2E2E2E2E2E2E2E2E2E2E2E2E2E2E2E2E2E2E2E2E2E2E2E2E2E2E2E2E2E2E2E2E2E2E2E2E2E2E2E2E2E2E2E2E2E2E2E2E2E2E2E2E2E2E2E2E2E2E2E2E2E2E2E2E2E2E2E2E2E2E2E2E2E2E2E2E2E2E2E2E2E2E2E2E2E2E2E2E2E2E2E2E2E2E2E2E2E2E2E2E2E2E2E2E2E2E2E2E2E2E2E2E2E2E2E2E2E2E2
310
E2E2E2E2E2E2E2E2E2E2E2E2E2E2E2E2E2E2E2E2E2E2E2E2E2E2E2E2E2E2E2E2BEE2E2E2E2E2E2E2E2DCDCDCDCDCDCDCDCDCDCDCDCDCDCDCDCDCDCDCDCDCDCDCDCDCDCDCDCDCDCDCDCDCDCDCDCDCDCDCDCDCDCDCDCDCDCDCDCDCDCDCDCDCDCDCDCDCDCDCDCDCDCDCDCDCDCDCDCDCDCDCDCDCDCDCDCDCDCDCDCDCDCE2E2BEE2
310
E2E2E2E2E2E2E2E2E2E2E2E2E2E2E2E2E2E2E2E2E2E2E2E2E2E2E2E2E2E2E2E2E2E2E2E2E2E2E2E2E2E2E2E2E2E2E2E2E2E2E2E2E2E2E2E2E2E2E2E2E2E2E2E2E2E2E2E2E2E2E2E2E2E2E2E2E2E2E2E2E2E2E2E2E2E2E2E2E2E2E2E2E2E2E2E2E2E2E2E2E2E2E2E2E2E2E2E2E2E2E2E2E2E2E2E2E2E2E2E2E2E2E2E2E2E2E2
310
E2E2E2E2E2E2E2E2E2E2E2E2E2E2E2E2E2E2E2E2E2E2E2E2E2E2E2E2E2E2E2E2E2E2BEE2E2E2E2E2E2E2E2DCE2E2E2E2E2E2E2E2E2E2E2E2E2E2E2E2E2E2E2E2E2E2E2E2E2E2E2E2E2E2E2E2E2E2E2E2E2E2E2BEE2E2E2E2E2E2E2E2E2E2E2E2E2E2E2E2E2E2E2E2E2E2E2E2E2E2E2E2E2E2E2E2E2E2E2E2E2E2E2E2DCE2E2
310
BEE2E2E2E2E2E2E2E2E2E2E2E2E2E2E2E2E2E2E2E2E2E2E2E2E2E2E2E2E2E2E2E2E2E2E2E2E2E2E2E2E2E2E2E2E2E2E2E2E2E2E2E2E2E2E2E2E2E2E2E2E2E2E2E2E2E2E2E2E2E2E2E2E2E2E2E2E2E2E2E2E2E2E2E2E2E2E2E2E2E2E2E2E2E2E2E2E2E2E2E2E2E2E2E2E2E2E2E2E2E2E2E2E2E2E2E2E2E2E2E2E2E2E2E2E2E2
310
E2E2E2E2E2E2E2E2E2E2E2E2E2E2E2E2E2E2E2E2E2E2E2E2E2E2E2E2E2E2E2E2E2E2E2E2BEE2E2E2E2E2E2E2E2DCF5F5F5F5F5E2E2E2E2E2E2E2E2E2E2E2E2E2E2E2E2E2E2E2E2E2E2E2E2E2E2E2E2E2E2E2E2E2E2F5E2F5F5E2E2E2E2E2E2E2E2E2E2E2E2E2E2E2E2E2E2E2E2E2E2E2E2E2E2E2E2E2E2E2E2E2E2E2E2E2DC
310
E2E2BEE2E2E2E2E2E2E2E2E2E2E2E2E2E2E2E2E2E2E2E2E2E2E2E2E2E2E2E2E2E2E2E2E2E2E2E2E2E2E2E2E2E2E2E2E2E2E2E2E2E2E2E2E2E2E2E2E2E2E2E2E2E2E2E2E2E2E2E2E2E2E2E2E2E2E2E2E2E2E2E2E2E2E2E2E2E2E2E2E2E2E2E2E2E2E2E2E2E2E2E2E2E2E2E2E2E2E2E2E2E2E2E2E2E2E2E2E2E2E2E2E2E2E2E2
310
E2E2E2E2E2E2E2E2E2E2E2E2E2E2E2E2E2E2E2E2E2E2E2E2E2E2E2E2E2E2E2E2E2E2E2E2E2E2BEE2E2E2E2E2E2E2E2DCF5F5F5F5F5E2E2E2E2E2E2E2E2E2E2E2E2E2E2E2E2E2E2E2E2E2E2E2E2E2E2E2E2E2E2E2E2E2E2F5F5F5F5F5E2E2E2E2E2E2E2E2E2E2E2E2E2E2E2E2E2E2E2E2E2E2E2E2E2E2E2E2E2E2E2E2E2E2E2
310
E2DCE2E2BEE2E2E2E2E2E2E2E2E2E2E2E2E2E2E2E2E2E2E2E2E2E2E2E2E2E2E2E2E2E2E2E2E2E2E2E2E2E2E2E2E2E2E2E2E2E2E2E2E2E2E2E2E2E2E2E2E2E2E2E2E2E2E2E2E2E2E2E2E2E2E2E2E2E2E2E2E2E2E2E2E2E2E2E2E2E2E2E2E2E2E2E2E2E2E2E2E2E2E2E2E2E2E2E2E2E2E2E2E2E2E2E2E2E2E2E2E2E2E2E2E2E2
310
E2E2E2E2E2E2E2E2E2E2E2E2E2E2E2E2E2E2E2E2E2E2E2E2E2E2E2E2E2E2E2E2E2E2E2E2E2E2E2E2BEE2E2E2E2E2E2E2E2BEDCBEBEBEBEBEBEBEBEBEBEBEBEBEBEBEBEBEBEBEBEBEBEBEBEBEBEBEBEBEBEBEBEBEBEBEBEBEBEDCBEBEBEBEBEBEBEBEBEBEBEBEBEBEBEBEBEBEBEBEBEBEBEBEBEBEBEBEBEBEBEBEBEBEBEBEBE
310
BEBEBEBEE2E2BEE2E2E2E2E2E2E2E2E2E2E2E2E2E2E2E2E2E2E2E2E2E2E2E2E2E2E2E2E2E2E2E2E2E2E2E2E2E2E2E2E2E2E2E2E2E2E2E2E2E2E2E2E2E2E2E2E2E2E2E2E2E2E2E2E2E2E2E2E2E2E2E2E2E2E2E2E2E2E2E2E2E2E2E2E2E2E2E2E2E2E2E2E2E2E2E2E2E2E2E2E2E2E2E2E2E2E2E2E2E2E2E2E2E2E2E2E2E2E2E2
310
E2E2E2E2E2E2E2E2E2E2E2E2E2E2E2E2E2E2E2E2E2E2E2E2E2E2E2E2E2E2E2E2E2E2E2E2E2E2E2E2E2E2BEE2E2E2E2E2E2E2E2DCE2E2E2E2E2E2E2E2E2E2E2E2E2E2E2E2E2E2E2E2E2E2E2E2E2E2E2E2E2E2E2E2E2E2E2E2E2E2E2BEE2E2E2E2E2E2E2E2E2E2E2E2E2E2E2E2E2E2E2E2E2E2E2E2E2E2E2E2E2E2E2E2E2E2E2
310
E2E2E2E2E2DCE2E2BEE2E2E2E2E2E2E2E2E2E2E2E2E2E2E2E2E2E2E2E2E2E2E2E2E2E2E2E2E2E2E2E2E2E2E2E2E2E2E2E2E2E2E2E2E2E2E2E2E2E2E2E2E2E2E2E2E2E2E2E2E2E2E2E2E2E2E2E2E2E2E2E2E2E2E2E2E2E2E2E2E2E2E2E2E2E2E2E2E2E2E2E2E2E2E2E2E2E2E2E2E2E2E2E2E2E2E2E2E2E2E2E2E2E2E2E2E2E2
310
E2E2E2E2E2E2E2E2E2E2E2E2E2E2E2E2E2E2E2E2E2E2E2E2E2E2E2E2E2E2E2E2E2E2E2E2E2E2E2E2E2E2E2E2BEE2E2E2E2E2E2E2E2DCE2E2E2E2E2E2E2E2E2E2E2E2E2E2E2E2E2E2E2E2E2E2E2E2E2E2E2E2E2E2E2E2E2E2E2E2E2E2E2BEE2E2F5E2E2E2E2E2E2E2E2E2E2E2E2E2E2E2E2E2E2E2E2E2E2E2E2E2E2E2E2E2E2
310
E2E2E2E2E2E2E2DCE2E2BEE2E2E2E2E2E2E2E2E2E2E2E2E2E2E2E2E2E2E2E2E2E2E2E2E2E2E2E2E2E2E2E2E2E2E2E2E2E2E2E2E2E2E2E2E2E2E2E2E2E2E2E2E2E2E2E2E2E2E2E2E2E2E2E2E2E2E2E2E2E2E2E2E2E2E2E2E2E2E2E2E2E2E2E2E2E2E2E2E2E2E2E2E2E2E2E2E2E2E2E2E2E2E2E2E2E2E2E2E2E2E2E2E2E2E2E2
310
E2E2E2E2E2E2E2E2E2E2E2E2E2E2E2E2E2E2E2E2E2E2E2E2E2E2E2E2E2E2E2E2E2E2E2E2E2E2E2E2E2E2E2E2E2E2BEE2E2E2E2E2E2E2E2DCF5F5F5F5F5F5E2E2E2E2E2E2E2E2E2E2E2E2E2E2E2E2E2E2E2E2E2E2E2E2E2E2E2E2E2E2E2E2E2F5F5F5F5F5F5F5F5E2E2E2E2E2E2E2E2E2E2E2E2E2E2E2E2E2E2E2E2E2E2E2E2
310
E2E2E2E2E2E2E2E2E2DCE2E2BEE2E2E2E2E2E2E2E2E2E2E2E2E2E2E2E2E2E2E2E2E2E2E2E2E2E2E2E2E2E2E2E2E2E2E2E2E2E2E2E2E2E2E2E2E2E2E2E2E2E2E2E2E2E2E2E2E2E2E2E2E2E2E2E2E2E2E2E2E2E2E2E2E2E2E2E2E2E2E2E2E2E2E2E2E2E2E2E2E2E2E2E2E2E2E2E2E2E2E2E2E2E2E2E2E2E2E2E2E2E2E2E2E2E2
310
E2E2E2E2E2E2E2E2E2E2E2E2E2E2E2E2E2E2E2E2E2E2E2E2E2E2E2E2E2E2E2E2E2E2E2E2E2E2E2E2E2E2E2E2E2E2E2E2BEE2E2E2E2E2E2E2E2DCF5F5DCDCF5DCDCDCDCDCDCDCDCDCDCDCDCDCDCDCDCDCDCDCDCDCDCDCDCDCDCDCDCDCDCDCDCDCDCDCF5DCDCF5F5F5DCDCDCDCDCDCDCDCDCDCDCDCDCDCDCDCDCDCDCDCDCDCDC
310
DCDCDCDCDCDCDCDCDCDCDCDCE2E2BEE2E2E2E2E2E2E2E2E2E2E2E2E2E2E2E2E2E2E2E2E2E2E2E2E2E2E2E2E2E2E2E2E2E2E2E2E2E2E2E2E2E2E2E2E2E2E2E2E2E2E2E2E2E2E2E2E2E2E2E2E2E2E2E2E2E2E2E2E2E2E2E2E2E2E2E2E2E2E2E2E2E2E2E2E2E2E2E2E2E2E2E2E2E2E2E2E2E2E2E2E2E2E2E2E2E2E2E2E2E2E2E2
310
E2E2E2E2E2E2E2E2E2E2E2E2E2E2E2E2E2E2E2E2E2E2E2E2E2E2E2E2E2E2E2E2E2E2E2E2E2E2E2E2E2E2E2E2E2E2E2E2E2E2BEE2E2E2E2E2E2E2E2DCE2E2E2E2E2E2E2E2E2E2E2E2E2E2E2E2E2E2E2E2E2E2E2E2E2E2E2E2E2E2E2E2E2E2E2E2E2E2E2E2E2E2E2E2E2E2E2E2E2E2E2E2E2E2E2E2E2E2E2E2E2E2E2E2E2E2E2
310
E2E2E2E2E2E2E2E2E2E2E2E2E2DCE2E2BEE2E2E2E2E2E2E2E2E2E2E2E2E2E2E2E2E2E2E2E2E2E2E2E2E2E2E2E2E2E2E2E2E2E2E2E2E2E2E2E2E2E2E2E2E2E2E2E2E2E2E2E2E2E2E2E2E2E2E2E2E2E2E2E2E2E2E2E2E2E2E2E2E2E2E2E2E2E2E2E2E2E2E2E2E2E2E2E2E2E2E2E2E2E2E2E2E2E2E2E2E2E2E2E2E2E2E2E2E2E2
310
E2E2E2E2E2E2E2E2E2E2E2E2E2E2E2E2E2E2E2E2E2E2E2E2E2E2E2E2E2E2E2E2E2E2E2E2E2E2E2E2E2E2E2E2E2E2E2E2E2E2E2E2BEE2E2E2E2E2E2E2E2DCE2E2E2E2E2E2E2E2E2E2E2E2E2E2E2E2E2E2E2E2E2E2E2E2E2E2E2E2E2E2E2E2E2E2E2E2E2E2E2E2E2E2E2E2E2E2E2E2E2E2E2E2E2E2E2E2E2E2E2E2E2E2E2E2E2
310
E2E2E2E2E2E2E2E2E2E2E2E2E2E2E2DCE2E2BEE2E2E2E2E2E2E2E2E2E2E2E2E2E2E2E2E2E2E2E2E2E2E2E2E2E2E2E2E2E2E2E2E2E2E2E2E2E2E2E2E2E2E2E2E2E2E2E2E2E2E2E2E2E2E2E2E2E2E2E2E2E2E2E2E2E2E2E2E2E2E2E2E2E2E2E2E2E2E2E2E2E2E2E2E2E2E2E2E2E2E2E2E2E2E2E2E2E2E2E2E2E2E2E2E2E2E2E2
310
E2E2E2E2E2E2E2E2E2E2E2E2E2E2E2E2E2E2E2E2E2E2E2E2E2E2E2E2E2E2E2E2E2E2E2E2E2E2E2E2E2E2E2E2E2E2E2E2E2E2E2E2E2E2BEE2E2E2E2E2E2E2E2DCE2E2E2E2E2E2E2E2E2E2E2E2E2E2E2E2E2E2E2E2E2E2E2E2E2E2E2E2E2E2E2E2E2E2E2E2E2E2E2E2E2E2E2E2E2E2E2E2E2E2E2E2E2E2E2E2E2E2E2E2E2E2E2
310
E2E2E2E2E2E2E2E2E2E2E2E2E2E2E2E2E2DCE2E2BEE2E2E2E2E2E2E2E2E2E2E2E2E2E2E2E2E2E2E2E2E2E2E2E2E2E2E2E2E2E2E2E2E2E2E2E2E2E2E2E2E2E2E2E2E2E2E2E2E2E2E2E2E2E2E2E2E2E2E2E2E2E2E2E2E2E2E2E2E2E2E2E2E2E2E2E2E2E2E2E2E2E2E2E2E2E2E2E2E2E2E2E2E2E2E2E2E2E2E2E2E2E2E2E2E2E2
310
E2E2E2E2E2E2E2E2E2E2E2E2E2E2E2E2E2E2E2E2E2E2E2E2E2E2E2E2E2E2E2E2E2E2E2E2E2E2E2E2E2E2E2E2E2E2E2E2E2E2E2E2E2E2E2E2BEE2E2E2E2E2E2E2E2DCE2E2E2E2E2E2E2E2E2E2E2E2E2E2E2E2E2E2E2E2E2E2E2E2E2E2E2E2E2E2E2E2E2E2E2E2E2E2E2E2E2E2E2E2E2E2E2E2E2E2E2E2E2E2E2E2E2E2E2E2E2
310
E2E2E2E2E2E2E2E2E2E2E2E2E2E2E2E2E2E2E2DCE2E2BEE2E2E2E2E2E2E2E2E2E2E2E2E2E2E2E2E2E2E2E2E2E2E2E2E2E2E2E2E2E2E2E2E2E2E2E2E2E2E2E2E2E2E2E2E2E2E2E2E2E2E2E2E2E2E2E2E2E2E2E2E2E2E2E2E2E2E2E2E2E2E2E2E2E2E2E2E2E2E2E2E2E2E2E2E2E2E2E2E2E2E2E2E2E2E2E2E2E2E2E2E2E2E2E2
310
E2E2E2E2E2E2E2E2E2E2E2E2E2E2E2E2E2E2E2E2E2E2E2E2E2E2E2E2E2E2E2E2E2E2E2E2E2E2E2E2E2E2E2E2E2E2E2E2E2E2E2E2E2E2E2E2E2E2BEE2E2E2E2E2E2E2E2DCE2E2E2E2E2E2E2E2E2E2E2E2E2E2E2E2E2E2E2E2E2E2E2E2E2E2E2E2E2E2E2E2E2E2E2E2E2E2E2E2E2E2E2E2E2E2E2E2E2E2E2E2E2E2E2E2E2E2E2
310
E2E2E2E2E2E2E2E2E2E2E2E2E2E2E2E2E2E2E2E2E2DCE2E2BEE2E2E2E2E2E2E2E2E2E2E2E2E2E2E2E2E2E2E2E2E2E2E2E2E2E2E2E2E2E2E2E2E2E2E2E2E2E2E2E2E2E2E2E2E2E2E2E2E2E2E2E2E2E2E2E2E2E2E2E2E2E2E2E2E2E2E2E2E2E2E2E2E2E2E2E2E2E2E2E2E2E2E2E2E2E2E2E2E2E2E2E2E2E2E2E2E2E2E2E2E2E2
310
E2E2E2E2E2E2E2E2E2E2E2E2E2E2E2E2E2E2E2E2E2E2E2E2E2E2E2E2E2E2E2E2E2E2E2E2E2E2E2E2E2E2E2E2E2E2E2E2E2E2E2E2E2E2E2E2E2E2E2E2BEE2E2E2E2E2E2E2E2DCE2E2E2E2E2E2E2E2E2E2E2E2E2E2E2E2E2E2E2E2E2E2E2E2E2E2E2E2E2E2E2E2E2E2E2E2E2E2E2E2E2E2E2E2E2E2E2E2E2E2E2E2E2E2E2E2E2
310
E2E2E2E2E2E2E2E2E2E2E2E2E2E2E2E2E2E2E2E2E2E2E2DCE2E2BEE2E2E2E2E2E2E2E2E2E2E2E2E2E2E2E2E2E2E2E2E2E2E2E2E2E2E2E2E2E2E2E2E2E2E2E2E2E2E2E2E2E2E2E2E2E2E2E2E2E2E2E2E2E2E2E2E2E2E2E2E2E2E2E2E2E2E2E2E2E2E2E2E2E2E2E2E2E2E2E2E2E2E2E2E2E2E2E2E2E2E2E2E2E2E2E2E2E2E2E2
310
E2E2E2E2E2E2E2E2E2E2E2E2E2E2E2E2E2E2E2E2E2E2E2E2E2E2E2E2E2E2E2E2E2E2E2E2E2E2E2E2E2E2E2E2E2E2E2E2E2E2E2E2E2E2E2E2E2E2E2E2E2E2BEE2E2E2E2E2E2E2E2DCE2E2E2E2E2E2E2E2E2E2E2E2E2E2E2E2E2E2E2E2E2E2E2E2E2E2E2E2E2E2E2E2E2E2E2E2E2E2E2E2E2E2E2E2E2E2E2E2E2E2E2E2E2E2E2
310
E2E2E2E2E2E2E2E2E2E2E2E2E2E2E2E2E2E2E2E2E2E2E2E2E2DCE2E2BEE2E2E2E2E2E2E2E2E2E2E2E2E2E2E2E2E2E2E2E2E2E2E2E2E2E2E2E2E2E2E2E2E2E2E2E2E2E2E2E2E2E2E2E2E2E2E2E2E2E2E2E2E2E2E2E2E2E2E2E2E2E2E2E2E2E2E2E2E2E2E2E2E2E2E2E2E2E2E2E2E2E2E2E2E2E2E2E2E2E2E2E2E2E2E2E2E2E2
310
E2E2E2E2E2E2E2E2E2E2E2E2E2E2E2E2E2E2E2E2E2E2E2E2E2E2E2E2E2E2E2E2E2E2E2E2E2E2E2E2E2E2E2E2E2E2E2E2E2E2E2E2E2E2E2E2E2E2E2E2E2E2E2E2BEE2E2E2E2E2E2E2E2DCE2E2E2E2E2E2E2E2E2E2E2E2E2E2E2E2E2E2E2E2E2E2E2E2E2E2E2E2E2E2E2E2E2E2E2E2E2E2E2E2E2E2E2E2E2E2E2E2E2E2E2E2E2
310
E2E2E2E2E2E2E2E2E2E2E2E2E2E2E2E2E2E2E2E2E2E2E2E2E2E2E2DCE2E2BEE2E2E2E2E2E2E2E2E2E2E2E2E2E2E2E2E2E2E2E2E2E2E2E2E2E2E2E2E2E2E2E2E2E2E2E2E2E2E2E2E2E2E2E2E2E2E2E2E2E2E2E2E2E2E2E2E2E2E2E2E2E2E2E2E2E2E2E2E2E2E2E2E2E2E2E2E2E2E2E2E2E2E2E2E2E2E2E2E2E2E2E2E2E2E2E2
310
E2E2E2E2E2E2E2E2E2E2E2E2E2E2E2E2E2E2E2E2E2E2E2E2E2E2E2E2E2E2E2E2E2E2E2E2E2E2E2E2E2E2E2E2E2E2E2E2E2E2E2E2E2E2E2E2E2E2E2E2E2E2E2E2E2E2BEE2E2E2E2E2E2E2E2DCE2E2E2E2E2E2E2E2E2E2E2E2E2E2E2E2E2E2E2E2E2E2E2E2E2E2E2E2E2E2E2E2E2E2E2E2E2E2E2E2E2E2E2E2E2E2E2E2E2E2E2
310
E2E2E2E2E2E2E2E2E2E2E2E2E2E2E2E2E2E2E2E2E2E2E2E2E2E2E2E2E2DCE2E2BEE2E2E2E2E2E2E2E2E2E2E2E2E2E2E2E2E2E2E2E2E2E2E2E2E2E2E2E2E2E2E2E2E2E2E2E2E2E2E2E2E2E2E2E2E2E2E2E2E2E2E2E2E2E2E2E2E2E2E2E2E2E2E2E2E2E2E2E2E2E2E2E2E2E2E2E2E2E2E2E2E2E2E2E2E2E2E2E2E2E2E2E2E2E2
310
E2E2E2E2E2E2E2E2E2E2E2E2E2E2E2E2E2E2E2E2E2E2E2E2E2E2E2E2E2E2E2E2E2E2E2E2E2E2E2E2E2E2E2E2E2E2E2E2E2E2E2E2E2E2E2E2E2E2E2E2E2E2E2E2E2E2E2E2BEE2E2E2E2E2E2E2E2DCE2E2E2E2E2E2E2E2E2E2E2E2E2E2E2E2E2E2E2E2E2E2E2E2E2E2E2E2E2E2E2E2E2E2E2E2E2E2E2E2E2E2E2E2E2E2E2E2E2
310
E2E2E2E2E2E2E2E2E2E2E2E2E2E2E2E2E2E2E2E2E2E2E2E2E2E2E2E2E2E2E2DCE2E2BEE2E2E2E2E2E2E2E2E2E2E2E2E2E2E2E2E2E2E2E2E2E2E2E2E2E2E2E2E2E2E2E2E2E2E2E2E2E2E2E2E2E2E2E2E2E2E2E2E2E2E2E2E2E2E2E2E2E2E2E2E2E2E2E2E2E2E2E2E2E2E2E2E2E2E2E2E2E2E2E2E2E2E2E2E2E2E2E2E2E2E2E2
310
E2E2E2E2E2E2E2E2E2E2E2E2E2E2E2E2E2E2E2E2E2E2E2E2E2E2E2E2E2E2E2E2E2E2E2E2E2E2E2E2E2E2E2E2E2E2E2E2E2E2E2E2E2E2E2E2E2E2E2E2E2E2E2E2E2E2E2E2E2E2BEE2E2E2E2E2E2E2E2DCE2E2E2E2E2E2E2E2E2E2E2E2E2E2E2E2E2E2E2E2E2E2E2E2E2E2E2E2E2E2E2E2E2E2E2E2E2E2E2E2E2E2E2E2E2E2E2
310
E2E2E2E2E2E2E2E2E2E2E2E2E2E2E2E2E2E2E2E2E2E2E2E2E2E2E2E2E2E2E2E2E2DCE2E2BEE2E2E2E2E2E2E2E2E2E2E2E2E2E2E2E2E2E2E2E2E2E2E2E2E2E2E2E2E2E2E2E2E2E2E2E2E2E2E2E2E2E2E2E2E2E2E2E2E2E2E2E2E2E2E2E2E2E2E2E2E2E2E2E2E2E2E2E2E2E2E2E2E2E2E2E2E2E2E2E2E2E2E2E2E2E2E2E2E2E2
310
E2E2E2E2E2E2E2E2E2E2E2E2E2E2E2E2E2E2E2E2E2E2E2E2E2E2E2E2E2E2E2E2E2E2E2E2E2E2E2E2E2E2E2E2E2E2E2E2E2E2E2E2E2E2E2E2E2E2E2E2E2E2E2E2E2E2E2E2E2E2E2E2BEE2E2E2E2E2E2E2E2DCE2E2E2E2E2E2E2E2E2E2E2E2E2E2E2E2E2E2E2E2E2E2E2E2E2E2E2E2E2E2E2E2E2E2E2E2E2E2E2E2E2E2E2E2E2
310
E2E2E2E2E2E2E2E2E2E2E2E2E2E2E2E2E2E2E2E2E2E2E2E2E2E2E2E2E2E2E2E2E2E2E2DCE2E2BEE2E2E2E2E2E2E2E2E2E2E2E2E2E2E2E2E2E2E2E2E2E2E2E2E2E2E2E2E2E2E2E2E2E2E2E2E2E2E2E2E2E2E2E2E2E2E2E2E2E2E2E2E2E2E2E2E2E2E2E2E2E2E2E2E2E2E2E2E2E2E2E2E2E2E2E2E2E2E2E2E2E2E2E2E2E2E2E2
310
E2E2E2E2E2E2E2E2E2E2E2E2E2E2E2E2E2E2E2E2E2E2E2E2E2E2E2E2E2E2E2E2E2E2E2E2E2E2E2E2E2E2E2E2E2E2E2E2E2E2E2E2E2E2E2E2E2E2E2E2E2E2E2E2E2E2E2E2E2E2E2E2E2E2BEE2E2E2E2E2E2E2E2DCE2E2E2E2E2E2E2E2E2E2E2E2E2E2E2E2E2E2E2E2E2E2E2E2E2E2E2E2E2E2E2E2E2E2E2E2E2E2E2E2E2E2BE
310
BEE2E2E2E2E2E2E2E2E2E2E2E2E2E2E2E2E2E2E2E2E2E2E2E2E2E2E2E2E2E2E2E2E2E2E2E2DCE2E2BEE2E2E2E2E2E2E2E2E2E2E2E2E2E2E2E2E2E2E2E2E2E2E2E2E2E2E2E2E2E2E2E2E2E2E2E2E2E2E2E2E2E2E2E2E2E2E2E2E2E2E2E2E2E2E2E2E2E2E2E2E2E2E2E2E2E2E2E2E2E2E2E2E2E2E2E2E2E2E2E2E2E2E2E2E2E2
310
E2E2E2E2E2E2E2E2E2E2E2E2E2E2E2E2E2E2E2E2E2E2E2E2E2E2E2E2E2E2E2E2E2E2E2E2E2E2E2E2E2E2E2E2E2E2E2E2E2E2E2E2E2E2E2E2E2E2E2E2E2E2E2E2E2E2E2E2E2E2E2E2E2E2E2E2BEE2E2E2E2E2E2E2E2DCE2E2E2E2E2E2E2E2E2E2E2E2E2E2E2E2E2E2E2E2E2E2E2E2E2E2E2E2E2E2E2E2E2E2E2E2E2E2E2E2E2
310
E2BEBE2DE2E2E2E2E2E2E2E2E2E2E2E2E2E2E2E2E2E2E2E2E2E2E2E2E2E2E2E2E2E2E2E2E2E2E2DCE2E2BEE2E2E2E2E2E2E2E2E2E2E2E2E2E2E2E2E2E2E2E2E2E2E2E2E2E2E2E2E2E2E2E2E2E2E2E2E2E2E2E2E2E2E2E2E2E2E2E2E2E2E2E2E2E2E2E2E2E2E2E2E2E2E2E2E2E2E2E2E2E2E2E2E2E2E2E2E2E2E2E2E2E2E2E2
310
E2E2E2E2E2E2E2E2E2E2E2E2E2E2E2E2E2E2E2E2E2E2E2E2E2E2E2E2E2E2E2E2E2E2E2E2E2E2E2E2E2E2E2E2E2E2E2E2E2E2E2E2E2E2E2E2E2E2E2E2E2E2E2E2E2E2E2E2E2E2E2E2E2E2E2E2E2E2BEE2E2E2E2E2E2E2E2DCE2E2E2E2E2E2E2E2E2E2E2E2E2E2E2E2E2E2E2E2E2E2E2E2E2E2E2E2E2E2E2E2E2E2E2E2E2E2E2
310
E2E2E2BE2D2DE2E2E2E2E2E2E2E2E2E2E2E2E2E2E2E2E2E2E2E2E2E2E2E2E2E2E2E2E2E2E2E2E2E2E2DCE2E2BEE2E2E2E2E2E2E2E2E2E2E2E2E2E2E2E2E2E2E2E2E2E2E2E2E2E2E2E2E2E2E2E2E2E2E2E2E2E2E2E2E2E2E2E2E2E2E2E2E2E2E2E2E2E2E2E2E2E2E2E2E2E2E2E2E2E2E2E2E2E2E2E2E2E2E2E2E2E2E2E2E2E2
310
E2E2E2E2E2E2E2E2E2E2E2E2E2E2E2E2E2E2E2E2E2E2E2E2E2E2E2E2E2E2E2E2E2E2E2E2E2E2E2E2E2E2E2E2E2E2E2E2E2E2E2E2E2E2E2E2E2E2E2E2E2E2E2E2E2E2E2E2E2E2E2E2E2E2E2E2E2E2E2E2BEE2E2E2E2E2E2E2E2DCE2E2E2E2E2E2E2E2E2E2E2E2E2E2E2E2E2E2E2E2E2E2E2E2E2E2E2E2E2E2E2E2E2E2E2E2E2
310
E2E2E2E22DF52D2D2DF52828282828282828282828282828F5F52828282828282828282828F5F528F5E2E2DCE2E2BEE2E2E2E2E2E2E2E2E2E2E2E2E2E2E2E2E2E2E2E2E2E2E2E2E2E2E2E2E2E2E2E2E2E2E2E2E2E2E2E2E2E2E2E2E2E2E2E2E2E2E2E2E2E2E2E2E2E2E2E2E2E2E2E2E2E2E2E2E2E2E2E2E2E2E2E2E2E2E2E2
310
E2E2E2E2E2E2E2E2E2E2E2E2E2E2E2E2E2E2E2E2E2E2E2E2E2E2E2E2E2E2E2E2E2E2E2E2E2E2E2E2E2E2E2E2E2E2E2E2E2E2E2E2E2E2E2E2E2E2E2E2E2E2E2E2E2E2E2E2E2E2E2E2E2E2E2E2E2E2E2E2E2E2BEE2E2E2E2E2E2E2E2DCE2E2E2E2E2E2E2E2E2E2E2E2E2E2E2E2E2E2E2E2E2E2E2E2E2E2E2E2E2E2E2E2E2E2E2
310
E2E2E2E2E2E22D2DE22DE2F5E2E2E2E2E2E2E2E2E2E2E2E2E2E2E2E2E2E2E2E2E2E2E2E2E2E2E2E2E228F5E2E2DCE2E2BEE2E2E2E2E2E2E2E2E2E2E2E2E2E2E2E2E2E2E2E2E2E2E2E2E2E2E2E2E2E2E2E2E2E2E2E2E2E2E2E2E2E2E2E2E2E2E2E2E2E2E2E2E2E2E2E2E2E2E2E2E2E2E2E2E2E2E2E2E2E2E2E2E2E2E2E2E2E2
310
E2E2E2E2E2E2E2E2E2E2E2E2E2E2E2E2E2E2E2E2E2E2E2E2E2E2E2E2E2E2E2E2E2E2E2E2E2E2E2E2E2E2E2E2E2E2E2E2E2E2E2E2E2E2E2E2E2E2E2E2E2E2E2E2E2E2E2E2E2E2E2E2E2E2E2E2E2E2E2E2E2E2E2E2BEE2E2E2E2E2E2E2E2DCE2E2E2E2E2E2E2E2E2E2E2E2E2E2E2E2E2E2E2E2E2E2E2E2E2E2E2E2E2E2E2E2E2
310
E2E2E2E2E2E2E2E2E22DE22DE2F5E2E2E2E2E2E2E2E2E2E2E2E2E2E2E2E2E2E2E2E2E2E2E2E2E2E2E2E2E228F5E2E2DCE2E2BEE2E2E2E2E2E2E2E2E2E2E2E2E2E2E2E2E2E2E2E2E2E2E2E2E2E2E2E2E2E2E2E2E2E2E2E2E2E2E2E2E2E2E2E2E2E2E2E2E2E2E2E2E2E2E2E2E2E2E2E2E2E2E2E2E2E2E2E2E2E2E2E2E2E2E2E2
310
E2E2E2E2E2E2E2E2E2E2E2E2E2E2E2E2E2E2E2E2E2E2E2E2E2E2E2E2E2E2E2E2E2E2E2E2E2E2E2E2E2E2E2E2E2E2E2E2E2E2E2E2E2E2E2E2E2E2E2E2E2E2E2E2E2E2E2E2E2E2E2E2E2E2E2E2E2E2E2E2E2E2E2E2E2E2BEE2E2E2E2E2E2E2E2DCE2E2E2E2E2E2E2E2E2E2E2E2E2E2E2E2E2E2E2E2E2E2E2E2E2E2E2E2E2E2E2
310
E2E2E2E2E2E2E2E2E2E2E22D2DF52DF528F5F5F5F5F5F5F5F5F5F5F5F5F5F5F5F5F5F5F5F5F5F5F5F5F5F5F52828F5E2E2DCE2E2BEE2E2E2E2E2E2E2E2E2E2E2E2E2E2E2E2E2E2E2E2E2E2E2E2E2E2E2E2E2E2E2E2E2E2E2E2E2E2E2E2E2E2E2E2E2E2E2E2E2E2E2E2E2E2E2E2E2E2E2E2E2E2E2E2E2E2E2E2E2E2E2E2E2E2
310
E2E2E2E2E2E2E2E2E2E2E2E2E2E2E2E2E2E2E2E2E2E2E2E2E2E2E2E2E2E2E2E2E2E2E2E2E2E2E2E2E2E2E2E2E2E2E2E2E2E2E2E2E2E2E2E2E2E2E2E2E2E2E2E2E2E2E2E2E2E2E2E2E2E2E2E2E2E2E2E2E2E2E2E2E2E2E2E2BEE2E2E2E2E2E2E2E2DCE2E2E2E2E2E2E2E2E2E2E2E2E2E2E2E2E2E2E2E2E2E2E2E2E2E2E2E2E2
310
E2E2E2E2E2E2E2E2E2E2E2E2E22D2D2DE22828E2E2E2E2E2E2E2E2E2E2E2E2E2E2E2E2E2E2E2E2E2E2E2E2E2E2E22828F5E2E2DCE2E2BEE2E2E2E2E2E2E2E2E2E2E2E2E2E2E2E2E2E2E2E2E2E2E2E2E2E2E2E2E2E2E2E2E2E2E2E2E2E2E2E2E2E2E2E2E2E2E2E2E2E2E2E2E2E2E2E2E2E2E2E2E2E2E2E2E2E2E2E2E2E2E2E2
310
E2E2E2E2E2E2E2E2E2E2E2E2E2E2E2E2E2E2E2E2E2E2E2E2E2E2E2E2E2E2E2E2E2E2E2E2E2E2E2E2E2E2E2E2E2E2E2E2E2E2E2E2E2E2E2E2E2E2E2E2E2E2E2E2E2E2E2E2E2E2E2E2E2E2E2E2E2E2E2E2E2E2E2E2E2E2E2E2E2E2BEE2E2E2E2E2E2E2E2DCE2E2E2E2E2E2E2E2E2E2E2E2E2E2E2E2E2E2E2E2E2E2E2E2E2E2E2
310
E2E2E2E2E2E2E2E2E2E2E2E2E2E2E22DE22DE22828E2E2E2E2E2E2E2E2E2E2E2E2E2E2E2E2E2E2E2E2E2E2E2E2E2E2E22828F5E2E2DCE2E2BEE2E2E2E2E2E2E2E2E2E2E2E2E2E2E2E2E2E2E2E2E2E2E2E2E2E2E2E2E2E2E2E2E2E2E2E2E2E2E2E2E2E2E2E2E2E2E2E2E2E2E2E2E2E2E2E2E2E2E2E2E2E2E2E2E2E2E2E2E2E2
310
E2E2E2E2E2E2E2E2E2E2E2E2E2E2E2E2E2E2E2E2E2E2E2E2E2E2E2E2E2E2E2E2E2E2E2E2E2E2E2E2E2E2E2E2E2E2E2E2E2E2E2E2E2E2E2E2E2E2E2E2E2E2E2E2E2E2E2E2E2E2E2E2E2E2E2E2E2E2E2E2E2E2E2E2E2E2E2E2E2E2E2E2BEE2E2E2E2E2E2E2E2DCE2E2E2E2E2E2E2E2E2E2E2E2E2E2E2E2E2E2E2E2E2E2E2E2E2
310
E2E2E2E2E2E2E2E2E2E2E2E2E2E2E2E2E22DE22DE22828E2E2E2E2E2E2E2E2E2E2E2E2E2E2E2E2E2E2E2E2E2E2E2E2E2E2E22828F5E2E2DCE2E2BEE2E2E2E2E2E2E2E2E2E2E2E2E2E2E2E2E2E2E2E2E2E2E2E2E2E2E2E2E2E2E2E2E2E2E2E2E2E2E2E2E2E2E2E2E2E2E2E2E2E2E2E2E2E2E2E2E2E2E2E2E2E2E2E2E2E2E2E2
310
E2E2E2E2E2E2E2E2E2E2E2E2E2E2E2E2E2E2E2E2E2E2E2E2E2E2E2E2E2E2E2E2E2E2E2E2E2E2E2E2E2E2E2E2E2E2E2E2E2E2E2E2E2E2E2E2E2E2E2E2E2E2E2E2E2E2E2E2E2E2E2E2E2E2E2E2E2E2E2E2E2E2E2E2E2E2E2E2E2E2E2E2E2E2BEE2E2E2E2E2E2E2E2DCE2E2E2E2E2E2E2E2E2E2E2E2E2E2E2E2E2E2E2E2E2E2E2
310
E2E2E2E2E2E2E2E2E2E2E2E2E2E2E2E2E2E2E22DE22DE22828E2E2E2E2E2E2E2E2E2E2E2E2E2E2E2E2E2E2E2E2E2E2E2E2E2E2E22828F5E2E2DCE2E2BEE2E2E2E2E2E2E2E2E2E2E2E2E2E2E2E2E2E2E2E2E2E2E2E2E2E2E2E2E2E2E2E2E2E2E2E2E2E2E2E2E2E2E2E2E2E2E2E2E2E2E2E2E2E2E2E2E2E2E2E2E2E2E2E2E2E2
310
E2E2E2E2E2E2E2E2E2E2E2E2E2E2E2E2E2E2E2E2E2E2E2E2E2E2E2E2E2E2E2E2E2E2E2E2E2E2E2E2E2E2E2E2E2E2E2E2E2E2E2E2E2E2E2E2E2E2E2E2E2E2E2E2E2E2E2E2E2E2E2E2E2E2E2E2E2E2E2E2E2E2E2E2E2E2E2E2E2E2E2E2E2E2E2E2BEE2E2E2E2E2E2E2E2DCE2E2E2E2E2E2E2E2E2E2E2E2E2E2E2E2E2E2E2E2E2
310
E2E2E2E2E2E2E2E2E2E2E2E2E2E2E2E2E2E2E2BEBE2DE22DE22828E2E2E2E2E2E2E2E2E2E2E2E2E2E2E2E2E2E2E2E2E2E2E2E2E2E2E22828F5E2E2DCE2E2BEE2E2E2E2E2E2E2E2E2E2E2E2E2E2E2E2E2E2E2E2E2E2E2E2E2E2E2E2E2E2E2E2E2E2E2E2E2E2E2E2E2E2E2E2E2E2E2E2E2E2E2E2E2E2E2E2E2E2E2E2E2E2E2E2
310
E2E2E2E2E2E2E2E2E2E2E2E2E2E2E2E2E2E2E2E2E2E2E2E2E2E2E2E2E2E2E2E2E2E2E2E2E2E2E2E2E2E2E2E2E2E2E2E2E2E2E2E2E2E2E2E2E2E2E2E2E2E2E2E2E2E2E2E2E2E2E2E2E2E2E2E2E2E2E2E2E2E2E2E2E2E2E2E2E2E2E2E2E2E2E2E2E2E2BEE2E2E2E2E2E2E2E2DCE2E2E2E2E2E2E2E2E2E2E2E2E2E2E2E2E2E2E2
310
E2E2E2E2E2E2E2E2E2E2E2E2E2E2E2E2E2E2E2E2E2BEBE2DBE2DE22828E2E2E2E2E2E2E2E2E2E2E2E2E2E2E2E2E2E2E2E2E2E2E2E2E2E2E22828F5E2E2DCE2E2BEE2E2E2E2E2E2E2E2E2E2E2E2E2E2E2E2E2E2E2E2E2E2E2E2E2E2E2E2E2E2E2E2E2E2E2E2E2E2E2E2E2E2E2E2E2E2E2E2E2E2E2E2E2E2E2E2E2E2E2E2E2E2
310
E2E2E2E2E2E2E2E2E2E2E2E2E2E2E2E2E2E2E2E2E2E2E2E2E2E2E2E2E2E2E2E2E2E2E2E2E2E2E2E2E2E2E2E2E2E2E2E2E2E2E2E2E2E2E2E2E2E2E2E2E2E2E2E2E2E2E2E2E2E2E2E2E2E2E2E2E2E2E2E2E2E2E2E2E2E2E2E2E2E2E2E2E2E2E2E2E2E2E2E2BEE2E2E2E2E2E2E2E2DCE2E2E2E2E2E2E2E2E2E2E2E2E2E2E2E2E2
310
E2E2E2E2E2E2E2E2E2E2E2E2E2E2E2E2E2E2E2E2E2E2E2BEBE2DBE2DE22828E2E2E2E2E2E2E2E2E2E2E2E2E2E2E2E2E2E2E2E2E2E2E2E2E2E2E22828F5E2E2DCE2E2BEE2E2E2E2E2E2E2E2E2E2E2E2E2E2E2E2E2E2E2E2E2E2E2E2E2E2E2E2E2E2E2E2E2E2E2E2E2E2E2E2E2E2E2E2E2E2E2E2E2E2E2E2E2E2E2E2E2E2E2E2
310
E2E2E2E2E2E2E2E2E2E2E2E2E2E2E2E2E2E2E2E2E2E2E2E2E2E2E2E2E2E2E2E2E2E2E2E2E2E2E2E2E2E2E2E2E2E2E2E2E2E2E2E2E2E2E2E2E2E2E2E2E2E2E2E2E2E2E2E2E2E2E2E2E2E2E2E2E2E2E2E2E2E2E2E2E2E2E2E2E2E2E2E2E2E2E2E2E2E2E2E2E2E2BEE2E2E2E2E2E2E2E2DCE2E2E2E2E2E2E2E2E2E2E2E2E2E2E2
310
E2E2E2E2E2E2E2E2E2E2E2E2E2E2E2E2E2E2E2E2E2E2E2E2E2E2E22DBE2DE22828E2E2E2E2E2E2E2E2E2E2E2E2E2E2E2E2E2E2E2E2E2E2E2E2E2E2E22828F5E2E2DCE2E2BEE2E2E2E2E2E2E2E2E2E2E2E2E2E2E2E2E2E2E2E2E2E2E2E2E2E2E2E2E2E2E2E2E2E2E2E2E2E2E2E2E2E2E2E2E2E2E2E2E2E2E2E2E2E2E2E2E2E2
310
E2E2E2E2E2E2E2E2E2E2E2E2E2E2E2E2E2E2E2E2E2E2E2E2E2E2E2E2E2E2E2E2E2E2E2E2E2E2E2E2E2E2E2E2E2E2E2E2E2E2E2E2E2E2E2E2E2E2E2E2E2E2E2E2E2E2E2E2E2E2E2E2E2E2E2E2E2E2E2E2E2E2E2E2E2E2E2E2E2E2E2E2E2E2E2E2E2E2E2E2E2E2E2E2BEE2E2E2E2E2E2E2E2DCE2E2E2E2E2E2E2E2E2E2E2E2E2
310
E2E2E2E2E2E2E2E2E2E2E2E2E2E2E2E2E2E2E2E2E2E2E2E2E2E2E2E2E22DBE2DE22828E2E2E2E2E2E2E2E2E2E2E2E2E2E2E2E2E2E2E2E2E2E2E2E2E2E2E22828F5E2E2DCE2E2BEE2E2E2E2E2E2E2E2E2E2E2E2E2E2E2E2E2E2E2E2E2E2E2E2E2E2E2E2E2E2E2E2E2E2E2E2E2E2E2E2E2E2E2E2E2E2E2E2E2E2E2E2E2E2E2E2
310
E2E2E2E2E2E2E2E2E2E2E2E2E2E2E2E2E2E2E2E2E2E2E2E2E2E2E2E2E2E2E2E2E2E2E2E2E2E2E2E2E2E2E2E2E2E2E2E2E2E2E2E2E2E2E2E2E2E2E2E2E2E2E2E2E2E2E2E2E2E2E2E2E2E2E2E2E2E2E2E2E2E2E2E2E2E2E2E2E2E2E2E2E2E2E2E2E2E2E2E2E2E2E2E2E2E2BEE2E2E2E2E2E2E2E2DCE2E2E2E2E2E2E2E2E2E2E2
310
E2E2E2E2E2E2E2E2E2E2E2E2E2E2E2E2E2E2E2E2E2E2E2E2E2E2E2E2E2E2E22DE22DE22828E2E2E2E2E2E2E2E2E2E2E2E2E2E2E2E2E2E2E2E2E2E2E2E2E2E2E22828F5E2E2DCE2E2BEE2E2E2E2E2E2E2E2E2E2E2E2E2E2E2E2E2E2E2E2E2E2E2E2E2E2E2E2E2E2E2E2E2E2E2E2E2E2E2E2E2E2E2E2E2E2E2E2E2E2E2E2E2E2
310
E2E2E2E2E2E2E2E2E2E2E2E2E2E2E2E2E2E2E2E2E2E2E2E2E2E2E2E2E2E2E2E2E2E2E2E2E2E2E2E2E2E2E2E2E2E2E2E2E2E2E2E2E2E2E2E2E2E2E2E2E2E2E2E2E2E2E2E2E2E2E2E2E2E2E2E2E2E2E2E2E2E2E2E2E2E2E2E2E2E2E2E2E2E2E2E2E2E2E2E2E2E2E2E2E2E2E2E2BEE2E2E2E2E2E2E2E2DCE2E2E2E2E2E2E2E2E2
310
E2E2E2E2E2E2E2E2E2E2E2E2E2E2E2E2E2E2E2E2E2E2E2E2E2E2E2E2E2E2E2E2E22DE22DE22828E2E2E2E2E2E2E2E2E2E2E2E2E2E2E2E2E2E2E2E2E2E2E2E2E2E2E22828F5E2E2DCE2E2BEE2E2E2E2E2E2E2E2E2E2E2E2E2E2E2E2E2E2E2E2E2E2E2E2E2E2E2E2E2E2E2E2E2E2E2E2E2E2E2E2E2E2E2E2E2E2E2E2E2E2E2E2
310
E2E2E2E2E2E2E2E2E2E2E2E2E2E2E2E2E2E2E2E2E2E2E2E2E2E2E2E2E2E2E2E2E2E2E2E2E2E2E2E2E2E2E2E2E2E2E2E2E2E2E2E2E2E2E2E2E2E2E2E2E2E2E2E2E2E2E2E2E2E2E2E2E2E2E2E2E2E2E2E2E2E2E2E2E2E2E2E2E2E2E2E2E2E2E2E2E2E2E2E2E2E2E2E2E2E2E2E2E2E2BEE2E2E2E2E2E2E2E2DCE2E2E2E2E2E2E2
310
E2E2E2E2E2E2E2E2E2E2E2E2E2E2E2E2E2E2E2E2E2E2E2E2E2E2E2E2E2E2E2E2E2E2E22DE22DE22828BE28282828282828282828282828282828282828282828282828BE2828F5E2E2DCE2E2BEE2E2E2E2E2E2E2E2E2E2E2E2E2E2E2E2E2E2E2E2E2E2E2E2E2E2E2E2E2E2E2E2E2E2E2E2E2E2E2E2E2E2E2E2E2E2E2E2E2E2
310
E2E2E2E2E2E2E2E2E2E2E2E2E2E2E2E2E2E2E2E2E2E2E2E2E2E2E2E2E2E2E2E2E2E2E2E2E2E2E2E2E2E2E2E2E2E2E2E2E2E2E2E2E2E2E2E2E2E2E2E2E2E2E2E2E2E2E2E2E2E2E2E2E2E2E2E2E2E2E2E2E2E2E2E2E2E2E2E2E2E2E2E2E2E2E2E2E2E2E2E2E2E2E2E2E2E2E2E2E2E2E2E2BEE2E2E2E2E2E2E2E2DCE2E2BEBEBE
310
BEBEBEBEBEBEBEBEBEBEBEBEBEBEBEBEBEBEBEE2E2E2E2E2E2E2E2E2E2E2E2E2E2E2E2E2E22DE22DE228282828282828282828282828282828282828282828282828282828282828F5E2E2DCE2E2BEE2E2E2E2E2E2E2E2E2E2E2E2E2E2E2E2E2E2E2E2E2E2E2E2E2E2E2E2E2E2E2E2E2E2E2E2E2E2E2E2E2E2E2E2E2E2E2E2
310
E2E2E2E2E2E2E2E2E2E2E2E2E2E2E2E2E2E2E2E2E2E2E2E2E2E2E2E2E2E2E2E2E2E2E2E2E2E2E2E2E2E2E2E2E2E2E2E2E2E2E2E2E2E2E2E2E2E2E2E2E2E2E2E2E2E2E2E2E2E2E2E2E2E2E2E2E2E2E2E2E2E2E2E2E2E2E2E2E2E2E2E2E2E2E2E2E2E2E2E2E2E2E2E2E2E2E2E2E2E2E2E2E2E2BEE2E2E2E2E2E2E2E2DCE2E2E2
310
2D2DE2E22DE2E2E22DE2E22D2DE2E22DE2E2E22DE2E2E2E2E2E2E2E2E2E2E2E2E2E2E2E2E2E22D2D2D2DE22828E228E2E2E2E2E2E2E2E2E2E2E2E2E2E2E2E2E2E2E2E2E2E2E228E22828F5E2E2DCE2E2BEE2E2E2E2E2E2E2E2E2E2E2E2E2E2E2E2E2E2E2E2E2E2E2E2E2E2E2E2E2E2E2E2E2E2E2E2E2E2E2E2E2E2E2E2E2E2
310
E2E2E2E2E2E2E2E2E2E2E2E2E2E2E2E2E2E2E2E2E2E2E2E2E2E2E2E2E2E2E2E2E2E2E2E2E2E2E2E2E2E2E2E2E2E2E2E2E2E2E2E2E2E2E2E2E2E2E2E2E2E2E2E2E2E2E2E2E2E2E2E2E2E2E2E2E2E2E2E2E2E2E2E2E2E2E2E2E2E2E2E2E2E2E2E2E2E2E2E2E2E2E2E2E2E2E2E2E2E2E2E2E2E2E2E2BEE2E2E2E2E2E2E2E2DCE2
310
E2E22D2D2D2D2D2D2D2D2D2D2D2D2D2D2D2D2D2D2D2DE2E2E2E2E2E2E2E2E2E2E2E2E2E2E2E2E2E22D2D2D2D2DF5282828282828282828282828282828282828282828282828282828282828F5E2E2DCE2E2BEE2E2E2E2E2E2E2E2E2E2E2E2E2E2E2E2E2E2E2E2E2E2E2E2E2E2E2E2E2E2E2E2E2E2E2E2E2E2E2E2E2E2E2E2
310
E2E2E2E2E2E2E2E2E2E2E2E2E2E2E2E2E2E2E2E2E2E2E2E2E2E2E2E2E2E2E2E2E2E2E2E2E2E2E2E2E2E2E2E2E2E2E2E2E2E2E2E2E2E2E2E2E2E2E2E2E2E2E2E2E2E2E2E2E2E2E2E2E2E2E2E2E2E2E2E2E2E2E2E2E2E2E2E2E2E2E2E2E2E2E2E2E2E2E2E2E2E2E2E2E2E2E2E2E2E2E2E2E2E2E2E2E2E2BEE2E2E2E2E2E2E2E2
310
DCE2E2E22D2D2D2D2D2D2D2D2D2D2D2D2D2D2D2D2D2D2D2DE2E2E2E2E2E2E2E2E2E2E2E2E2E2E2E2E2E2E2E2E2E2E2E2E2E2E2E2E2E2E2E2E2E2E2E2E2E2E2E2E2E2E2E2E2E2E2E2E2E2E2E2E2E2E2E2E2DCE2E2BEE2E2E2E2E2E2E2E2E2E2E2E2E2E2E2E2E2E2E2E2E2E2E2E2E2E2E2E2E2E2E2E2E2E2E2E2E2E2E2E2E2E2
310
E2E2E2E2E2E2E2E2E2E2E2E2E2E2E2E2E2E2E2E2E2E2E2E2E2E2E2E2E2E2E2E2E2E2E2E2E2E2E2E2E2E2E2E2E2E2E2E2E2E2E2E2E2E2E2E2E2E2E2E2E2E2E2E2E2E2E2E2E2E2E2E2E2E2E2E2E2E2E2E2E2E2E2E2E2E2E2E2E2E2E2E2E2E2E2E2E2E2E2E2E2E2E2E2E2E2E2E2E2E2E2E2E2E2E2E2E2E2E2E2BEE2E2E2E2E2E2
310
E2E2DCE2E2E22D2D2D2D2D2D2D2D2D2D2D2D2D2D2D2D2D2D2D2DE2E2E22D2D2D2D2D2D2D2D2D2D2D2D2D2D2D2DF5E2E2E2E2E2E2E2E2E2E2E2E2E2E2E2E2E2E2E2E2E2E2E2E2E2E2E2E2E2E2E2E2E2E2E2E2E2DCE2E2BEE2E2E2E2E2E2E2E2E2E2E2E2E2E2E2E2E2E2E2E2E2E2E2E2E2E2E2E2E2E2E2E2E2E2E2E2E2E2E2E2
310
E2E2E2E2E2E2E2E2E2E2E2E2E2E2E2E2E2E2E2E2E2E2E2E2E2E2E2E2E2E2E2E2E2E2E2E2E2E2E2E2E2E2E2E2E2E2E2E2E2E2E2E2E2E2E2E2E2E2E2E2E2E2E2E2E2E2E2E2E2E2E2E2E2E2E2E2E2E2E2E2E2E2E2E2E2E2E2E2E2E2E2E2E2E2E2E2E2E2E2E2E2E2E2E2E2E2E2E2E2E2E2E2E2E2E2E2E2E2E2E2E2E2BEE2E2E2E2
310
E2E2E2E2DCE2E2E22D2D2D2D2D2D2D2D2D2D2D2D2D2D2D2D2D2D2D2DE2E2E22DE2E2E2E2E2BEBEBEBEE2E2E2E2E2E22DE2E2E2E2E2E2E2E2E2E2E2E2E2E2E2E2E2E2E2E2E2E2E2E2E2E2E2E2E2E2E2E2E2E2E2E2E2DCE2E2BEE2E2E2E2E2E2E2E2E2E2E2E2E2E2E2E2E2E2E2E2E2E2E2E2E2E2E2E2E2E2E2E2E2E2E2E2E2E2
310
E2E2E2E2E2E2E2E2E2E2E2E2E2E2E2E2E2E2E2E2E2E2E2E2E2E2E2E2E2E2E2E2E2E2E2E2E2E2E2E2E2E2E2E2E2E2E2E2E2E2E2E2E2E2E2E2E2E2E2E2E2E2E2E2E2E2E2E2E2E2E2E2E2E2E2E2E2E2E2E2E2E2E2E2E2E2E2E2E2E2E2E2E2E2E2E2E2E2E2E2E2E2E2E2E2E2E2E2E2E2E2E2E2E2E2E2E2E2E2E2E2E2E2E2BEE2E2
310
E2E2E2E2E2E2DCE2E2E22DE2E22DE2E22DE2E2E22DE2E22DE2E2E22DE22DE2E2E22DE2E2E2E2E2BEBEBEBEE2E2E2E2E2E22DE2E2E2E2E2E2E2E2E2E2E2E2E2E2E2E2E2E2E2E2E2E2E2E2E2E2E2E2E2E2E2E2E2E2E2E2E2DCE2E2BEE2E2E2E2E2E2E2E2E2E2E2E2E2E2E2E2E2E2E2E2E2E2E2E2E2E2E2E2E2E2E2E2E2E2E2E2
310
E2E2E2E2E2E2E2E2E2E2E2E2E2E2E2E2E2E2E2E2E2E2E2E2E2E2E2E2E2E2E2E2E2E2E2E2E2E2E2E2E2E2E2E2E2E2E2E2E2E2E2E2E2E2E2E2E2E2E2E2E2E2E2E2E2E2E2E2E2E2E2E2E2E2E2E2E2E2E2E2E2E2E2E2E2E2E2E2E2E2E2E2E2E2E2E2E2E2E2E2E2E2E2E2E2E2E2E2E2E2E2E2E2E2E2E2E2E2E2E2E2E2E2E2E2E2BE
310
E2E2E2E2E2E2E2E2DCE2E2E22D2D2D2D2D2D2D2D2D2D2D2D2D2D2D2D2D2D2D2DE2E2E22DE2E2E2E2E2E2E2E2E2E2E2E2E2E2E22DE2E2E2E2E2E2E2E2E2E2E2E2E2E2E2E2E2E2E2E2E2E2E2E2E2E2E2E2E2E2E2E2E2E2E2E2E2DCE2E2BEE2E2E2E2E2E2E2E2E2E2E2E2E2E2E2E2E2E2E2E2E2E2E2E2E2E2E2E2E2E2E2E2E2E2
310
E2E2E2E2E2E2E2E2E2E2E2E2E2E2E2E2E2E2E2E2E2E2E2E2E2E2E2E2E2E2E2E2E2E2E2E2E2E2E2E2E2E2E2E2E2E2E2E2E2E2E2E2E2E2E2E2E2E2E2E2E2E2E2E2E2E2E2E2E2E2E2E2E2E2E2E2E2E2E2E2E2E2E2E2E2E2E2E2E2E2E2E2E2E2E2E2E2E2E2E2E2E2E2E2E2E2E2E2E2E2E2E2E2E2E2E2E2E2E2E2E2E2E2E2E2E2E2
310
E2BEE2E2E2E2E2E2E2E2DCE2E2E2F52D2D2D2D2D2D2D2D2D2D2D2D2D2D2D2DE2E22DE2E2E2F5F5F5F5F5F5F5F5F5F5F5F5F5F5F5F5F5E2E2E228F5F5F5F5F5F5F5F5F5F5F5F5F5F5F5F5F5F5F5F5F5F5F5F5F5F5F5F5F5F5282DF5DCE2E2BEE2E2E2E2E2E2E2E2E2E2E2E2E2E2E2E2E2E2E2E2E2E2E2E2E2E2E2E2E2E2E2E2
310
E2E2E2E2E2E2E2E2E2E2E2E2E2E2E2E2E2E2E2E2E2E2E2E2E2E2E2E2E2E2E2E2E2E2E2E2E2E2E2E2E2E2E2E2E2E2E2E2E2E2E2E2E2E2E2E2E2E2E2E2E2E2E2E2E2E2E2E2E2E2E2E2E2E2E2E2E2E2E2E2E2E2E2E2E2E2E2E2E2E2E2E2E2E2E2E2E2E2E2E2E2E2E2E2E2E2E2E2E2E2E2E2E2E2E2E2E2E2E2E2E2E2E2E2E2E2E2
310
E2E2E2BEE2E2E2E2E2E2E2E2DCE2F5F5F5E2E2E2E2E2E2E2E2E2E2E2E2E2E2E22D2D2D2DE2F5F5F5282828282828282828282828282828F5E2E2E22828F5F5F5F5F5F5F5F5F5F5F5F5F5F5F5F5F5F5F5F5F5F5F5F5F5F5F5F528F5E22DDCE2E2BEE2E2E2E2E2E2E2E2E2E2E2E2E2E2E2E2E2E2E2E2E2E2E2E2E2E2E2E2E2E2
310
E2E2E2E2E2E2E2E2E2E2E2E2E2E2E2E2E2E2E2E2E2E2E2E2E2E2E2E2E2E2E2E2E2E2E2E2E2E2E2E2E2E2E2E2E2E2E2E2E2E2E2E2E2E2E2E2E2E2E2E2E2E2E2E2E2E2E2E2E2E2E2E2E2E2E2E2E2E2E2E2E2E2E2E2E2E2E2E2E2E2E2E2E2E2E2E2E2E2E2E2E2E2E2E2E2E2E2E2E2E2E2E2E2E2E2E2E2E2E2E2E2E2E2E2E2E2E2
310
E2E2E2E2E2BEE2E2E2E2E2E2E2E2DCE2F5E2F5E2E2E2E2E2E2E2E2E2E2E2E2E2E2E22D2DE22DE2F528F528282828E228282828282828282828F5E2E2E22828282828F5F5F5F5F5F5F5F5F5F5F5F5F5F5F5F5F5F5F5F5F528282828F5F52D2DDCE2E2BEE2E2E2E2E2E2E2E2E2E2E2E2E2E2E2E2E2E2E2E2E2E2E2E2E2E2E2E2
310
E2E2E2E2E2E2E2E2E2E2E2E2E2E2E2E2E2E2E2E2E2E2E2E2E2E2E2E2E2E2E2E2E2E2E2E2E2E2E2E2E2E2E2E2E2E2E2E2E2E2E2E2E2E2E2E2E2E2E2E2E2E2E2E2E2E2E2E2E2E2E2E2E2E2E2E2E2E2E2E2E2E2E2E2E2E2E2E2E2E2E2E2E2E2E2E2E2E2E2E2E2E2E2E2E2E2E2E2E2E2E2E2E2E2E2E2E2E2E2E2E2E2E2E2E2E2E2
310
E2E2E2E2E2E2E2BEE2E2E2E2E2E2E2E2DCE2F5E2F5E2E2E2E2E2E2E2E2E2E2E2E2E2E2E22D2D2D2DE2F5E2F5282828282828E2E2E2E2E2E2E2E228F5E2E2E2282828E228E2E2E2E2E2E2E2E2E2E2E2E2E2E2E2E2E2E2E2E2E228E22828F5F5E22DDCE2E2BEE2E2E2E2E2E2E2E2E2E2E2E2E2E2E2E2E2E2E2E2E2E2E2E2E2E2
310
E2E2E2E2E2E2E2E2E2E2E2E2E2E2E2E2E2E2E2E2E2E2E2E2E2E2E2E2E2E2E2E2E2E2E2E2E2E2E2E2E2E2E2E2E2E2E2E2E2E2E2E2E2E2E2E2E2E2E2E2E2E2E2E2E2E2E2E2E2E2E2E2E2E2E2E2E2E2E2E2E2E2E2E2E2E2E2E2E2E2E2E2E2E2E2E2E2E2E2E2E2E2E2E2E2E2E2E2E2E2E2E2E2E2E2E2E2E2E2E2E2E2E2E2E2E2E2
310
E2E2E2E2E2E2E2E2E2BEE2E2E2E2E2E2E2E2DCE2F5E2F5E2E2E2E2E2E2E2E2E2E2E2E2E2E2E22D2D2D2DE2F528F52828282828E2E2E2E2E2E2E2E2E228F5E2E2E2282828E228E2E2E2E2E2E2E2E2E2E2E2E2E2E2E2E2E2E2E2E2E228E22828F5F5E22DDCE2E2BEE2E2E2E2E2E2E2E2E2E2E2E2E2E2E2E2E2E2E2E2E2E2E2E2
310
E2E2E2E2E2E2E2E2E2E2E2E2E2E2E2E2E2E2E2E2E2E2E2E2E2E2E2E2E2E2E2E2E2E2E2E2E2E2E2E2E2E2E2E2E2E2E2E2E2E2E2E2E2E2E2E2E2E2E2E2E2E2E2E2E2E2E2E2E2E2E2E2E2E2E2E2E2E2E2E2E2E2E2E2E2E2E2E2E2E2E2E2E2E2E2E2E2E2E2E2E2E2E2E2E2E2E2E2E2E2E2E2E2E2E2E2E2E2E2E2E2E2E2E2E2E2E2
310
E2E2E2E2E2E2E2E2E2E2E2BEE2E2E2E2E2E2E2E2DCF5F5F5F5E2E2E2E2E2E2E2E2E2E2E2E2E2E2E22D2DE22DF5F5F5F528E2E2E228E2E2E2E2E2E2E2E2E228F5E2E2E2F52828F528F5F5F5F5F5F5F5F5F5F5F5F5F5F5F5F5F5F5F5F5F528F52828F5F5E22DDCE2E2BEE2E2E2E2E2E2E2E2E2E2E2E2E2E2E2E2E2E2E2E2E2E2
310
E2E2E2E2E2E2E2E2E2E2E2E2E2E2E2E2E2E2E2E2E2E2E2E2E2E2E2E2E2E2E2E2E2E2E2E2E2E2E2E2E2E2E2E2E2E2E2E2E2E2E2E2E2E2E2E2E2E2E2E2E2E2E2E2E2E2E2E2E2E2E2E2E2E2E2E2E2E2E2E2E2E2E2E2E2E2E2E2E2E2E2E2E2E2E2E2E2E2E2E2E2E2E2E2E2E2E2E2E2E2E2E2E2E2E2E2E2E2E2E2E2E2E2E2E2E2E2
310
E2E2E2E2E2E2E2E2E2E2E2E2E2BEE2E2E2E2E2E2E2E2DCF5E2E2F5E2E2E2E2E2E2E2E2E2E2E2E2E2E2E22D2D2D2D282828F5E2E2E2E228E2E2E2E2E2E2E2E2E228F5E2E2E2282828E2E2E2E2E2E2E2E2E2E2E2E2E2E2E2E2E2E2E2E2E2E2E2E2E2282828F5E22DDCE2E2BEE2E2E2E2E2E2E2E2E2E2E2E2E2E2E2E2E2E2E2E2
310
E2E2E2E2E2E2E2E2E2E2E2E2E2E2E2E2E2E2E2E2E2E2E2E2E2E2E2E2E2E2E2E2E2E2E2E2E2E2E2E2E2E2E2E2E2E2E2E2E2E2E2E2E2E2E2E2E2E2E2E2E2E2E2E2E2E2E2E2E2E2E2E2E2E2E2E2E2E2E2E2E2E2E2E2E2E2E2E2E2E2E2E2E2E2E2E2E2E2E2E2E2E2E2E2E2E2E2E2E2E2E2E2E2E2E2E2E2E2E2E2E2E2E2E2E2E2E2
310
E2E2E2E2E2E2E2E2E2E2E2E2E2E2E2BEE2E2E2E2E2E2E2E2DCF5E2E2F5E2E2E2E2E2E2E2E2E2E2E2E2E2E2E22DE2E22D282828F5E2E2E2E228E2E2E2E2E2E2E2E2E228F5E2E2E2282828E2E2E2E2E2E2E2E2E2E2E2E2E2E2E2E2E2E2E2E2E2E2E2E2E2282828F5E22DDCE2E2BEE2E2E2E2E2E2E2E2E2E2E2E2E2E2E2E2E2E2
310
E2E2E2E2E2E2E2E2E2E2E2E2E2E2E2E2E2E2E2E2E2E2E2E2E2E2E2E2E2E2E2E2E2E2E2E2E2E2E2E2E2E2E2E2E2E2E2E2E2E2E2E2E2E2E2E2E2E2E2E2E2E2E2E2E2E2E2E2E2E2E2E2E2E2E2E2E2E2E2E2E2E2E2E2E2E2E2E2E2E2E2E2E2E2E2E2E2E2E2E2E2E2E2E2E2E2E2E2E2E2E2E2E2E2E2E2E2E2E2E2E2E2E2E2E2E2E2
310
E2E2E2E2E2E2E2E2E2E2E2E2E2E2E2E2E2BEE2E2E2E2E2E2E2E2DCF5E2E2F5E2E2E2E2E2E2E2E2E2E2E2E2E2E2E22D2D2D2D2828E2F5E2E2E2E228E2E2E2E2E2E2E2E2E228F5E2E2E2282828E22828282828282828282828282828282828282828282828E2282828F5E22DDCE2E2BEE2E2E2E2E2E2E2E2E2E2E2E2E2E2E2E2
310
E2E2E2E2E2E2E2E2E2E2E2E2E2E2E2E2E2E2E2E2E2E2E2E2E2E2E2E2E2E2E2E2E2E2E2E2E2E2E2E2E2E2E2E2E2E2E2E2E2E2E2E2E2E2E2E2E2E2E2E2E2E2E2E2E2E2E2E2E2E2E2E2E2E2E2E2E2E2E2E2E2E2E2E2E2E2E2E2E2E2E2E2E2E2E2E2E2E2E2E2E2E2E2E2E2E2E2E2E2E2E2E2E2E2E2E2E2E2E2E2E2E2E2E2E2E2E2
310
E2E2E2E2E2E2E2E2E2E2E2E2E2E2E2E2E2E2E2BEE2E2E2E2E2E2E2E2DCF5E2E2F5E2E2E2E2E2E2E2E2E2E2E2E2E2E2E22D2DE22D2828E2F5E2E2E2E228E2E2E2E2E2E2E2E2E228F5E2E2E2282828E2282828E2E22828F5E22828E2E22828F5282828E2282828E2282828F5E22DDCE2E2BEE2E2E2E2E2E2E2E2E2E2E2E2E2E2
310
E2E2E2E2E2E2E2E2E2E2E2E2E2E2E2E2E2E2E2E2E2E2E2E2E2E2E2E2E2E2E2E2E2E2E2E2E2E2E2E2E2E2E2E2E2E2E2E2E2E2E2E2E2E2E2E2E2E2E2E2E2E2E2E2E2E2E2E2E2E2E2E2E2E2E2E2E2E2E2E2E2E2E2E2E2E2E2E2E2E2E2E2E2E2E2E2E2E2E2E2E2E2E2E2E2E2E2E2E2E2E2E2E2E2E2E2E2E2E2E2E2E2E2E2E2E2E2
310
E2E2E2E2E2E2E2E2E2E2E2E2E2E2E2E2E2E2E2E2E2BEE2E2E2E2E2E2E2E2DCF5E2E2F5E2E2E2E2E2E2E2E2E2E2E2E2E2E2E22D2D2D2D2828E2F5E2E2E2E228E2E2E2E2E2E2E2E2E228F5E2E2E2282828E2E2E2282828282828282828282828282828E2282828E2E2E2282828F5E22DDCE2E2BEE2E2E2E2E2E2E2E2E2E2E2E2
310
E2E2E2E2E2E2E2E2E2E2E2E2E2E2E2E2E2E2E2E2E2E2E2E2E2E2E2E2E2E2E2E2E2E2E2E2E2E2E2E2E2E2E2E2E2E2E2E2E2E2E2E2E2E2E2E2E2E2E2E2E2E2E2E2E2E2E2E2E2E2E2E2E2E2E2E2E2E2E2E2E2E2E2E2E2E2E2E2E2E2E2E2E2E2E2E2E2E2E2E2E2E2E2E2E2E2E2E2E2E2E2E2E2E2E2E2E2E2E2E2E2E2E2E2E2E2E2
310
E2E2E2E2E2E2E2E2E2E2E2E2E2E2E2E2E2E2E2E2E2E2E2BEE2E2E2E2E2E2E2E2DCF5E2E2F5E2E2E2E2E2E2E2E2E2E2E2E2E2E2E22D2D2D2D2828E2F5E2E2E2E228E2E2E2E2E2E2E2E2E228F5E2E2E2282828E2E2E2E2E2E2E2E2F5F5F5F5F5F5F5F5F5F5E2E2E2E2E2E2E2282828F5E22DDCE2E2BEE2E2E2E2E2E2E2E2E2E2
310
E2E2E2E2E2E2E2E2E2E2E2E2E2E2E2E2E2E2E2E2E2E2E2E2E2E2E2E2E2E2E2E2E2E2E2E2E2E2E2E2E2E2E2E2E2E2E2E2E2E2E2E2E2E2E2E2E2E2E2E2E2E2E2E2E2E2E2E2E2E2E2E2E2E2E2E2E2E2E2E2E2E2E2E2E2E2E2E2E2E2E2E2E2E2E2E2E2E2E2E2E2E2E2E2E2E2E2E2E2E2E2E2E2E2E2E2E2E2E2E2E2E2E2E2E2E2E2
310
E2E2E2E2E2E2E2E2E2E2E2E2E2E2E2E2E2E2E2E2E2E2E2E2E2BEE2E2E2E2E2E2E2E2DCF5E2E2F5E2E2E2E2E2E2E2E2E2E2E2E2E2E2E22D2D2D2D282828F52828282828E2E2E2E2E2E2E2E2E228F5E2E2E2282828E2E2E2E2E2E2E2E2E2E2E2E2E2E2E2E2E2E2E2E2E2E2E2E2E2282828F5E22DDCE2E2BEE2E2E2E2E2E2E2E2
310
E2E2E2E2E2E2E2E2E2E2E2E2E2E2E2E2E2E2E2E2E2E2E2E2E2E2E2E2E2E2E2E2E2E2E2E2E2E2E2E2E2E2E2E2E2E2E2E2E2E2E2E2E2E2E2E2E2E2E2E2E2E2E2E2E2E2E2E2E2E2E2E2E2E2E2E2E2E2E2E2E2E2E2E2E2E2E2E2E2E2E2E2E2E2E2E2E2E2E2E2E2E2E2E2E2E2E2E2E2E2E2E2E2E2E2E2E2E2E2E2E2E2E2E2E2E2E2
310
E2E2E2E2E2E2E2E2E2E2E2E2E2E2E2E2E2E2E2E2E2E2E2E2E2E2E2BEE2E2E2E2E2E2E2E2DCF5E2E2F5E2E2E2E2E2E2E2E2E2E2E2E2E2E2E22D2D2D2D28E2E2F5E2E2E2E228E2E2E2E2E2E2E2E2E228F5E2E2E2282828E2E2E22828E2E2E2E2E2E2E2E2E2E2E2E2E2E2E2282828E2E2282828F5E22DDCE2E2BEE2E2E2E2E2E2
310
E2E2E2E2E2E2E2E2E2E2E2E2E2E2E2E2E2E2E2E2E2E2E2E2E2E2E2E2E2E2E2E2E2E2E2E2E2E2E2E2E2E2E2E2E2E2E2E2E2E2E2E2E2E2E2E2E2E2E2E2E2E2E2E2E2E2E2E2E2E2E2E2E2E2E2E2E2E2E2E2E2E2E2E2E2E2E2E2E2E2E2E2E2E2E2E2E2E2E2E2E2E2E2E2E2E2E2E2E2E2E2E2E2E2E2E2E2E2E2E2E2E2E2E2E2E2E2
310
E2E2E2E2E2E2E2E2E2E2E2E2E2E2E2E2E2E2E2E2E2E2E2E2E2E2E2E2E2BEE2E2E2E2E2E2E2E2DCF5E2E2F5E2E2E2E2E2E2E2E2E2E2E2E2E2E2E22DE2E22D28E2E2F5E2E2E2E2E228E2E2E2E2E2E2282828F5E2E2E2282828E2E228282828E2E2E2E2E2E2E2E2E2E2E2E2E2E2282828E2E2282828F5E22DDCE2E2BEE2E2E2E2
310
E2E2E2E2E2E2E2E2E2E2E2E2E2E2E2E2E2E2E2E2E2E2E2E2E2E2E2E2E2E2E2E2E2E2E2E2E2E2E2E2E2E2E2E2E2E2E2E2E2E2E2E2E2E2E2E2E2E2E2E2E2E2E2E2E2E2E2E2E2E2E2E2E2E2E2E2E2E2E2E2E2E2E2E2E2E2E2E2E2E2E2E2E2E2E2E2E2E2E2E2E2E2E2E2E2E2E2E2E2E2E2E2E2E2E2E2E2E2E2E2E2E2E2E2E2E2E2
310
E2E2E2E2E2E2E2E2E2E2E2E2E2E2E2E2E2E2E2E2E2E2E2E2E2E2E2E2E2E2E2BEE2E2E2E2E2E2E2E2DCF5E2E2F5E2E2E2E2E2E2E2E2E2E2E2E2E2E2E22D2D2D2D28E2E2F5E2E2E2E2BE2828E2E2E2E2E228E228F5E2E2E2282828E2E228BEBEBEBEBEBEBEBEBEBEBEBEBEBEBEBEBEBEBEBEE2E2282828F5E22DDCE2E2BEE2E2
310
E2E2E2E2E2E2E2E2E2E2E2E2E2E2E2E2E2E2E2E2E2E2E2E2E2E2E2E2E2E2E2E2E2E2E2E2E2E2E2E2E2E2E2E2E2E2E2E2E2E2E2E2E2E2E2E2E2E2E2E2E2E2E2E2E2E2E2E2E2E2E2E2E2E2E2E2E2E2E2E2E2E2E2E2E2E2E2E2E2E2E2E2E2E2E2E2E2E2E2E2E2E2E2E2E2E2E2E2E2E2E2E2E2E2E2E2E2E2E2E2E2E2E2E2E2E2E2
310
E2E2E2E2E2E2E2E2E2E2E2E2E2E2E2E2E2E2E2E2E2E2E2E2E2E2E2E2E2E2E2E2E2BEE2E2E2E2E2E2E2E2DCF5E2E2F5E2E2E2E2E2E2E2E2E2E2E2E2E2E2E22D2DE22D28E2E2F5E2BEBEBEE2E22828BEE2E2E2282828F5E2E2E2282828282828BE282828282828282828282828282828282828282828282828F5E22DDCE2E2BE
310
E2E2E2E2E2E2E2E2E2E2E2E2E2E2E2E2E2E2E2E2E2E2E2E2E2E2E2E2E2E2E2E2E2E2E2E2E2E2E2E2E2E2E2E2E2E2E2E2E2E2E2E2E2E2E2E2E2E2E2E2E2E2E2E2E2E2E2E2E2E2E2E2E2E2E2E2E2E2E2E2E2E2E2E2E2E2E2E2E2E2E2E2E2E2E2E2E2E2E2E2E2E2E2E2E2E2E2E2E2E2E2E2E2E2E2E2E2E2E2E2E2E2E2E2E2E2E2
310
E2E2E2E2E2E2E2E2E2E2E2E2E2E2E2E2E2E2E2E2E2E2E2E2E2E2E2E2E2E2E2E2E2E2E2BEE2E2E2E2E2E2E2E2DCF5E2E2F5E2E2E2E2E2E2E2E2E2E2E2E2E2E2E22D2D2D2D28E2E2F5BEBEE2E2E2E2E2E22828282828E228F5E2E2E2282828282828BE282828282828282828282828282828282828282828282828F5E22DDCE2
310
E2BEE2E2E2E2E2E2E2E2E2E2E2E2E2E2E2E2E2E2E2E2E2E2E2E2E2E2E2E2E2E2E2E2E2E2E2E2E2E2E2E2E2E2E2E2E2E2E2E2E2E2E2E2E2E2E2E2E2E2E2E2E2E2E2E2E2E2E2E2E2E2E2E2E2E2E2E2E2E2E2E2E2E2E2E2E2E2E2E2E2E2E2E2E2E2E2E2E2E2E2E2E2E2E2E2E2E2E2E2E2E2E2E2E2E2E2E2E2E2E2E2E2E2E2E2E2
310
E2E2E2E2E2E2E2E2E2E2E2E2E2E2E2E2E2E2E2E2E2E2E2E2E2E2E2E2E2E2E2E2E2E2E2E2E2BEE2E2E2E2E2E2E2E2DCF5E2E2F5E2E2E2E2E2E2BEBEE2DCBEE2E2E2E22DE2E22D28E2E2F5BEE2E2E2E2E2E2E2E2F52D2D2D2D2D2D2DF5E228282828E2E2BEE2E2E2E2E2E2E2E2E2E2E2E2E2E2E2E2E2E2BEE228282828F5E22D
310
DCE2E2BEE2E2E2E2E2E2E2E2E2E2E2E2E2E2E2E2E2E2E2E2E2E2E2E2E2E2E2E2E2E2E2E2E2E2E2E2E2E2E2E2E2E2E2E2E2E2E2E2E2E2E2E2E2E2E2E2E2E2E2E2E2E2E2E2E2E2E2E2E2E2E2E2E2E2E2E2E2E2E2E2E2E2E2E2E2E2E2E2E2E2E2E2E2E2E2E2E2E2E2E2E2E2E2E2E2E2E2E2E2E2E2E2E2E2E2E2E2E2E2E2E2E2E2
310
E2E2E2E2E2E2E2E2E2E2E2E2E2E2E2E2E2E2E2E2E2E2E2E2E2E2E2E2E2E2E2E2E2E2E2E2E2E2E2BEE2E2E2E2E2E2E2E2DCF5E2E2F5BEBEBEBEBEBEBEBEBEDCE2E2E2E2E22D2D2D2D28E2BEF5E2E2E2E2E2E2E2E2E2DC2828282828F5E22DE2282828282828BEE2E2E2E2E2E2E2E2E2E2E2E2E2E2E2E2E2E2282828282828F5
310
E22DDCE2E2BEE2E2E2E2E2E2E2E2E2E2E2E2E2E2E2E2E2E2E2E2E2E2E2E2E2E2E2E2E2E2E2E2E2E2E2E2E2E2E2E2E2E2E2E2E2E2E2E2E2E2E2E2E2E2E2E2E2E2E2E2E2E2E2E2E2E2E2E2E2E2E2E2E2E2E2E2E2E2E2E2E2E2E2E2E2E2E2E2E2E2E2E2E2E2E2E2E2E2E2E2E2E2E2E2E2E2E2E2E2E2E2E2E2E2E2E2E2E2E2E2E2
310
E2E2E2E2E2E2E2E2E2E2E2E2E2E2E2E2E2E2E2E2E2E2E2E2E2E2E2E2E2E2E2E2E2E2E2E2E2E2E2E2E2BEE2E2E2E2E2E2E2E2DCF5E2E2F5BEBEBEBEBEBEBEBEBEBEE2E2E2E2E22D2D2D2DF5E2BEF5E2E2E2BE2828282828282828E22828F5E22DE228282828E228BE28282828E2E2E2E2F5E2E2E2E2E22828282828E2282828
310
28F5E22DDCE2E2BEE2E2E2E2E2E2E2E2E2E2E2E2E2E2E2E2E2E2E2E2E2E2E2E2E2E2E2E2E2E2E2E2E2E2E2E2E2E2E2E2E2E2E2E2E2E2E2E2E2E2E2E2E2E2E2E2E2E2E2E2E2E2E2E2E2E2E2E2E2E2E2E2E2E2E2E2E2E2E2E2E2E2E2E2E2E2E2E2E2E2E2E2E2E2E2E2E2E2E2E2E2E2E2E2E2E2E2E2E2E2E2E2E2E2E2E2E2E2E2
310
E2E2E2E2E2E2E2E2E2E2E2E2E2E2E2E2E2E2E2E2E2E2E2E2E2E2E2E2E2E2E2E2E2E2E2E2E2E2E2E2E2E2E2BEE2E2E2E2E2E2E2E2DCF5E2E2F5BEBEBEE2BEBEBEBEBEBEBEBEBEBEBEBEE2E22D28E2BEF5E2E2BE2828E2E2BEE2E2E2BE282828F5E22DE228282828E228BEE2E22828E2E2E2E2F5E2E2E2E2E228E2E2E228E228
310
282828F5E22DDCE2E2BEE2E2E2E2E2E2E2E2E2E2E2E2E2E2E2E2E2E2E2E2E2E2E2E2E2E2E2E2E2E2E2E2E2E2E2E2E2E2E2E2E2E2E2E2E2E2E2E2E2E2E2E2E2E2E2E2E2E2E2E2E2E2E2E2E2E2E2E2E2E2E2E2E2E2E2E2E2E2E2E2E2E2E2E2E2E2E2E2E2E2E2E2E2E2E2E2E2E2E2E2E2E2E2E2E2E2E2E2E2E2E2E2E2E2E2E2E2
310
E2E2E2E2E2E2E2E2E2E2E2E2E2E2E2E2E2E2E2E2E2E2E2E2E2E2E2E2E2E2E2E2E2E2E2E2E2E2E2E2E2E2E2E2E2BEE2E2E2E2E2E2E2E2DCF5E2E2F5BEBEBEE2BEBEBEBEBEBEBEBEBEBEE22D2D2D2D28E2BEF5E2E2BE282828E2BEE2E2E2E2282828F5E22DE2282828282828BEE2E22828E2E2E2E2F5E2E2E2E2E228E2E2E228
310
2828282828F5E22DDCE2E2BEE2E2E2E2E2E2E2E2E2E2E2E2E2E2E2E2E2E2E2E2E2E2E2E2E2E2E2E2E2E2E2E2E2E2E2E2E2E2E2E2E2E2E2E2E2E2E2E2E2E2E2E2E2E2E2E2E2E2E2E2E2E2E2E2E2E2E2E2E2E2E2E2E2E2E2E2E2E2E2E2E2E2E2E2E2E2E2E2E2E2E2E2E2E2E2E2E2E2E2E2E2E2E2E2E2E2E2E2E2E2E2E2E2E2E2
310
E2E2E2E2E2E2E2E2E2E2E2E2E2E2E2E2E2E2E2E2E2E2E2E2E2E2E2E2E2E2E2E2E2E2E2E2E2E2E2E2E2E2E2E2E2E2E2BEE2E2E2E2E2E2E2E2DCF5E2E2F5BEBEBEBEBEBEBEBEBEBEBEBEBEBEE22D2DE22DF52828F5E2E228282828E2BEE2E2E2E2282828F5E22DE2282828282828BEE2E22828E2E2E2E2F5E2E2E2E2E228E2E2
310
E22828F5F5F528F5E22DDCE2E2BEE2E2E2E2E2E2E2E2E2E2E2E2E2E2E2E2E2E2E2E2E2E2E2E2E2E2E2E2E2E2E2E2E2E2E2E2E2E2E2E2E2E2E2E2E2E2E2E2E2E2E2E2E2E2E2E2E2E2E2E2E2E2E2E2E2E2E2E2E2E2E2E2E2E2E2E2E2E2E2E2E2E2E2E2E2E2E2E2E2E2E2E2E2E2E2E2E2E2E2E2E2E2E2E2E2E2E2E2E2E2E2E2E2
310
E2E2E2E2E2E2E2E2E2E2E2E2E2E2E2E2E2E2E2E2E2E2E2E2E2E2E2E2E2E2E2E2E2E2E2E2E2E2E2E2E2E2E2E2E2E2E2E2E2BEE2E2E2E2E2E2E2E2DCF5E2E2F5BEBEBEBEBEBEBEBEBEBEBEBEBEBEE22D2D2D2DF52828F5E2E228BE2828E2BEE2E2E2BE282828F5E22DE2282828282828BE28282828E2E2E2E2F5E2E2E2E2E228
310
282828282828F5F528BEBE2DDCE2E2BEE2E2E2E2E2E2E2E2E2E2E2E2E2E2E2E2E2E2E2E2E2E2E2E2E2E2E2E2E2E2E2E2E2E2E2E2E2E2E2E2E2E2E2E2E2E2E2E2E2E2E2E2E2E2E2E2E2E2E2E2E2E2E2E2E2E2E2E2E2E2E2E2E2E2E2E2E2E2E2E2E2E2E2E2E2E2E2E2E2E2E2E2E2E2E2E2E2E2E2E2E2E2E2E2E2E2E2E2E2E2E2
310
E2E2E2E2E2E2E2E2E2E2E2E2E2E2E2E2E2E2E2E2E2E2E2E2E2E2E2E2E2E2E2E2E2E2E2E2E2E2E2E2E2E2E2E2E2E2E2E2E2E2E2BEE2E2E2E2E2E2E2E2DCF5E2E2F5E2E2E2E2E2E2E2E2E2E2E2E2E2E2E22DE2E22DF528BEF5E2E22828282828282828282828E228F5E22DE2282828282828BEE2E2E2E2E2E2E2E2F5E2E2E2E2
310
E2E2E2E2E2282828282828BEBE2DDCE2E2BEE2E2E2E2E2E2E2E2E2E2E2E2E2E2E2E2E2E2E2E2E2E2E2E2E2E2E2E2E2E2E2E2E2E2E2E2E2E2E2E2E2E2E2E2E2E2E2E2E2E2E2E2E2E2E2E2E2E2E2E2E2E2E2E2E2E2E2E2E2E2E2E2E2E2E2E2E2E2E2E2E2E2E2E2E2E2E2E2E2E2E2E2E2E2E2E2E2E2E2E2E2E2E2E2E2E2E2E2E2
310
E2E2E2E2E2E2E2E2E2E2E2E2E2E2E2E2E2E2E2E2E2E2E2E2E2E2E2E2E2E2E2E2E2E2E2E2E2E2E2E2E2E2E2E2E2E2E2E2E2E2E2E2E2BEE2E2E2E2E2E2E2E2DCF5E2E2F5E2E2E2E2E2E2E2E2E2E2E2E2E2E2E22D2D2D2D28E2BEF5E2E2E2E2E2E2E2E2E2E2E2BE28E228F5E22DE228282828E2E2BEE2E2E2E2E2E2E2E2E2E2E2
310
E2E2E2E2E2E2E2BEE228282828BEBE2DDCE2E2BEE2E2E2E2E2E2E2E2E2E2E2E2E2E2E2E2E2E2E2E2E2E2E2E2E2E2E2E2E2E2E2E2E2E2E2E2E2E2E2E2E2E2E2E2E2E2E2E2E2E2E2E2E2E2E2E2E2E2E2E2E2E2E2E2E2E2E2E2E2E2E2E2E2E2E2E2E2E2E2E2E2E2E2E2E2E2E2E2E2E2E2E2E2E2E2E2E2E2E2E2E2E2E2E2E2E2E2
310
E2E2E2E2E2E2E2E2E2E2E2E2E2E2E2E2E2E2E2E2E2E2E2E2E2E2E2E2E2E2E2E2E2E2E2E2E2E2E2E2E2E2E2E2E2E2E2E2E2E2E2E2E2E2E2BEE2E2E2E2E2E2E2E2DCF5E2E2F5E2E2E2E2E2E2E2E2E2E2E2E2E2E2E22D2DE22D28E2E2F5BEE2E2E2E2E2E2E2E2E2BEE228E228F5E22DE2282828282828BE282828282828282828
310
282828282828282828282828282828BEBE2DDCE2E2BEE2E2E2E2E2E2E2E2E2E2E2E2E2E2E2E2E2E2E2E2E2E2E2E2E2E2E2E2E2E2E2E2E2E2E2E2E2E2E2E2E2E2E2E2E2E2E2E2E2E2E2E2E2E2E2E2E2E2E2E2E2E2E2E2E2E2E2E2E2E2E2E2E2E2E2E2E2E2E2E2E2E2E2E2E2E2E2E2E2E2E2E2E2E2E2E2E2E2E2E2E2E2E2E2E2
310
E2E2E2E2E2E2E2E2E2E2E2E2E2E2E2E2E2E2E2E2E2E2E2E2E2E2E2E2E2E2E2E2E2E2E2E2E2E2E2E2E2E2E2E2E2E2E2E2E2E2E2E2E2E2E2E2E2BEE2E2E2E2E2E2E2E2DCF5E2E2F5E2E2E2E2E2E2E2E2E2E2E2E2E2E2E22D2D2D2D28E2E2F5BEBEE2E2E2E2E2E2BEBEBEE2282828F5E22DE2282828282828BE28282828282828
310
2828282828282828282828282828282828F5E22DDCE2E2BEE2E2E2E2E2E2E2E2E2E2E2E2E2E2E2E2E2E2E2E2E2E2E2E2E2E2E2E2E2E2E2E2E2E2E2E2E2E2E2E2E2E2E2E2E2E2E2E2E2E2E2E2E2E2E2E2E2E2E2E2E2E2E2E2E2E2E2E2E2E2E2E2E2E2E2E2E2E2E2E2E2E2E2E2E2E2E2E2E2E2E2E2E2E2E2E2E2E2E2E2E2E2E2
310
E2E2E2E2E2E2E2E2E2E2E2E2E2E2E2E2E2E2E2E2E2E2E2E2E2E2E2E2E2E2E2E2E2E2E2E2E2E2E2E2E2E2E2E2E2E2E2E2E2E2E2E2E2E2E2E2E2E2E2BEE2E2E2E2E2E2E2E2DCF5E2E2F5E2E2E2E2E2E2E2E2E2E2E2E2E2E2E22D2D2D2D28E2E2F5E2E2BEBEBEBEBEBEBEE2E2E2282828F5E22DE2282828E2E2E2BEBEBEBEBEBE
310
BEBEBEBEBEBEBEBEBEBEBEBEBEBEE2E2282828F5E22DDCE2E2BEE2E2E2E2E2E2E2E2E2E2E2E2E2E2E2E2E2E2E2E2E2E2E2E2E2E2E2E2E2E2E2E2E2E2E2E2E2E2E2E2E2E2E2E2E2E2E2E2E2E2E2E2E2E2E2E2E2E2E2E2E2E2E2E2E2E2E2E2E2E2E2E2E2E2E2E2E2E2E2E2E2E2E2E2E2E2E2E2E2E2E2E2E2E2E2E2E2E2E2E2E2
310
E2E2E2E2E2E2E2E2E2E2E2E2E2E2E2E2E2E2E2E2E2E2E2E2E2E2E2E2E2E2E2E2E2E2E2E2E2E2E2E2E2E2E2E2E2E2E2E2E2E2E2E2E2E2E2E2E2E2E2E2E2BEE2E2E2E2E2E2E2E2DCF5E2E2F5E2E2E2E2E2E2E2E2E2E2E2E2E2E2E22D2DE22D28E2E2F5E2E2E2E2E2E2E2E2E2E2E2E228E228BEBE2DE2282828E2E228282828E2
310
E2E2E2E2E2E2E2E2E2E2E2E2E2282828E2E2282828F5E22DDCE2E2BEE2E2E2E2E2E2E2E2E2E2E2E2E2E2E2E2E2E2E2E2E2E2E2E2E2E2E2E2E2E2E2E2E2E2E2E2E2E2E2E2E2E2E2E2E2E2E2E2E2E2E2E2E2E2E2E2E2E2E2E2E2E2E2E2E2E2E2E2E2E2E2E2E2E2E2E2E2E2E2E2E2E2E2E2E2E2E2E2E2E2E2E2E2E2E2E2E2E2E2
310
E2E2E2E2E2E2E2E2E2E2E2E2E2E2E2E2E2E2E2E2E2E2E2E2E2E2E2E2E2E2E2E2E2E2E2E2E2E2E2E2E2E2E2E2E2E2E2E2E2E2E2E2E2E2E2E2E2E2E2E2E2E2E2BEE2E2E2E2E2E2E2E2DCF5E2E2F5E2E2E2E2E2E2E2E2E2E2E2E2E2E2E22D2D2D2D28E2E2F5E2E2E2E2E2E2E2E2E2E2E2E228E228BEBE2DE2282828E2E2282828
310
28E2E2E2E2E2E2E2E2E2E2E2E2E2E2282828E2E2282828F5E22DDCE2E2BEE2E2E2E2E2E2E2E2E2E2E2E2E2E2E2E2E2E2E2E2E2E2E2E2E2E2E2E2E2E2E2E2E2E2E2E2E2E2E2E2E2E2E2E2E2E2E2E2E2E2E2E2E2E2E2E2E2E2E2E2E2E2E2E2E2E2E2E2E2E2E2E2E2E2E2E2E2E2E2E2E2E2E2E2E2E2E2E2E2E2E2E2E2E2E2E2E2
310
E2E2E2E2E2E2E2E2E2E2E2E2E2E2E2E2E2E2E2E2E2E2E2E2E2E2E2E2E2E2E2E2E2E2E2E2E2E2E2E2E2E2E2E2E2E2E2E2E2E2E2E2E2E2E2E2E2E2E2E2E2E2E2E2E2BEE2E2E2E2E2E2E2E2DCF5E2E2F5E2E2E2E2E2E2E2E2E2E2E2E2E2E2E22DE2E22D28E2E2F5E2E2E2E2E2E2E2E2E2E2E2E2282828BEBE2DE2282828282828
310
28282828282828282828282828282828282828282828282828F5E22DDCE2E2BEE2E2E2E2E2E2E2E2E2E2E2E2E2E2E2E2E2E2E2E2E2E2E2E2E2E2E2E2E2E2E2E2E2E2E2E2E2E2E2E2E2E2E2E2E2E2E2E2E2E2E2E2E2E2E2E2E2E2E2E2E2E2E2E2E2E2E2E2E2E2E2E2E2E2E2E2E2E2E2E2E2E2E2E2E2E2E2E2E2E2E2E2E2E2E2
310
E2E2E2E2E2E2E2E2E2E2E2E2E2E2E2E2E2E2E2E2E2E2E2E2E2E2E2E2E2E2E2E2E2E2E2E2E2E2E2E2E2E2E2E2E2E2E2E2E2E2E2E2E2E2E2E2E2E2E2E2E2E2E2E2E2E2E2BEE2E2E2E2E2E2E2E2DCF5E2E2F5E2E2E2E2E2E2E2E2E2E2E2E2E2E2E22D2D2D2D28E2E2F5E2E2E2E2E2E2E2E2E2E2E2E2E2E228BEBE2DE22828E2E2
310
E2282828E2E2E2E2E2E2E2E2E2E2E2E2E2E2E2282828E2E2E22828F5E22DDCE2E2BEE2E2E2E2E2E2E2E2E2E2E2E2E2E2E2E2E2E2E2E2E2E2E2E2E2E2E2E2E2E2E2E2E2E2E2E2E2E2E2E2E2E2E2E2E2E2E2E2E2E2E2E2E2E2E2E2E2E2E2E2E2E2E2E2E2E2E2E2E2E2E2E2E2E2E2E2E2E2E2E2E2E2E2E2E2E2E2E2E2E2E2E2E2
310
E2E2E2E2E2E2E2E2E2E2E2E2E2E2E2E2E2E2E2E2E2E2E2E2E2E2E2E2E2E2E2E2E2E2E2E2E2E2E2E2E2E2E2E2E2E2E2E2E2E2E2E2E2E2E2E2E2E2E2E2E2E2E2E2E2E2E2E2E2BEE2E2E2E2E2E2E2E2DCF5E2E2F5E2E2E2E2E2E2E2E2E2E2E2E2E2E2E22D2DE22D28E2E22828BEBEBEBEBEBEBEBE282828282828F5E22DE22828
310
E2E2E2E2E2E2E2E2E2E2E2E2E2E2E2E2E2E2E2E2E2E2E2E2E2E2E22828F5E22DDCE2E2BEE2E2E2E2E2E2E2E2E2E2E2E2E2E2E2E2E2E2E2E2E2E2E2E2E2E2E2E2E2E2E2E2E2E2E2E2E2E2E2E2E2E2E2E2E2E2E2E2E2E2E2E2E2E2E2E2E2E2E2E2E2E2E2E2E2E2E2E2E2E2E2E2E2E2E2E2E2E2E2E2E2E2E2E2E2E2E2E2E2E2E2
310
E2E2E2E2E2E2E2E2E2E2E2E2E2E2E2E2E2E2E2E2E2E2E2E2E2E2E2E2E2E2E2E2E2E2E2E2E2E2E2E2E2E2E2E2E2E2E2E2E2E2E2E2E2E2E2E2E2E2E2E2E2E2E2E2E2E2E2E2E2E2E2BEE2E2E2E2E2E2E2E2DCF5E2E2F5E2E2E2E2E2E2E2E2E2E2E2E2E2E2E22D2D2D2D28E2E228BEBEE2E2E2E2E2E2BEBEE2E2282828F5E22DE2
310
2828E2F52D2D2DF52D28282828282828282828282828282828282828E22828F5E22DDCE2E2BEE2E2E2E2E2E2E2E2E2E2E2E2E2E2E2E2E2E2E2E2E2E2E2E2E2E2E2E2E2E2E2E2E2E2E2E2E2E2E2E2E2E2E2E2E2E2E2E2E2E2E2E2E2E2E2E2E2E2E2E2E2E2E2E2E2E2E2E2E2E2E2E2E2E2E2E2E2E2E2E2E2E2E2E2E2E2E2E2E2
310
E2E2E2E2E2E2E2E2E2E2E2E2E2E2E2E2E2E2E2E2E2E2E2E2E2E2E2E2E2E2E2E2E2E2E2E2E2E2E2E2E2E2E2E2E2E2E2E2E2E2E2E2E2E2E2E2E2E2E2E2E2E2E2E2E2E2E2E2E2E2E2E2E2BEE2E2E2E2E2E2E2E2DCF5E2E2F5E2E2E2E2E2E2E2E2E2E2E2E2E2E2E22D2D2D2D28E2E2BEE2E2E2E2E2E2E2E2E2E2BEE228E228F5E2
310
2DE22828E228E2E2E22DE2E2E2E2E2E2E2E2E2E2E2E2E2E2E2E2E2E2E228E22828F5E22DDCE2E2BEE2E2E2E2E2E2E2E2E2E2E2E2E2E2E2E2E2E2E2E2E2E2E2E2E2E2E2E2E2E2E2E2E2E2E2E2E2E2E2E2E2E2E2E2E2E2E2E2E2E2E2E2E2E2E2E2E2E2E2E2E2E2E2E2E2E2E2E2E2E2E2E2E2E2E2E2E2E2E2E2E2E2E2E2E2E2E2
310
E2E2E2E2E2E2E2E2E2E2E2E2E2E2E2E2E2E2E2E2E2E2E2E2E2E2E2E2E2E2E2E2E2E2E2E2E2E2E2E2E2E2E2E2E2E2E2E2E2E2E2E2E2E2E2E2E2E2E2E2E2E2E2E2E2E2E2E2E2E2E2E2E2E2E2BEE2E2E2E2E2E2E2E2DCF5E2E2F5E2E2E2E2E2E2E2E2E2E2E2E2E2E2E22D2DE22D28E2E2BEE2E2E2E2E2E2E2E2E2E2BEBE28E228
310
F5E22DE22828E228E2E2E22DE2E2E2E2E2E2E2E2E2E2E2E2E2E2E2E2E2E2E228E22828F5E22DDCE2E2BEE2E2E2E2E2E2E2E2E2E2E2E2E2E2E2E2E2E2E2E2E2E2E2E2E2E2E2E2E2E2E2E2E2E2E2E2E2E2E2E2E2E2E2E2E2E2E2E2E2E2E2E2E2E2E2E2E2E2E2E2E2E2E2E2E2E2E2E2E2E2E2E2E2E2E2E2E2E2E2E2E2E2E2E2E2
310
E2E2E2E2E2E2E2E2E2E2E2E2E2E2E2E2E2E2E2E2E2E2E2E2E2E2E2E2E2E2E2E2E2E2E2E2E2E2E2E2E2E2E2E2E2E2E2E2E2E2E2E2E2E2E2E2E2E2E2E2E2E2E2E2E2E2E2E2E2E2E2E2E2E2E2E2E2BEE2E2E2E2E2E2E2E2DCF5E2E2F5E2E2E2E2E2E2E2E2E2E2E2E2E2E2E22D2D2D2D28E2BEF5E2E2E2E2E2E2E2E2E2E2E2BE28
310
E228F5E22DE22828E228E2E2E22DE2E2E2E2E2E2E2E2E2E2E2E2E2E2E2E2E2E2E228E22828F5E22DDCE2E2BEE2E2E2E2E2E2E2E2E2E2E2E2E2E2E2E2E2E2E2E2E2E2E2E2E2E2E2E2E2E2E2E2E2E2E2E2E2E2E2E2E2E2E2E2E2E2E2E2E2E2E2E2E2E2E2E2E2E2E2E2E2E2E2E2E2E2E2E2E2E2E2E2E2E2E2E2E2E2E2E2E2E2E2
310
E2E2E2E2E2E2E2E2E2E2E2E2E2E2E2E2E2E2E2E2E2E2E2E2E2E2E2E2E2E2E2E2E2E2E2E2E2E2E2E2E2E2E2E2E2E2E2E2E2E2E2E2E2E2E2E2E2E2E2E2E2E2E2E2E2E2E2E2E2E2E2E2E2E2E2E2E2E2E2BEE2E2E2E2E2E2E2E2DCF5E2E2F5E2E2E2E2E2E2E2E2E2E2E2E2E2E2E22DE2E22D28E2BEF5E2E2E2BEBEBEBEE2E2E2E2
310
BEBEE228F5E22DE22828E228E2E2E22DE2E2E2E2E2E2E2E2E2E2E2E2E2E2E2E2E2E2E228E22828F5E22DDCE2E2BEE2E2E2E2E2E2E2E2E2E2E2E2E2E2E2E2E2E2E2E2E2E2E2E2E2E2E2E2E2E2E2E2E2E2E2E2E2E2E2E2E2E2E2E2E2E2E2E2E2E2E2E2E2E2E2E2E2E2E2E2E2E2E2E2E2E2E2E2E2E2E2E2E2E2E2E2E2E2E2E2E2
310
E2E2E2E2E2E2E2E2E2E2E2E2E2E2E2E2E2E2E2E2E2E2E2E2E2E2E2E2E2E2E2E2E2E2E2E2E2E2E2E2E2E2E2E2E2E2E2E2E2E2E2E2E2E2E2E2E2E2E2E2E2E2E2E2E2E2E2E2E2E2E2E2E2E2E2E2E2E2E2E2E2BEE2E2E2E2E2E2E2E2DCF5E2E2F5E2E2E2E2E2E2E2E2E2E2E2E2E2E2E22D2D2D2D28E2BEF5E2E2E2BEE2E2E2BEE2
310
E2E2E2BEE228F5E22DE22828E228E2E2E22DE2E2E2E2E2E2E2E2E2E2E2E2E2E2E2E2E2E2E228E22828F5E22DDCE2E2BEE2E2E2E2E2E2E2E2E2E2E2E2E2E2E2E2E2E2E2E2E2E2E2E2E2E2E2E2E2E2E2E2E2E2E2E2E2E2E2E2E2E2E2E2E2E2E2E2E2E2E2E2E2E2E2E2E2E2E2E2E2E2E2E2E2E2E2E2E2E2E2E2E2E2E2E2E2E2E2
310
E2E2E2E2E2E2E2E2E2E2E2E2E2E2E2E2E2E2E2E2E2E2E2E2E2E2E2E2E2E2E2E2E2E2E2E2E2E2E2E2E2E2E2E2E2E2E2E2E2E2E2E2E2E2E2E2E2E2E2E2E2E2E2E2E2E2E2E2E2E2E2E2E2E2E2E2E2E2E2E2E2E2E2BEE2E2E2E2E2E2E2E2DCF5E2E2F5E2E2E2E2E2E2E2E2E2E2E2E2E2E2E22D2DE22D28E2BEF5E2E2E2BEE2E2E2
310
BEE2E2E2E2BEE228F5E22DE22828E2F5E2E2BEBEE2E2E2E2E2E2E2E2E2E2E2E2E2E2E2E2E2E2E2F5E22828F5E22DDCE2E2BEE2E2E2E2E2E2E2E2E2E2E2E2E2E2E2E2E2E2E2E2E2E2E2E2E2E2E2E2E2E2E2E2E2E2E2E2E2E2E2E2E2E2E2E2E2E2E2E2E2E2E2E2E2E2E2E2E2E2E2E2E2E2E2E2E2E2E2E2E2E2E2E2E2E2E2E2E2
310
E2E2E2E2E2E2E2E2E2E2E2E2E2E2E2E2E2E2E2E2E2E2E2E2E2E2E2E2E2E2E2E2E2E2E2E2E2E2E2E2E2E2E2E2E2E2E2E2E2E2E2E2E2E2E2E2E2E2E2E2E2E2E2E2E2E2E2E2E2E2E2E2E2E2E2E2E2E2E2E2E2E2E2E2E2BEE2E2E2E2E2E2E2E2DCF5E2E2F5E2E2E2E2E2E2E2E2E2E2E2E2E2E2E22D2D2D2D28E2BEF5E2E2E2BEE2
310
E2BE2DE2E2E2E2BEE228F5E22DE22828282DE2E2BEBEE2E2E2E2E2E2E2E2E2E2E2E2E2E2E2E2E2E2E22D282828F5E22DDCE2E2BEE2E2E2E2E2E2E2E2E2E2E2E2E2E2E2E2E2E2E2E2E2E2E2E2E2E2E2E2E2E2E2E2E2E2E2E2E2E2E2E2E2E2E2E2E2E2E2E2E2E2E2E2E2E2E2E2E2E2E2E2E2E2E2E2E2E2E2E2E2E2E2E2E2E2E2
310
E2E2E2E2E2E2E2E2E2E2E2E2E2E2E2E2E2E2E2E2E2E2E2E2E2E2E2E2E2E2E2E2E2E2E2E2E2E2E2E2E2E2E2E2E2E2E2E2E2E2E2E2E2E2E2E2E2E2E2E2E2E2E2E2E2E2E2E2E2E2E2E2E2E2E2E2E2E2E2E2E2E2E2E2E2E2E2BEE2E2E2E2E2E2E2E2DCF5E2E2F5E2E2E2E2E2E2E2E2E2E2E2E2E2E2E22DE2E22D28E2BEF5E2E2E2
310
E2BEBEE22D2DE2E2BE28E228F5E22DE22828E22DE2E2BEBEE2E2E2E2E2E2E2E2E2E2E2E2E2E2E2E2E2E2E22DE22828F5E22DDCE2E2BEE2E2E2E2E2E2E2E2E2E2E2E2E2E2E2E2E2E2E2E2E2E2E2E2E2E2E2E2E2E2E2E2E2E2E2E2E2E2E2E2E2E2E2E2E2E2E2E2E2E2E2E2E2E2E2E2E2E2E2E2E2E2E2E2E2E2E2E2E2E2E2E2E2
310
E2E2E2E2E2E2E2E2E2E2E2E2E2E2E2E2E2E2E2E2E2E2E2E2E2E2E2E2E2E2E2E2E2E2E2E2E2E2E2E2E2E2E2E2E2E2E2E2E2E2E2E2E2E2E2E2E2E2E2E2E2E2E2E2E2E2E2E2E2E2E2E2E2E2E2E2E2E2E2E2E2E2E2E2E2E2E2E2E2BEE2E2E2E2E2E2E2E2DCF5E2E2F5E2E2E2E2E2E2E2E2E2DCE2E2E2E2E22D2D2D2D28E2BEBEE2
310
E2E2E2E2E2E2F52DF5E2BE28E228F5E22DE22828E22DE2E2BEBEE2E2E2E2E2E2E2E2E2E2E2E2E2E2E2E2E2E2E22DE22828F5E22DDCE2E2BEE2E2E2E2E2E2E2E2E2E2E2E2E2E2E2E2E2E2E2E2E2E2E2E2E2E2E2E2E2E2E2E2E2E2E2E2E2E2E2E2E2E2E2E2E2E2E2E2E2E2E2E2E2E2E2E2E2E2E2E2E2E2E2E2E2E2E2E2E2E2E2
310
E2E2E2E2E2E2E2E2E2E2E2E2E2E2E2E2E2E2E2E2E2E2E2E2E2E2E2E2E2E2E2E2E2E2E2E2E2E2E2E2E2E2E2E2E2E2E2E2E2E2E2E2E2E2E2E2E2E2E2E2E2E2E2E2E2E2E2E2E2E2E2E2E2E2E2E2E2E2E2E2E2E2E2E2E2E2E2E2E2E2E2BEE2E2E2E2E2E2E2E2DCF5E2E2F5E2E2E2E2E2E2E2E2E2DCBEE2E2E2E22D2D2D2D28E2E2
310
BEBEE2E2E2E2E2E22D2DF5F52D2D2D2D2D2D2DE22828E22D2D2DBEBE2D2D2D2D2D2D2D2D2D2D2D2D2D2D2D2D2D2D2DF5E22828F5E22DDCE2E2BEE2E2E2E2E2E2E2E2E2E2E2E2E2E2E2E2E2E2E2E2E2E2E2E2E2E2E2E2E2E2E2E2E2E2E2E2E2E2E2E2E2E2E2E2E2E2E2E2E2E2E2E2E2E2E2E2E2E2E2E2E2E2E2E2E2E2E2E2E2
310
E2E2E2E2E2E2E2E2E2E2E2E2E2E2E2E2E2E2E2E2E2E2E2E2E2E2E2E2E2E2E2E2E2E2E2E2E2E2E2E2E2E2E2E2E2E2E2E2E2E2E2E2E2E2E2E2E2E2E2E2E2E2E2E2E2E2E2E2E2E2E2E2E2E2E2E2E2E2E2E2E2E2E2E2E2E2E2E2E2E2E2E2E2BEE2E2E2E2E2E2E2E2DCF5E2E2F52D2D2D2D2D2D2D2D2D2D2D2D2D2D2DF5E2E22D28
310
E2E2F5BEE2E2E2E2E2BE2D2D2DE2E228E228F5E22DE22828E22DE2E2E22DE2E2E2E2E2E2BEBEBEBEE2E2E2E2E2E2E2E2E22DE22828F5E22DDCE2E2BEE2E2E2E2E2E2E2E2E2E2E2E2E2E2E2E2E2E2E2E2E2E2E2E2E2E2E2E2E2E2E2E2E2E2E2E2E2E2E2E2E2E2E2E2E2E2E2E2E2E2E2E2E2E2E2E2E2E2E2E2E2E2E2E2E2E2E2
310
E2E2E2E2E2E2E2E2E2E2E2E2E2E2E2E2E2E2E2E2E2E2E2E2E2E2E2E2E2E2E2E2E2E2E2E2E2E2E2E2E2E2E2E2E2E2E2E2E2E2E2E2E2E2E2E2E2E2E2E2E2E2E2E2E2E2E2E2E2E2E2E2E2E2E2E2E2E2E2E2E2E2E2E2E2E2E2E2E2E2E2E2E2E2E2BEE2E2E2E2E2E2E2E2DCF5E2E2F5E2E2E2BEBEBEBEBEBEBEE2E2E2E2E22D2D2D
310
2D28E2E2F5E2BEBEBEE2E2BEBEBE2DE2E228E228BEBE2DE22828E228E2E2E22DE2E2E2E2E2E2BEBEBEE2E2E2E2E2E2E2E2E2E228E22828F5E22DDCE2E2BEE2E2E2E2E2E2E2E2E2E2E2E2E2E2E2E2E2E2E2E2E2E2E2E2E2E2E2E2E2E2E2E2E2E2E2E2E2E2E2E2E2E2E2E2E2E2E2E2E2E2E2E2E2E2E2E2E2E2E2E2E2E2E2E2E2
310
E2E2E2E2E2E2E2E2E2E2E2E2E2E2E2E2E2E2E2E2E2E2E2E2E2E2E2E2E2E2E2E2E2E2E2E2E2E2E2E2E2E2E2E2E2E2E2E2E2E2E2E2E2E2E2E2E2E2E2E2E2E2E2E2E2E2E2E2E2E2E2E2E2E2E2E2E2E2E2E2E2E2E2E2E2E2E2E2E2E2E2E2E2E2E2E2E2BEE2E2E2E2E2E2E2E2DCF5E2E2F5E2E2E2BEBEBEBEBEBEBEE2E2E2E2E22D
310
2DE22D28E2E2F5E2E2E2BEBEBEBEE2E22DE2E228E228BEBE2DE22828E228E2E2E22DE2E2E2E2E2E2E2E2E2E2E2E22DE2E2E2E2E2E228E22828F5E22DDCE2E2BEE2E2E2E2E2E2E2E2E2E2E2E2E2E2E2E2E2E2E2E2E2E2E2E2E2E2E2E2E2E2E2E2E2E2E2E2E2E2E2E2E2E2E2E2E2E2E2E2E2E2E2E2E2E2E2E2E2E2E2E2E2E2E2
310
E2E2E2E2E2E2E2E2E2E2E2E2E2E2E2E2E2E2E2E2E2E2E2E2E2E2E2E2E2E2E2E2E2E2E2E2E2E2E2E2E2E2E2E2E2E2E2E2E2E2E2E2E2E2E2E2E2E2E2E2E2E2E2E2E2E2E2E2E2E2E2E2E2E2E2E2E2E2E2E2E2E2E2E2E2E2E2E2E2E2E2E2E2E2E2E2E2E2E2BEE2E2E2E2E2E2E2E2DCF5E2E2F5E2E2E2E2E2E2E2E2E2E2E2E2E2E2
310
E22D2D2D2D28E2E2F5E2E2E2E2E2E2E2E2E22DE2E228E228BEBE2DE22828E228E2E2E22DE2E2E2E2E2E2E2E2E2E2E2E22DE2E2E2E2E2E228E22828F5E22DDCE2E2BEE2E2E2E2E2E2E2E2E2E2E2E2E2E2E2E2E2E2E2E2E2E2E2E2E2E2E2E2E2E2E2E2E2E2E2E2E2E2E2E2E2E2E2E2E2E2E2E2E2E2E2E2E2E2E2E2E2E2E2E2E2
310
E2E2E2E2E2E2E2E2E2E2E2E2E2E2E2E2E2E2E2E2E2E2E2E2E2E2E2E2E2E2E2E2E2E2E2E2E2E2E2E2E2E2E2E2E2E2E2E2E2E2E2E2E2E2E2E2E2E2E2E2E2E2E2E2E2E2E2E2E2E2E2E2E2E2E2E2E2E2E2E2E2E2E2E2E2E2E2E2E2E2E2E2E2E2E2E2E2E2E2E2E2BEE2E2E2E2E2E2E2E2DCF5E2E2F5E2E2E2E2E2E2E2E2E2E2E2E2
310
E2E2E22DE2E22D28E2E2F5E2E2E2E2E2E2E2E2E22DE2E228E228F5E22DE2282828F52D2D2D2D2D28282828282828282828282D2D2DF528282828282828F52D2DDCE2E2BEE2E2E2E2E2E2E2E2E2E2E2E2E2E2E2E2E2E2E2E2E2E2E2E2E2E2E2E2E2E2E2E2E2E2E2E2E2E2E2E2E2E2E2E2E2E2E2E2E2E2E2E2E2E2E2E2E2E2E2
310
E2E2E2E2E2E2E2E2E2E2E2E2E2E2E2E2E2E2E2E2E2E2E2E2E2E2E2E2E2E2E2E2E2E2E2E2E2E2E2E2E2E2E2E2E2E2E2E2E2E2E2E2E2E2E2E2E2E2E2E2E2E2E2E2E2E2E2E2E2E2E2E2E2E2E2E2E2E2E2E2E2E2E2E2E2E2E2E2E2E2E2E2E2E2E2E2E2E2E2E2E2E2E2BEE2E2E2E2E2E2E2E2DCF5F5F5F52D2D2D2D2D2D2D2D2D2D
310
2D2D2D2D2DF52D2D2D28F5F5F52828282828282828282D2828282828F52D2DE2F5F5F528F5F5F5F5F5F5F5F5F5F5F5F5F5F5F5F5F52DF5F5F5F5F528F5F528F52D2DDCE2E2BEE2E2E2E2E2E2E2E2E2E2E2E2E2E2E2E2E2E2E2E2E2E2E2E2E2E2E2E2E2E2E2E2E2E2E2E2E2E2E2E2E2E2E2E2E2E2E2E2E2E2E2E2E2E2E2E2E2
310
E2E2E2E2E2E2E2E2E2E2E2E2E2E2E2E2E2E2E2E2E2E2E2E2E2E2E2E2E2E2E2E2E2E2E2E2E2E2E2E2E2E2E2E2E2E2E2E2E2E2E2E2E2E2E2E2E2E2E2E2E2E2E2E2E2E2E2E2E2E2E2E2E2E2E2E2E2E2E2E2E2E2E2E2E2E2E2E2E2E2E2E2E2E2E2E2E2E2E2E2E2E2E2E2E2BEE2E2E2E2E2E2E2E2DCE2E2E22D2D2D2D2D2D2D2D2D
310
2D2D2D2D2D2D2D2D2D2D2DE2E2E2E2E2E2E2E2E2E2E2E2E22DE2E2E2E2E22DE2E2E22DE2E2E2E2E2E2E2E2E2E2E2E2E2E2E2E2E2E2E22DE2E2E2E2E2E2E2E2E2E22DE2E2DCE2E2BEE2E2E2E2E2E2E2E2E2E2E2E2E2E2E2E2E2E2E2E2E2E2E2E2E2E2E2E2E2E2E2E2E2E2E2E2E2E2E2E2E2E2E2E2E2E2E2E2E2E2E2E2E2E2E2
310
E2E2E2E2E2E2E2E2E2E2E2E2E2E2E2E2E2E2E2E2E2E2E2E2E2E2E2E2E2E2E2E2E2E2E2E2E2E2E2E2E2E2E2E2E2E2E2E2E2E2E2E2E2E2E2E2E2E2E2E2E2E2E2E2E2E2E2E2E2E2E2E2E2E2E2E2E2E2E2E2E2E2E2E2E2E2E2E2E2E2E2E2E2E2E2E2E2E2E2E2E2E2E2E2E2E2E2BEE2E2E2E2E2E2E2E2DCE2E2E22D2DE2E22DE2E2
310
E22DE2E22D2DE2E22DE2E2E22DE2E2E2E2E2E2E2E2E2E2E2E2E2F52D2D2D2D2D2DE2E2E22DE2E2E2E2E2E2E2E2E2E2E2E2E2E2E2E2E2BEBE2DE2E2E2E2E2E2E2E2E2E22DE2E2DCE2E2BEE2E2E2E2E2E2E2E2E2E2E2E2E2E2E2E2E2E2E2E2E2E2E2E2E2E2E2E2E2E2E2E2E2E2E2E2E2E2E2E2E2E2E2E2E2E2E2E2E2E2E2E2E2
310
E2E2E2E2E2E2E2E2E2E2E2E2E2E2E2E2E2E2E2E2E2E2E2E2E2E2E2E2E2E2E2E2E2E2E2E2E2E2E2E2E2E2E2E2E2E2E2E2E2E2E2E2E2E2E2E2E2E2E2E2E2E2E2E2E2E2E2E2E2E2E2E2E2E2E2E2E2E2E2E2E2E2E2E2E2E2E2E2E2E2E2E2E2E2E2E2E2E2E2E2E2E2E2E2E2E2E2E2E2BEE2E2E2E2E2E2E2E2DCE2E2E22D2D2D2D2D
310
2D2D2D2D2D2D2D2D2D2D2D2D2D2D2DE2E2E2E2E2E2E2E2E2E2E2E2E22D2DBEBEBE2D2DE2E2E22D2D2D2D2D2D2D2D2D2D2D2D2D2D2D2D2D2DBEBE2D2D2D2D2D2D2D2D2D2D2DF5E2E2DCE2E2BEE2E2E2E2E2E2E2E2E2E2E2E2E2E2E2E2E2E2E2E2E2E2E2E2E2E2E2E2E2E2E2E2E2E2E2E2E2E2E2E2E2E2E2E2E2E2E2E2E2E2E2
310
E2E2E2E2E2E2E2E2E2E2E2E2E2E2E2E2E2E2E2E2E2E2E2E2E2E2E2E2E2E2E2E2E2E2E2E2E2E2E2E2E2E2E2E2E2E2E2E2E2E2E2E2E2E2E2E2E2E2E2E2E2E2E2E2E2E2E2E2E2E2E2E2E2E2E2E2E2E2E2E2E2E2E2E2E2E2E2E2E2E2E2E2E2E2E2E2E2E2E2E2E2E2E2E2E2E2E2E2E2E2E2BEE2E2E2E2E2E2E2E2DCE2E2E22DE2E2
310
2DE2E22DE2E2E22DE2E22DE2E2E22DE22DE2E2E2E2E2E2E2E2E2E2E2E2E2E2E2BEBEBEE2E2E2E2E22DE2E2E2E2E2E2E2E2E2E2E2E2E2BEBEBEBEE2E2E2E2E2E2E2E2E2E2E2E2E22DE2E2DCE2E2BEE2E2E2E2E2E2E2E2E2E2E2E2E2E2E2E2E2E2E2E2E2E2E2E2E2E2E2E2E2E2E2E2E2E2E2E2E2E2E2E2E2E2E2E2E2E2E2E2E2
310
E2E2E2E2E2E2E2E2E2E2E2E2E2E2E2E2E2E2E2E2E2E2E2E2E2E2E2E2E2E2E2E2E2E2E2E2E2E2E2E2E2E2E2E2E2E2E2E2E2E2E2E2E2E2E2E2E2E2E2E2E2E2E2E2E2E2E2E2E2E2E2E2E2E2E2E2E2E2E2E2E2E2E2E2E2E2E2E2E2E2E2E2E2E2E2E2E2E2E2E2E2E2E2E2E2E2E2E2E2E2E2E2E2BEE2E2E2E2E2E2E2E2DCE2E2E22D
310
2D2D2D2D2D2D2D2D2D2D2D2D2D2D2D2D2D2D2DE2E2E2E2E2E2E2E2E2E2E2E2E2E2E2E2E2E2E2E2E2E2E2E2E2E2E2E2E2E2E2E2E2E2E2E2E2BEBEBEBEE2E2E2E2E2E2E2E2E2E2E2E2E2E2E2E2DCE2E2BEE2E2E2E2E2E2E2E2E2E2E2E2E2E2E2E2E2E2E2E2E2E2E2E2E2E2E2E2E2E2E2E2E2E2E2E2E2E2E2E2E2E2E2E2E2E2E2
310
E2E2E2E2E2E2E2E2E2E2E2E2E2E2E2E2E2E2E2E2E2E2E2E2E2E2E2E2E2E2E2E2E2E2E2E2E2E2E2E2E2E2E2E2E2E2E2E2E2E2E2E2E2E2E2E2E2E2E2E2E2E2E2E2E2E2E2E2E2E2E2E2E2E2E2E2E2E2E2E2E2E2E2E2E2E2E2E2E2E2E2E2E2E2E2E2E2E2E2E2E2E2E2E2E2E2E2E2E2E2E2E2E2E2E2BEE2E2E2E2E2E2E2E2DCE2E2
310
E22D2DE2E22DE2E2E22DE2E22D2DE2E22DE2E2E22DE2E2E2E2E2E2E2E2E2E2E2E2E2E2E2E2E2E2E2E2E2E2E2E2E2E2E2E2E2E2E2E2E2E2E2E2E2E2E2E2E2E2E2E2E2E2E2E2E2E2E2E2E2E2E2E2E2DCE2E2BEE2E2E2E2E2E2E2E2E2E2E2E2E2E2E2E2E2E2E2E2E2E2E2E2E2E2E2E2E2E2E2E2E2E2E2E2E2E2E2E2E2E2E2E2E2
310
E2E2E2E2E2E2E2E2E2E2E2E2E2E2E2E2E2E2E2E2E2E2E2E2E2E2E2E2E2E2E2E2E2E2E2E2E2E2E2E2E2E2E2E2E2E2E2E2E2E2E2E2E2E2E2E2E2E2E2E2E2E2E2E2E2E2E2E2E2E2E2E2E2E2E2E2E2E2E2E2E2E2E2E2E2E2E2E2E2E2E2E2E2E2E2E2E2E2E2E2E2E2E2E2E2E2E2E2E2E2E2E2E2E2E2E2E2BEE2E2E2E2E2E2E2E2DC
310
E2E2E22D2D2D2D2D2D2D2D2D2D2D2D2D2D2D2D2D2D2D2DE2E2E2E2E2E2E2E2E2E2E2E2E2E2E2E2E2E2E2E2E2E2E2E2E2E2E2E2E2E2E2E2E2E2E2E2E2E2E2E2E2E2E2E2E2E2E2E2E2E2E2E2E2E2E2E2E2DCE2E2BEE2E2E2E2E2E2E2E2E2E2E2E2E2E2E2E2E2E2E2E2E2E2E2E2E2E2E2E2E2E2E2E2E2E2E2E2E2E2E2E2E2E2E2
310
E2E2E2E2E2E2E2E2E2E2E2E2E2E2E2E2E2E2E2E2E2E2E2E2E2E2E2E2E2E2E2E2E2E2E2E2E2E2E2E2E2E2E2E2E2E2E2E2E2E2E2E2E2E2E2E2E2E2E2E2E2E2E2E2E2E2E2E2E2E2E2E2E2E2E2E2E2E2E2E2E2E2E2E2E2E2E2E2E2E2E2E2E2E2E2E2E2E2E2E2E2E2E2E2E2E2E2E2E2E2E2E2E2E2E2E2E2E2E2BEE2E2E2E2E2E2E2
310
E2DCE2E2E22DE2E22DE2E22DE2E2E22DE2E22DE2E2E22DE22DE2E2E2E2E2E2E2E2E2E2E2E2E2E2E2E2E2E2E2E2E2E2E2E2E2E2E2E2E2E2E2E2E2E2E2E2E2E2E2E2E2E2E2E2E2E2E2E2E2E2E2E2E2E2E2E2E2DCE2E2BEE2E2E2E2E2E2E2E2E2E2E2E2E2E2E2E2E2E2E2E2E2E2E2E2E2E2E2E2E2E2E2E2E2E2E2E2E2E2E2E2E2
310
E2E2E2E2E2E2E2E2E2E2E2E2E2E2E2E2E2E2E2E2E2E2E2E2E2E2E2E2E2E2E2E2E2E2E2E2E2E2E2E2E2E2E2E2E2E2E2E2E2E2E2E2E2E2E2E2E2E2E2E2E2E2E2E2E2E2E2E2E2E2E2E2E2E2E2E2E2E2E2E2E2E2E2E2E2E2E2E2E2E2E2E2E2E2E2E2E2E2E2E2E2E2E2E2E2E2E2E2E2E2E2E2E2E2E2E2E2E2E2E2E2BEE2E2E2E2E2
310
E2E2E2DCE2E2E22D2D2D2D2D2D2D2D2D2D2D2D2D2D2D2D2D2D2D2DE2E2E2E2E2E2E2E2E2E2E2E2E2E2E2E2E2E2E2E2E2E2E2E2E2E2E2E2E2E2E2E2E2E2E2E2E2E2E2E2E2E2E2E2E2E2E2E2E2E2E2E2E2E2E2E2E2DCE2E2BEE2E2E2E2E2E2E2E2E2E2E2E2E2E2E2E2E2E2E2E2E2E2E2E2E2E2E2E2E2E2E2E2E2E2E2E2E2E2E2
310
E2E2E2E2E2E2E2E2E2E2E2E2E2E2E2E2E2E2E2E2E2E2E2E2E2E2E2E2E2E2E2E2E2E2E2E2E2E2E2E2E2E2E2E2E2E2E2E2E2E2E2E2E2E2E2E2E2E2E2E2E2E2E2E2E2E2E2E2E2E2E2E2E2E2E2E2E2E2E2E2E2E2E2E2E2E2E2E2E2E2E2E2E2E2E2E2E2E2E2E2E2E2E2E2E2E2E2E2E2E2E2E2E2E2E2E2E2E2E2E2E2E2E2BEE2E2E2
310
E2E2E2E2E2DCE2E2E22D2D2D2D2D2D2D2D2D2D2D2D2D2D2D2D2D2D2D2DE2E2E2E2E2E2E2E2E2E2E2E2E2E2E2E2E2E2E2E2E2E2E2E2E2E2E2E2E2E2E2E2E2E2E2E2E2E2E2E2E2E2E2E2E2E2E2E2E2E2E2E2E2E2E2E2E2DCE2E2BEE2E2E2E2E2E2E2E2E2E2E2E2E2E2E2E2E2E2E2E2E2E2E2E2E2E2E2E2E2E2E2E2E2E2E2E2E2
310
E2E2E2E2E2E2E2E2E2E2E2E2E2E2E2E2E2E2E2E2E2E2E2E2E2E2E2E2E2E2E2E2E2E2E2E2E2E2E2E2E2E2E2E2E2E2E2E2E2E2E2E2E2E2E2E2E2E2E2E2E2E2E2E2E2E2E2E2E2E2E2E2E2E2E2E2E2E2E2E2E2E2E2E2E2E2E2E2E2E2E2E2E2E2E2E2E2E2E2E2E2E2E2E2E2E2E2E2E2E2E2E2E2E2E2E2E2E2E2E2E2E2E2E2E2BEE2
310
E2E2E2E2E2E2E2DCE2E2E22DE2E22DE2E22DE2E2E22DE2E22DE2E2E22DE22DE2E2E2E2E2E2E2E2E2E2E2E2E2E2E2E2E2E2E2E2E2E2E2E2E2E2E2E2E2E2E2E2E2E2E2E2E2E2E2E2E2E2E2E2E2E2E2E2E2E2E2E2E2E2E2E2E2DCE2E2BEE2E2E2E2E2E2E2E2E2E2E2E2E2E2E2E2E2E2E2E2E2E2E2E2E2E2E2E2E2E2E2E2E2E2E2
310
E2E2E2E2E2E2E2E2E2E2E2E2E2E2E2E2E2E2E2E2E2E2E2E2E2E2E2E2E2E2E2E2E2E2E2E2E2E2E2E2E2E2E2E2E2E2E2E2E2E2E2E2E2E2E2E2E2E2E2E2E2E2E2E2E2E2E2E2E2E2E2E2E2E2E2E2E2E2E2E2E2E2E2E2E2E2E2E2E2E2E2E2E2E2E2E2E2E2E2E2E2E2E2E2E2E2E2E2E2E2E2E2E2E2E2E2E2E2E2E2E2E2E2E2E2E2E2
310
BEE2E2E2E2E2E2E2E2DCE2E2BEBEBEBEBEBEBEBEBEBEBEBEBEBEBEBEBEBEBEBEBEBEE2E2E2E2E2E2E2E2E2E2E2E2E2E2E2E2E2E2E2E2E2E2E2E2E2E2E2E2E2E2E2E2E2E2E2E2E2E2E2E2E2E2E2E2E2E2E2E2E2E2E2E2E2E2E2E2DCE2E2BEE2E2E2E2E2E2E2E2E2E2E2E2E2E2E2E2E2E2E2E2E2E2E2E2E2E2E2E2E2E2E2E2E2
310
E2E2E2E2E2E2E2E2E2E2E2E2E2E2E2E2E2E2E2E2E2E2E2E2E2E2E2E2E2E2E2E2E2E2E2E2E2E2E2E2E2E2E2E2E2E2E2E2E2E2E2E2E2E2E2E2E2E2E2E2E2E2E2E2E2E2E2E2E2E2E2E2E2E2E2E2E2E2E2E2E2E2E2E2E2E2E2E2E2E2E2E2E2E2E2E2E2E2E2E2E2E2E2E2E2E2E2E2E2E2E2E2E2E2E2E2E2E2E2E2E2E2E2E2E2E2E2
310
E2E2BEE2E2E2E2E2E2E2E2DCE2E2E2E2E2E2E2E2E2E2E2E2E2E2E2E2E2E2E2E2E2E2E2E2E2E2E2E2E2E2E2E2E2E2E2E2E2E2E2E2E2E2E2E2E2E2E2E2E2E2E2E2E2E2E2E2E2E2E2E2E2E2E2E2E2E2E2E2E2E2E2E2E2E2E2E2E2E2E2E2DCE2E2BEE2E2E2E2E2E2E2E2E2E2E2E2E2E2E2E2E2E2E2E2E2E2E2E2E2E2E2E2E2E2E2
310
E2E2E2E2E2E2E2E2E2E2E2E2E2E2E2E2E2E2E2E2E2E2E2E2E2E2E2E2E2E2E2E2E2E2E2E2E2E2E2E2E2E2E2E2E2E2E2E2E2E2E2E2E2E2E2E2E2E2E2E2E2E2E2E2E2E2E2E2E2E2E2E2E2E2E2E2E2E2E2E2E2E2E2E2E2E2E2E2E2E2E2E2E2E2E2E2E2E2E2E2E2E2E2E2E2E2E2E2E2E2E2E2E2E2E2E2E2E2E2E2E2E2E2E2E2E2E2
310
E2E2E2E2BEE2E2E2E2E2E2E2E2DCDCDCDCDCDCDCDCDCDCDCDCDCDCDCDCDCDCDCDCDCDCDCDCDCDCDCDCDCDCDCDCDCDCDCDCDCDCDCDCDCDCDCDCDCDCDCDCDCDCDCDCDCDCDCDCDCDCDCDCDCDCDCDCDCDCDCDCDCDCDCDCDCDCDCDCDCDCDCDCDCDCE2E2BEE2E2E2E2E2E2E2E2E2E2E2E2E2E2E2E2E2E2E2E2E2E2E2E2E2E2E2E2E2
310
E2E2E2E2E2E2E2E2E2E2E2E2E2E2E2E2E2E2E2E2E2E2E2E2E2E2E2E2E2E2E2E2E2E2E2E2E2E2E2E2E2E2E2E2E2E2E2E2E2E2E2E2E2E2E2E2E2E2E2E2E2E2E2E2E2E2E2E2E2E2E2E2E2E2E2E2E2E2E2E2E2E2E2E2E2E2E2E2E2E2E2E2E2E2E2E2E2E2E2E2E2E2E2E2E2E2E2E2E2E2E2E2E2E2E2E2E2E2E2E2E2E2E2E2E2E2E2
310
E2E2E2E2E2E2BEE2E2E2E2E2E2E2E2E2E2E2E2E2E2E2E2E2E2E2E2E2E2E2E2E2E2E2E2E2E2E2E2E2E2E2E2E2E2E2E2E2E2E2E2E2E2E2E2E2E2E2E2E2E2E2E2E2E2E2E2E2E2E2E2E2E2E2E2E2E2E2E2E2E2E2E2E2E2E2E2E2E2E2E2E2E2E2E2E2E2E2E2BEE2E2E2E2E2E2E2E2E2E2E2E2E2E2E2E2E2E2E2E2E2E2E2E2E2E2E2
310
E2E2E2E2E2E2E2E2E2E2E2E2E2E2E2E2E2E2E2E2E2E2E2E2E2E2E2E2E2E2E2E2E2E2E2E2E2E2E2E2E2E2E2E2E2E2E2E2E2E2E2E2E2E2E2E2E2E2E2E2E2E2E2E2E2E2E2E2E2E2E2E2E2E2E2E2E2E2E2E2E2E2E2E2E2E2E2E2E2E2E2E2E2E2E2E2E2E2E2E2E2E2E2E2E2E2E2E2E2E2E2E2E2E2E2E2E2E2E2E2E2E2E2E2E2E2E2
310
E2E2E2E2E2E2E2E2BEE2E2E2E2E2E2E2E2E2E2E2E2E2E2E2E2E2E2E2E2E2E2E2E2E2E2E2E2E2E2E2E2E2E2E2E2E2E2E2E2E2E2E2E2E2E2E2E2E2E2E2E2E2E2E2E2E2E2E2E2E2E2E2E2E2E2E2E2E2E2E2E2E2E2E2E2E2E2E2E2E2E2E2E2E2E2E2E2E2E2E2E2BEE2E2E2E2E2E2E2E2E2E2E2E2E2E2E2E2E2E2E2E2E2E2E2E2E2
310
E2E2E2E2E2E2E2E2E2E2E2E2E2E2E2E2E2E2E2E2E2E2E2E2E2E2E2E2E2E2E2E2E2E2E2E2E2E2E2E2E2E2E2E2E2E2E2E2E2E2E2E2E2E2E2E2E2E2E2E2E2E2E2E2E2E2E2E2E2E2E2E2E2E2E2E2E2E2E2E2E2E2E2E2E2E2E2E2E2E2E2E2E2E2E2E2E2E2E2E2E2E2E2E2E2E2E2E2E2E2E2E2E2E2E2E2E2E2E2E2E2E2E2E2E2E2E2
310
E2E2E2E2E2E2E2E2E2E2BEBEBEBEBEBEBEBEBEBEBEBEBEBEBEBEBEBEBEBEBEBEBEBEBEBEBEBEBEBEBEBEBEBEBEBEBEBEBEBEBEBEBEBEBEBEBEBEBEBEBEBEBEBEBEBEBEBEBEBEBEBEBEBEBEBEBEBEBEBEBEBEBEBEBEBEBEBEBEBEBEBEBEBEBEBEBEBEBEBEBEBEBEBEE2E2E2E2E2E2E2E2E2E2E2E2E2E2E2E2E2E2E2E2E2E2E2
310
E2E2E2E2E2E2E2E2E2E2E2E2E2E2E2E2E2E2E2E2E2E2E2E2E2E2E2E2E2E2E2E2E2E2E2E2E2E2E2E2E2E2E2E2E2E2E2E2E2E2E2E2E2E2E2E2E2E2
  0
XRECORD
  5
47
102
{ACAD_REACTORS
330
46
102
}
330
46
100
AcDbXrecord
280
     1
270
     1
271
     1
  0
XRECORD
  5
48
102
{ACAD_REACTORS
330
46
102
}
330
46
100
AcDbXrecord
280
     1
270
     1
271
     1
  0
XRECORD
  5
49
102
{ACAD_REACTORS
330
46
102
}
330
46
100
AcDbXrecord
280
     1
270
     1
271
     1
  0
XRECORD
  5
4A
102
{ACAD_REACTORS
330
46
102
}
330
46
100
AcDbXrecord
280
     1
270
     1
271
     1
  0
XRECORD
  5
4B
102
{ACAD_REACTORS
330
46
102
}
330
46
100
AcDbXrecord
280
     1
270
     1
271
     1
  0
XRECORD
  5
4C
102
{ACAD_REACTORS
330
46
102
}
330
46
100
AcDbXrecord
280
     1
270
     1
271
     1
  0
XRECORD
  5
3F
102
{ACAD_REACTORS
330
3E
102
}
330
3E
100
AcDbXrecord
280
     1
270
     1
271
     1
  0
XRECORD
  5
40
102
{ACAD_REACTORS
330
3E
102
}
330
3E
100
AcDbXrecord
280
     1
270
     1
271
     1
  0
XRECORD
  5
41
102
{ACAD_REACTORS
330
3E
102
}
330
3E
100
AcDbXrecord
280
     1
270
     1
271
     1
  0
XRECORD
  5
42
102
{ACAD_REACTORS
330
3E
102
}
330
3E
100
AcDbXrecord
280
     1
270
     1
271
     1
  0
XRECORD
  5
43
102
{ACAD_REACTORS
330
3E
102
}
330
3E
100
AcDbXrecord
280
     1
270
     1
271
     1
  0
XRECORD
  5
44
102
{ACAD_REACTORS
330
3E
102
}
330
3E
100
AcDbXrecord
280
     1
270
     1
271
     1
  0
XRECORD
  5
F
102
{ACAD_REACTORS
330
E
102
}
330
E
100
AcDbXrecord
280
     1
270
     1
271
     1
  0
XRECORD
  5
10
102
{ACAD_REACTORS
330
E
102
}
330
E
100
AcDbXrecord
280
     1
270
     1
271
     1
  0
XRECORD
  5
11
102
{ACAD_REACTORS
330
E
102
}
330
E
100
AcDbXrecord
280
     1
270
     1
271
     1
  0
XRECORD
  5
12
102
{ACAD_REACTORS
330
E
102
}
330
E
100
AcDbXrecord
280
     1
270
     1
271
     1
  0
XRECORD
  5
13
102
{ACAD_REACTORS
330
E
102
}
330
E
100
AcDbXrecord
280
     1
270
     1
271
     1
  0
XRECORD
  5
14
102
{ACAD_REACTORS
330
E
102
}
330
E
100
AcDbXrecord
280
     1
270
     1
271
     1
  0
CELLSTYLEMAP
  5
4CC
102
{ACAD_REACTORS
330
56
102
}
330
56
100
AcDbCellStyleMap
 90
        3
300
CELLSTYLE
  1
TABLEFORMAT_BEGIN
 90
        5
170
     1
 91
        0
 92
    32768
 62
   257
 93
        1
300
CONTENTFORMAT
  1
CONTENTFORMAT_BEGIN
 90
        0
 91
        0
 92
      512
 93
        0
300

 40
0.0
140
1.0
 94
        5
 62
     0
340
27
144
6.0
309
CONTENTFORMAT_END
171
     1
301
MARGIN
  1
CELLMARGIN_BEGIN
 40
1.5
 40
1.5
 40
1.5
 40
1.5
 40
4.5
 40
4.5
309
CELLMARGIN_END
 94
        6
 95
        1
302
GRIDFORMAT
  1
GRIDFORMAT_BEGIN
 90
        0
 91
        1
 62
     0
 92
       -2
340
0
 93
        0
 40
1.125
309
GRIDFORMAT_END
 95
        2
302
GRIDFORMAT
  1
GRIDFORMAT_BEGIN
 90
        0
 91
        1
 62
     0
 92
       -2
340
0
 93
        0
 40
1.125
309
GRIDFORMAT_END
 95
        4
302
GRIDFORMAT
  1
GRIDFORMAT_BEGIN
 90
        0
 91
        1
 62
     0
 92
       -2
340
0
 93
        0
 40
1.125
309
GRIDFORMAT_END
 95
        8
302
GRIDFORMAT
  1
GRIDFORMAT_BEGIN
 90
        0
 91
        1
 62
     0
 92
       -2
340
0
 93
        0
 40
1.125
309
GRIDFORMAT_END
 95
       16
302
GRIDFORMAT
  1
GRIDFORMAT_BEGIN
 90
        0
 91
        1
 62
     0
 92
       -2
340
0
 93
        0
 40
1.125
309
GRIDFORMAT_END
 95
       32
302
GRIDFORMAT
  1
GRIDFORMAT_BEGIN
 90
        0
 91
        1
 62
     0
 92
       -2
340
0
 93
        0
 40
1.125
309
GRIDFORMAT_END
309
TABLEFORMAT_END
  1
CELLSTYLE_BEGIN
 90
        1
 91
        1
300
_TITLE
309
CELLSTYLE_END
300
CELLSTYLE
  1
TABLEFORMAT_BEGIN
 90
        5
170
     1
 91
        0
 92
        0
 62
   257
 93
        1
300
CONTENTFORMAT
  1
CONTENTFORMAT_BEGIN
 90
        0
 91
        0
 92
      512
 93
        0
300

 40
0.0
140
1.0
 94
        5
 62
     0
340
27
144
4.5
309
CONTENTFORMAT_END
171
     1
301
MARGIN
  1
CELLMARGIN_BEGIN
 40
1.5
 40
1.5
 40
1.5
 40
1.5
 40
4.5
 40
4.5
309
CELLMARGIN_END
 94
        6
 95
        1
302
GRIDFORMAT
  1
GRIDFORMAT_BEGIN
 90
        0
 91
        1
 62
     0
 92
       -2
340
0
 93
        0
 40
1.125
309
GRIDFORMAT_END
 95
        2
302
GRIDFORMAT
  1
GRIDFORMAT_BEGIN
 90
        0
 91
        1
 62
     0
 92
       -2
340
0
 93
        0
 40
1.125
309
GRIDFORMAT_END
 95
        4
302
GRIDFORMAT
  1
GRIDFORMAT_BEGIN
 90
        0
 91
        1
 62
     0
 92
       -2
340
0
 93
        0
 40
1.125
309
GRIDFORMAT_END
 95
        8
302
GRIDFORMAT
  1
GRIDFORMAT_BEGIN
 90
        0
 91
        1
 62
     0
 92
       -2
340
0
 93
        0
 40
1.125
309
GRIDFORMAT_END
 95
       16
302
GRIDFORMAT
  1
GRIDFORMAT_BEGIN
 90
        0
 91
        1
 62
     0
 92
       -2
340
0
 93
        0
 40
1.125
309
GRIDFORMAT_END
 95
       32
302
GRIDFORMAT
  1
GRIDFORMAT_BEGIN
 90
        0
 91
        1
 62
     0
 92
       -2
340
0
 93
        0
 40
1.125
309
GRIDFORMAT_END
309
TABLEFORMAT_END
  1
CELLSTYLE_BEGIN
 90
        2
 91
        1
300
_HEADER
309
CELLSTYLE_END
300
CELLSTYLE
  1
TABLEFORMAT_BEGIN
 90
        5
170
     1
 91
        0
 92
        0
 62
   257
 93
        1
300
CONTENTFORMAT
  1
CONTENTFORMAT_BEGIN
 90
        0
 91
        0
 92
      512
 93
        0
300

 40
0.0
140
1.0
 94
        2
 62
     0
340
27
144
4.5
309
CONTENTFORMAT_END
171
     1
301
MARGIN
  1
CELLMARGIN_BEGIN
 40
1.5
 40
1.5
 40
1.5
 40
1.5
 40
4.5
 40
4.5
309
CELLMARGIN_END
 94
        6
 95
        1
302
GRIDFORMAT
  1
GRIDFORMAT_BEGIN
 90
        0
 91
        1
 62
     0
 92
       -2
340
0
 93
        0
 40
1.125
309
GRIDFORMAT_END
 95
        2
302
GRIDFORMAT
  1
GRIDFORMAT_BEGIN
 90
        0
 91
        1
 62
     0
 92
       -2
340
0
 93
        0
 40
1.125
309
GRIDFORMAT_END
 95
        4
302
GRIDFORMAT
  1
GRIDFORMAT_BEGIN
 90
        0
 91
        1
 62
     0
 92
       -2
340
0
 93
        0
 40
1.125
309
GRIDFORMAT_END
 95
        8
302
GRIDFORMAT
  1
GRIDFORMAT_BEGIN
 90
        0
 91
        1
 62
     0
 92
       -2
340
0
 93
        0
 40
1.125
309
GRIDFORMAT_END
 95
       16
302
GRIDFORMAT
  1
GRIDFORMAT_BEGIN
 90
        0
 91
        1
 62
     0
 92
       -2
340
0
 93
        0
 40
1.125
309
GRIDFORMAT_END
 95
       32
302
GRIDFORMAT
  1
GRIDFORMAT_BEGIN
 90
        0
 91
        1
 62
     0
 92
       -2
340
0
 93
        0
 40
1.125
309
GRIDFORMAT_END
309
TABLEFORMAT_END
  1
CELLSTYLE_BEGIN
 90
        3
 91
        2
300
_DATA
309
CELLSTYLE_END
  0
ENDSEC
  0
EOF
