  0
SECTION
  2
HEADER
  9
$ACADVER
  1
AC1024
  9
$ACADMAINTVER
 70
    10
  9
$DWGCODEPAGE
  3
ANSI_1252
  9
$INSBASE
 10
0.0
 20
0.0
 30
0.0
  9
$EXTMIN
 10
-283.5862247844339
 20
901.6806640727478
 30
0.0
  9
$EXTMAX
 10
1129.697207840046
 20
1683.789752903814
 30
0.0
  9
$LIMMIN
 10
0.0
 20
-0.0000000000002274
  9
$LIMMAX
 10
420.0
 20
593.9999999999997
  9
$ORTHOMODE
 70
     1
  9
$REGENMODE
 70
     1
  9
$FILLMODE
 70
     1
  9
$QTEXTMODE
 70
     0
  9
$MIRRTEXT
 70
     0
  9
$LTSCALE
 40
15.0
  9
$ATTMODE
 70
     1
  9
$TEXTSIZE
 40
12.0
  9
$TRACEWID
 40
1.0
  9
$TEXTSTYLE
  7
Standard
  9
$CLAYER
  8
09-01
  9
$CELTYPE
  6
ByLayer
  9
$CECOLOR
 62
   256
  9
$CELTSCALE
 40
1.0
  9
$DISPSILH
 70
     0
  9
$DIMSCALE
 40
2.0
  9
$DIMASZ
 40
2.5
  9
$DIMEXO
 40
1.0
  9
$DIMDLI
 40
10.0
  9
$DIMRND
 40
0.0
  9
$DIMDLE
 40
0.0
  9
$DIMEXE
 40
1.0
  9
$DIMTP
 40
0.0
  9
$DIMTM
 40
0.0
  9
$DIMTXT
 40
2.5
  9
$DIMCEN
 40
0.0
  9
$DIMTSZ
 40
0.0
  9
$DIMTOL
 70
     0
  9
$DIMLIM
 70
     0
  9
$DIMTIH
 70
     0
  9
$DIMTOH
 70
     0
  9
$DIMSE1
 70
     0
  9
$DIMSE2
 70
     0
  9
$DIMTAD
 70
     1
  9
$DIMZIN
 70
     8
  9
$DIMBLK
  1

  9
$DIMASO
 70
     1
  9
$DIMSHO
 70
     1
  9
$DIMPOST
  1

  9
$DIMAPOST
  1

  9
$DIMALT
 70
     0
  9
$DIMALTD
 70
     3
  9
$DIMALTF
 40
0.03937007874016
  9
$DIMLFAC
 40
1.0
  9
$DIMTOFL
 70
     1
  9
$DIMTVP
 40
0.0
  9
$DIMTIX
 70
     0
  9
$DIMSOXD
 70
     0
  9
$DIMSAH
 70
     0
  9
$DIMBLK1
  1

  9
$DIMBLK2
  1

  9
$DIMSTYLE
  2
Wagner
  9
$DIMCLRD
 70
     4
  9
$DIMCLRE
 70
     4
  9
$DIMCLRT
 70
     1
  9
$DIMTFAC
 40
1.0
  9
$DIMGAP
 40
1.0
  9
$DIMJUST
 70
     0
  9
$DIMSD1
 70
     0
  9
$DIMSD2
 70
     0
  9
$DIMTOLJ
 70
     0
  9
$DIMTZIN
 70
     8
  9
$DIMALTZ
 70
     0
  9
$DIMALTTZ
 70
     0
  9
$DIMUPT
 70
     0
  9
$DIMDEC
 70
     8
  9
$DIMTDEC
 70
     8
  9
$DIMALTU
 70
     2
  9
$DIMALTTD
 70
     3
  9
$DIMTXSTY
  7
Standard
  9
$DIMAUNIT
 70
     0
  9
$DIMADEC
 70
     1
  9
$DIMALTRND
 40
0.0
  9
$DIMAZIN
 70
     2
  9
$DIMDSEP
 70
    46
  9
$DIMATFIT
 70
     3
  9
$DIMFRAC
 70
     0
  9
$DIMLDRBLK
  1

  9
$DIMLUNIT
 70
     2
  9
$DIMLWD
 70
    -2
  9
$DIMLWE
 70
    -2
  9
$DIMTMOVE
 70
     0
  9
$DIMFXL
 40
1.0
  9
$DIMFXLON
 70
     0
  9
$DIMJOGANG
 40
0.7853981633974483
  9
$DIMTFILL
 70
     0
  9
$DIMTFILLCLR
 70
     0
  9
$DIMARCSYM
 70
     0
  9
$DIMLTYPE
  6

  9
$DIMLTEX1
  6

  9
$DIMLTEX2
  6

  9
$DIMTXTDIRECTION
 70
     0
  9
$LUNITS
 70
     2
  9
$LUPREC
 70
     1
  9
$SKETCHINC
 40
1.0
  9
$FILLETRAD
 40
0.0
  9
$AUNITS
 70
     0
  9
$AUPREC
 70
     0
  9
$MENU
  1
.
  9
$ELEVATION
 40
0.0
  9
$PELEVATION
 40
0.0
  9
$THICKNESS
 40
0.0
  9
$LIMCHECK
 70
     0
  9
$CHAMFERA
 40
0.0
  9
$CHAMFERB
 40
0.0
  9
$CHAMFERC
 40
20.0
  9
$CHAMFERD
 40
0.0
  9
$SKPOLY
 70
     0
  9
$TDCREATE
 40
2453171.322436088
  9
$TDUCREATE
 40
2453171.280769421
  9
$TDUPDATE
 40
2459143.359477338
  9
$TDUUPDATE
 40
2459143.317810672
  9
$TDINDWG
 40
4.1696454167
  9
$TDUSRTIMER
 40
4.1696454167
  9
$USRTIMER
 70
     1
  9
$ANGBASE
 50
0.0
  9
$ANGDIR
 70
     0
  9
$PDMODE
 70
     0
  9
$PDSIZE
 40
0.0
  9
$PLINEWID
 40
0.0
  9
$SPLFRAME
 70
     0
  9
$SPLINETYPE
 70
     6
  9
$SPLINESEGS
 70
     8
  9
$HANDSEED
  5
4C2
  9
$SURFTAB1
 70
     6
  9
$SURFTAB2
 70
     6
  9
$SURFTYPE
 70
     6
  9
$SURFU
 70
     6
  9
$SURFV
 70
     6
  9
$UCSBASE
  2

  9
$UCSNAME
  2

  9
$UCSORG
 10
0.0
 20
0.0
 30
0.0
  9
$UCSXDIR
 10
1.0
 20
0.0
 30
0.0
  9
$UCSYDIR
 10
0.0
 20
1.0
 30
0.0
  9
$UCSORTHOREF
  2

  9
$UCSORTHOVIEW
 70
     0
  9
$UCSORGTOP
 10
0.0
 20
0.0
 30
0.0
  9
$UCSORGBOTTOM
 10
0.0
 20
0.0
 30
0.0
  9
$UCSORGLEFT
 10
0.0
 20
0.0
 30
0.0
  9
$UCSORGRIGHT
 10
0.0
 20
0.0
 30
0.0
  9
$UCSORGFRONT
 10
0.0
 20
0.0
 30
0.0
  9
$UCSORGBACK
 10
0.0
 20
0.0
 30
0.0
  9
$PUCSBASE
  2

  9
$PUCSNAME
  2

  9
$PUCSORG
 10
0.0
 20
0.0
 30
0.0
  9
$PUCSXDIR
 10
1.0
 20
0.0
 30
0.0
  9
$PUCSYDIR
 10
0.0
 20
1.0
 30
0.0
  9
$PUCSORTHOREF
  2

  9
$PUCSORTHOVIEW
 70
     0
  9
$PUCSORGTOP
 10
0.0
 20
0.0
 30
0.0
  9
$PUCSORGBOTTOM
 10
0.0
 20
0.0
 30
0.0
  9
$PUCSORGLEFT
 10
0.0
 20
0.0
 30
0.0
  9
$PUCSORGRIGHT
 10
0.0
 20
0.0
 30
0.0
  9
$PUCSORGFRONT
 10
0.0
 20
0.0
 30
0.0
  9
$PUCSORGBACK
 10
0.0
 20
0.0
 30
0.0
  9
$USERI1
 70
     0
  9
$USERI2
 70
     0
  9
$USERI3
 70
     0
  9
$USERI4
 70
     0
  9
$USERI5
 70
     0
  9
$USERR1
 40
0.0
  9
$USERR2
 40
0.0
  9
$USERR3
 40
0.0
  9
$USERR4
 40
0.0
  9
$USERR5
 40
0.0
  9
$WORLDVIEW
 70
     1
  9
$SHADEDGE
 70
     3
  9
$SHADEDIF
 70
    70
  9
$TILEMODE
 70
     1
  9
$MAXACTVP
 70
    64
  9
$PINSBASE
 10
0.0
 20
0.0
 30
0.0
  9
$PLIMCHECK
 70
     0
  9
$PEXTMIN
 10
1.000000000000000E+20
 20
1.000000000000000E+20
 30
1.000000000000000E+20
  9
$PEXTMAX
 10
-1.000000000000000E+20
 20
-1.000000000000000E+20
 30
-1.000000000000000E+20
  9
$PLIMMIN
 10
0.0
 20
0.0
  9
$PLIMMAX
 10
420.0
 20
297.0
  9
$UNITMODE
 70
     0
  9
$VISRETAIN
 70
     1
  9
$PLINEGEN
 70
     0
  9
$PSLTSCALE
 70
     1
  9
$TREEDEPTH
 70
  3020
  9
$CMLSTYLE
  2
Standard
  9
$CMLJUST
 70
     0
  9
$CMLSCALE
 40
20.0
  9
$PROXYGRAPHICS
 70
     1
  9
$MEASUREMENT
 70
     1
  9
$CELWEIGHT
370
    -1
  9
$ENDCAPS
280
     0
  9
$JOINSTYLE
280
     0
  9
$LWDISPLAY
290
     0
  9
$INSUNITS
 70
     4
  9
$HYPERLINKBASE
  1

  9
$STYLESHEET
  1

  9
$XEDIT
290
     1
  9
$CEPSNTYPE
380
     0
  9
$PSTYLEMODE
290
     1
  9
$FINGERPRINTGUID
  2
{692E1759-C6F6-4B0C-97FF-DBC8086D37C4}
  9
$VERSIONGUID
  2
{341A7456-39AB-4691-9A23-295620BB69ED}
  9
$EXTNAMES
290
     1
  9
$PSVPSCALE
 40
0.0
  9
$OLESTARTUP
290
     0
  9
$SORTENTS
280
   127
  9
$INDEXCTL
280
     0
  9
$HIDETEXT
280
     1
  9
$XCLIPFRAME
280
     0
  9
$HALOGAP
280
     0
  9
$OBSCOLOR
 70
   257
  9
$OBSLTYPE
280
     0
  9
$INTERSECTIONDISPLAY
280
     0
  9
$INTERSECTIONCOLOR
 70
   257
  9
$DIMASSOC
280
     1
  9
$PROJECTNAME
  1

  9
$CAMERADISPLAY
290
     0
  9
$LENSLENGTH
 40
50.0
  9
$CAMERAHEIGHT
 40
0.0
  9
$STEPSPERSEC
 40
2.0
  9
$STEPSIZE
 40
6.0
  9
$3DDWFPREC
 40
2.0
  9
$PSOLWIDTH
 40
0.25
  9
$PSOLHEIGHT
 40
4.0
  9
$LOFTANG1
 40
1.570796326794896
  9
$LOFTANG2
 40
1.570796326794896
  9
$LOFTMAG1
 40
0.0
  9
$LOFTMAG2
 40
0.0
  9
$LOFTPARAM
 70
     7
  9
$LOFTNORMALS
280
     1
  9
$LATITUDE
 40
37.795
  9
$LONGITUDE
 40
-122.394
  9
$NORTHDIRECTION
 40
0.0
  9
$TIMEZONE
 70
 -8000
  9
$LIGHTGLYPHDISPLAY
280
     1
  9
$TILEMODELIGHTSYNCH
280
     1
  9
$CMATERIAL
347
3D
  9
$SOLIDHIST
280
     1
  9
$SHOWHIST
280
     1
  9
$DWFFRAME
280
     2
  9
$DGNFRAME
280
     0
  9
$REALWORLDSCALE
290
     1
  9
$INTERFERECOLOR
 62
     1
  9
$INTERFEREOBJVS
345
57
  9
$INTERFEREVPVS
346
58
  9
$CSHADOW
280
     0
  9
$SHADOWPLANELOCATION
 40
0.0
  0
ENDSEC
  0
SECTION
  2
CLASSES
  0
CLASS
  1
ACDBDICTIONARYWDFLT
  2
AcDbDictionaryWithDefault
  3
ObjectDBX Classes
 90
        0
 91
        1
280
     0
281
     0
  0
CLASS
  1
MATERIAL
  2
AcDbMaterial
  3
ObjectDBX Classes
 90
     1153
 91
        3
280
     0
281
     0
  0
CLASS
  1
VISUALSTYLE
  2
AcDbVisualStyle
  3
ObjectDBX Classes
 90
     4095
 91
        3
280
     0
281
     0
  0
CLASS
  1
TABLESTYLE
  2
AcDbTableStyle
  3
ObjectDBX Classes
 90
     4095
 91
        1
280
     0
281
     0
  0
CLASS
  1
SCALE
  2
AcDbScale
  3
ObjectDBX Classes
 90
     1153
 91
       33
280
     0
281
     0
  0
CLASS
  1
MLEADERSTYLE
  2
AcDbMLeaderStyle
  3
ACDB_MLEADERSTYLE_CLASS
 90
     4095
 91
        0
280
     0
281
     0
  0
CLASS
  1
SORTENTSTABLE
  2
AcDbSortentsTable
  3
ObjectDBX Classes
 90
        0
 91
        8
280
     0
281
     0
  0
CLASS
  1
CELLSTYLEMAP
  2
AcDbCellStyleMap
  3
ObjectDBX Classes
 90
     1152
 91
        1
280
     0
281
     0
  0
CLASS
  1
DICTIONARYVAR
  2
AcDbDictionaryVar
  3
ObjectDBX Classes
 90
        0
 91
        6
280
     0
281
     0
  0
CLASS
  1
DIMASSOC
  2
AcDbDimAssoc
  3
"AcDbDimAssoc|Product Desc:     AcDim ARX App For Dimension|Company:          Autodesk, Inc.|WEB Address:      www.autodesk.com"
 90
        0
 91
        0
280
     0
281
     0
  0
CLASS
  1
ACAD_TABLE
  2
AcDbTable
  3
ObjectDBX Classes
 90
     1025
 91
        0
280
     0
281
     1
  0
CLASS
  1
TABLECONTENT
  2
AcDbTableContent
  3
ObjectDBX Classes
 90
     1152
 91
        0
280
     0
281
     0
  0
CLASS
  1
TABLEGEOMETRY
  2
AcDbTableGeometry
  3
ObjectDBX Classes
 90
     1152
 91
        0
280
     0
281
     0
  0
CLASS
  1
PLOTSETTINGS
  2
AcDbPlotSettings
  3
ObjectDBX Classes
 90
        0
 91
        0
280
     0
281
     0
  0
CLASS
  1
SOLID_BACKGROUND
  2
AcDbSolidBackground
  3
SCENEOE
 90
     4095
 91
        0
280
     0
281
     0
  0
CLASS
  1
NPOCOLLECTION
  2
AcDbImpNonPersistentObjectsCollection
  3
ObjectDBX Classes
 90
     1153
 91
        0
280
     0
281
     0
  0
CLASS
  1
AEC_REFEDIT_STATUS_TRACKER
  2
AecDbRefEditStatusTracker
  3
AecArchBase60|Product Desc: Autodesk Architectural Desktop 2007 |Company: Autodesk,Inc. |WEB Address: www.autodesk.com
 90
      129
 91
        0
280
     0
281
     0
  0
CLASS
  1
EXACXREFPANELOBJECT
  2
ExAcXREFPanelObject
  3
EXAC_ESW
 90
     1025
 91
        0
280
     1
281
     0
  0
CLASS
  1
ACDBASSOCNETWORK
  2
AcDbAssocNetwork
  3
ObjectDBX Classes
 90
     1025
 91
        0
280
     0
281
     0
  0
CLASS
  1
ACDBASSOC2DCONSTRAINTGROUP
  2
AcDbAssoc2dConstraintGroup
  3
ObjectDBX Classes
 90
     1025
 91
        0
280
     0
281
     0
  0
CLASS
  1
ACDBASSOCGEOMDEPENDENCY
  2
AcDbAssocGeomDependency
  3
ObjectDBX Classes
 90
     1025
 91
        0
280
     0
281
     0
  0
CLASS
  1
ACDB_DYNAMICBLOCKPURGEPREVENTER_VERSION
  2
AcDbDynamicBlockPurgePreventer
  3
ObjectDBX Classes
 90
     1153
 91
        0
280
     0
281
     0
  0
ENDSEC
  0
SECTION
  2
TABLES
  0
TABLE
  2
VPORT
  5
2E
102
{ACAD_XDICTIONARY
360
32
102
}
330
0
100
AcDbSymbolTable
 70
     1
  0
VPORT
  5
2F
330
2E
100
AcDbSymbolTableRecord
100
AcDbViewportTableRecord
  2
*Active
 70
     0
 10
0.0
 20
0.0
 11
1.0
 21
1.0
 12
165.9731860972997
 22
1185.18102801683
 13
0.0
 23
0.0
 14
10.0
 24
10.0
 15
100.0
 25
100.0
 16
0.0
 26
0.0
 36
1.0
 17
0.0
 27
0.0
 37
0.0
 40
658.4388500197981
 41
2.203703703703703
 42
50.0
 43
0.0
 44
0.0
 50
0.0
 51
0.0
 71
     0
 72
  1000
 73
     1
 74
     0
 75
     0
 76
     0
 77
     0
 78
     0
281
     0
 65
     1
110
0.0
120
0.0
130
0.0
111
1.0
121
0.0
131
0.0
112
0.0
122
1.0
132
0.0
 79
     0
146
0.0
348
30
 60
     3
 61
     5
292
     1
282
     1
141
0.0
142
0.0
 63
   250
421
  3355443
  0
ENDTAB
  0
TABLE
  2
LTYPE
  5
29
330
0
100
AcDbSymbolTable
 70
     4
  0
LTYPE
  5
2A
330
29
100
AcDbSymbolTableRecord
100
AcDbLinetypeTableRecord
  2
ByBlock
 70
     0
  3

 72
    65
 73
     0
 40
0.0
  0
LTYPE
  5
2B
330
29
100
AcDbSymbolTableRecord
100
AcDbLinetypeTableRecord
  2
ByLayer
 70
     0
  3

 72
    65
 73
     0
 40
0.0
  0
LTYPE
  5
15
330
29
100
AcDbSymbolTableRecord
100
AcDbLinetypeTableRecord
  2
Continuous
 70
     0
  3
Solid line
 72
    65
 73
     0
 40
0.0
  0
LTYPE
  5
9A
330
29
100
AcDbSymbolTableRecord
100
AcDbLinetypeTableRecord
  2
VERDECKT
 70
     0
  3
Verdeckt __ __ __ __ __ __ __ __ __ __ __ __ __
 72
    65
 73
     2
 40
0.375
 49
0.25
 74
     0
 49
-0.125
 74
     0
  0
LTYPE
  5
9F
330
29
100
AcDbSymbolTableRecord
100
AcDbLinetypeTableRecord
  2
STRICHPUNKT
 70
     0
  3
Strichpunkt __ . __ . __ . __ . __ . __ . __ . 
 72
    65
 73
     4
 40
1.0
 49
0.5
 74
     0
 49
-0.25
 74
     0
 49
0.0
 74
     0
 49
-0.25
 74
     0
  0
LTYPE
  5
B9
330
29
100
AcDbSymbolTableRecord
100
AcDbLinetypeTableRecord
  2
AUSGEZOGEN
 70
     0
  3
Ausgezogene Linie
 72
    65
 73
     0
 40
0.0
  0
ENDTAB
  0
TABLE
  2
LAYER
  5
20
102
{ACAD_XDICTIONARY
360
21
102
}
330
0
100
AcDbSymbolTable
 70
    14
  0
LAYER
  5
6
102
{ACAD_XDICTIONARY
360
7
102
}
330
20
100
AcDbSymbolTableRecord
100
AcDbLayerTableRecord
  2
0
 70
     0
 62
     7
  6
Continuous
370
    -3
390
9
347
C
  0
LAYER
  5
313
102
{ACAD_XDICTIONARY
360
314
102
}
330
20
100
AcDbSymbolTableRecord
100
AcDbLayerTableRecord
  2
01-01
 70
     0
 62
     2
  6
Continuous
370
    -3
390
9
347
C
  0
LAYER
  5
51
102
{ACAD_XDICTIONARY
360
52
102
}
330
20
100
AcDbSymbolTableRecord
100
AcDbLayerTableRecord
  2
09-01
 70
     0
 62
     7
  6
Continuous
370
    -3
390
9
347
C
  0
LAYER
  5
84
330
20
100
AcDbSymbolTableRecord
100
AcDbLayerTableRecord
  2
Defpoints
 70
     0
 62
     7
  6
Continuous
290
     0
370
    -3
390
9
347
C
  0
LAYER
  5
97
102
{ACAD_XDICTIONARY
360
98
102
}
330
20
100
AcDbSymbolTableRecord
100
AcDbLayerTableRecord
  2
03-01
 70
     0
 62
     3
  6
VERDECKT
370
    -3
390
9
347
C
  0
LAYER
  5
9C
102
{ACAD_XDICTIONARY
360
9D
102
}
330
20
100
AcDbSymbolTableRecord
100
AcDbLayerTableRecord
  2
05-01
 70
     0
 62
     1
  6
STRICHPUNKT
370
    -3
390
9
347
C
  0
LAYER
  5
353
102
{ACAD_XDICTIONARY
360
354
102
}
330
20
100
AcDbSymbolTableRecord
100
AcDbLayerTableRecord
  2
01-99
 70
     0
 62
     2
  6
Continuous
370
    -3
390
9
347
C
  0
LAYER
  5
390
102
{ACAD_XDICTIONARY
360
391
102
}
330
20
100
AcDbSymbolTableRecord
100
AcDbLayerTableRecord
  2
06-99
 70
     0
 62
     1
  6
AUSGEZOGEN
370
    -3
390
9
347
C
  0
LAYER
  5
359
102
{ACAD_XDICTIONARY
360
35A
102
}
330
20
100
AcDbSymbolTableRecord
100
AcDbLayerTableRecord
  2
02-99
 70
     0
 62
     1
  6
AUSGEZOGEN
370
    -3
390
9
347
C
  0
LAYER
  5
37A
102
{ACAD_XDICTIONARY
360
37B
102
}
330
20
100
AcDbSymbolTableRecord
100
AcDbLayerTableRecord
  2
08-99
 70
     0
 62
     7
  6
Continuous
370
    -3
390
9
347
C
  0
LAYER
  5
486
102
{ACAD_XDICTIONARY
360
487
102
}
330
20
100
AcDbSymbolTableRecord
100
AcDbLayerTableRecord
  2
EBENE_1
 70
     0
 62
     7
  6
Continuous
370
    -3
390
9
347
C
  0
LAYER
  5
278
102
{ACAD_XDICTIONARY
360
279
102
}
330
20
100
AcDbSymbolTableRecord
100
AcDbLayerTableRecord
  2
02-01
 70
     0
 62
     1
  6
Continuous
370
    -3
390
9
347
C
  0
LAYER
  5
B7
102
{ACAD_XDICTIONARY
360
B8
102
}
330
20
100
AcDbSymbolTableRecord
100
AcDbLayerTableRecord
  2
07-99
 70
     0
 62
     6
  6
AUSGEZOGEN
370
    -3
390
9
347
C
  0
LAYER
  5
E2
102
{ACAD_XDICTIONARY
360
E3
102
}
330
20
100
AcDbSymbolTableRecord
100
AcDbLayerTableRecord
  2
04-01
 70
     0
 62
     5
  6
VERDECKT
370
    -3
390
9
347
C
  0
ENDTAB
  0
TABLE
  2
STYLE
  5
26
330
0
100
AcDbSymbolTable
 70
     3
  0
STYLE
  5
27
330
26
100
AcDbSymbolTableRecord
100
AcDbTextStyleTableRecord
  2
Standard
 70
     0
 40
0.0
 41
1.0
 50
0.0
 71
     0
 42
12.0
  3
txt
  4

  0
STYLE
  5
37D
330
26
100
AcDbSymbolTableRecord
100
AcDbTextStyleTableRecord
  2
ROMANS8
 70
     0
 40
0.0
 41
1.0
 50
0.0
 71
     0
 42
2.5
  3
ROMANS8
  4

  0
STYLE
  5
3A3
330
26
100
AcDbSymbolTableRecord
100
AcDbTextStyleTableRecord
  2
ROMAND8
 70
     0
 40
0.0
 41
1.0
 50
0.0
 71
     0
 42
3.5
  3
ROMAND8
  4

  0
ENDTAB
  0
TABLE
  2
VIEW
  5
2C
330
0
100
AcDbSymbolTable
 70
     0
  0
ENDTAB
  0
TABLE
  2
UCS
  5
2D
330
0
100
AcDbSymbolTable
 70
     0
  0
ENDTAB
  0
TABLE
  2
APPID
  5
33
330
0
100
AcDbSymbolTable
 70
     5
  0
APPID
  5
25
330
33
100
AcDbSymbolTableRecord
100
AcDbRegAppTableRecord
  2
ACAD
 70
     0
  0
APPID
  5
36
330
33
100
AcDbSymbolTableRecord
100
AcDbRegAppTableRecord
  2
ACAD_DSTYLE_DIMJOGGED_JOGANGLE_SYMBOL
 70
     0
  0
APPID
  5
37
330
33
100
AcDbSymbolTableRecord
100
AcDbRegAppTableRecord
  2
ACAD_DSTYLE_DIMJAG
 70
     0
  0
APPID
  5
38
330
33
100
AcDbSymbolTableRecord
100
AcDbRegAppTableRecord
  2
ACAD_DSTYLE_DIMTALN
 70
     0
  0
APPID
  5
1B
330
33
100
AcDbSymbolTableRecord
100
AcDbRegAppTableRecord
  2
ACAD_PSEXT
 70
     0
  0
ENDTAB
  0
TABLE
  2
DIMSTYLE
  5
34
330
0
100
AcDbSymbolTable
 70
     2
100
AcDbDimStyleTable
 71
     1
340
35
  0
DIMSTYLE
105
35
330
34
100
AcDbSymbolTableRecord
100
AcDbDimStyleTableRecord
  2
Wagner
 70
     0
 41
2.5
 42
1.0
 43
10.0
 44
1.0
 73
     0
 74
     0
 77
     1
 78
     8
 79
     2
140
2.5
141
0.0
143
0.03937007874016
147
1.0
171
     3
172
     1
176
     4
177
     4
178
     1
179
     1
271
     8
272
     8
274
     3
283
     0
284
     8
340
27
1001
ACAD_DSTYLE_DIMJOGGED_JOGANGLE_SYMBOL
1070
   384
1040
0.7853981633974483
1001
ACAD_DSTYLE_DIMJAG
1070
   388
1040
1.5
1001
ACAD_DSTYLE_DIMTALN
1070
   392
1070
     0
  0
DIMSTYLE
105
88
102
{ACAD_REACTORS
330
17F
330
445
330
438
330
3D3
330
340
330
333
330
89
330
7A
102
}
330
34
100
AcDbSymbolTableRecord
100
AcDbDimStyleTableRecord
  2
Wagner$0
 70
     0
 41
2.5
 42
1.0
 43
10.0
 44
1.0
 73
     0
 74
     0
 77
     1
 78
     8
 79
     2
140
2.5
141
0.0
143
0.03937007874016
147
1.0
171
     3
172
     1
174
     1
176
     4
177
     4
178
     1
179
     1
271
     8
272
     8
274
     3
279
     2
283
     0
284
     8
340
27
1001
ACAD_DSTYLE_DIMJOGGED_JOGANGLE_SYMBOL
1070
   384
1040
0.7853981633974483
1001
ACAD_DSTYLE_DIMJAG
1070
   388
1040
1.5
1001
ACAD_DSTYLE_DIMTALN
1070
   392
1070
     0
  0
ENDTAB
  0
TABLE
  2
BLOCK_RECORD
  5
1
330
0
100
AcDbSymbolTable
 70
    15
  0
BLOCK_RECORD
  5
2
102
{ACAD_XDICTIONARY
360
3
102
}
330
1
100
AcDbSymbolTableRecord
100
AcDbBlockTableRecord
  2
*Model_Space
340
17
 70
     0
280
     1
281
     0
  0
BLOCK_RECORD
  5
1C
330
1
100
AcDbSymbolTableRecord
100
AcDbBlockTableRecord
  2
*Paper_Space
340
1F
 70
     0
280
     1
281
     0
  0
BLOCK_RECORD
  5
34E
102
{ACAD_XDICTIONARY
360
34F
102
}
330
1
100
AcDbSymbolTableRecord
100
AcDbBlockTableRecord
  2
DIN A4
340
0
102
{BLKREFS
331
34D
102
}
 70
     4
280
     1
281
     0
  0
BLOCK_RECORD
  5
1B3
102
{ACAD_XDICTIONARY
360
1B4
102
}
330
1
100
AcDbSymbolTableRecord
100
AcDbBlockTableRecord
  2
desipumpe_dr
340
0
102
{BLKREFS
331
1B2
102
}
 70
     0
280
     1
281
     0
  0
BLOCK_RECORD
  5
3ED
330
1
100
AcDbSymbolTableRecord
100
AcDbBlockTableRecord
  2
schloss-024454-S
340
0
310
2800000020000000200000000100080000000000000400000000000000000000000000000000000000000000000080000080000000808000800000008000800080800000C0C0C000C0DCC000F0CAA6000020400000206000002080000020A0000020C0000020E00000400000004020000040400000406000004080000040A0
310
000040C0000040E00000600000006020000060400000606000006080000060A0000060C0000060E00000800000008020000080400000806000008080000080A0000080C0000080E00000A0000000A0200000A0400000A0600000A0800000A0A00000A0C00000A0E00000C0000000C0200000C0400000C0600000C0800000C0
310
A00000C0C00000C0E00000E0000000E0200000E0400000E0600000E0800000E0A00000E0C00000E0E00040000000400020004000400040006000400080004000A0004000C0004000E00040200000402020004020400040206000402080004020A0004020C0004020E000404000004040200040404000404060004040800040
310
40A0004040C0004040E00040600000406020004060400040606000406080004060A0004060C0004060E00040800000408020004080400040806000408080004080A0004080C0004080E00040A0000040A0200040A0400040A0600040A0800040A0A00040A0C00040A0E00040C0000040C0200040C0400040C0600040C08000
310
40C0A00040C0C00040C0E00040E0000040E0200040E0400040E0600040E0800040E0A00040E0C00040E0E00080000000800020008000400080006000800080008000A0008000C0008000E00080200000802020008020400080206000802080008020A0008020C0008020E00080400000804020008040400080406000804080
310
008040A0008040C0008040E00080600000806020008060400080606000806080008060A0008060C0008060E00080800000808020008080400080806000808080008080A0008080C0008080E00080A0000080A0200080A0400080A0600080A0800080A0A00080A0C00080A0E00080C0000080C0200080C0400080C0600080C0
310
800080C0A00080C0C00080C0E00080E0000080E0200080E0400080E0600080E0800080E0A00080E0C00080E0E000C0000000C0002000C0004000C0006000C0008000C000A000C000C000C000E000C0200000C0202000C0204000C0206000C0208000C020A000C020C000C020E000C0400000C0402000C0404000C0406000C0
310
408000C040A000C040C000C040E000C0600000C0602000C0604000C0606000C0608000C060A000C060C000C060E000C0800000C0802000C0804000C0806000C0808000C080A000C080C000C080E000C0A00000C0A02000C0A04000C0A06000C0A08000C0A0A000C0A0C000C0A0E000C0C00000C0C02000C0C04000C0C06000
310
C0C08000C0C0A000F0FBFF00A4A0A000808080000000FF0000FF000000FFFF00FF000000FF00FF00FFFF0000FFFFFF00000000000000000000000000000000000000000000000000000000000000000000000000000000000000000000000000FFFFFFFFFF0000000000000000000000000000000000000000000000000000
310
00FF000000FFFFFF000000000000000000000000000000000000000000000000FFFF000000FFFFFFFF00000000000000000000000000000000000000FFFFFFFFFFFF000000FFFFFF00FF0000000000000000000000000000000000FFFF00FF00FFFF000000FFFFFF00FF0000000000000000000000000000000000FFFF00FF
310
00FFFF000000FFFFFF00FF000000000000000000000000000000FFFFFFFF00FFFFFFFF000000FFFFFF00FF000000000000000000000000000000FF00FFFF00FF0000FF000000FFFFFF00FF000000000000000000000000000000FF00FFFF00FF0000FF000000FFFFFF00FF000000000000000000000000000000FF00FFFF00
310
FF0000FF000000FFFFFF00FF00000000000000000000000000F9F9FFF9FFF9F9F9F9F9FFFFFFFFFFF9F9F9F9F90000000000000000000000000000FF00FFFF00FF0000FF000000FFFFFF00FF000000000000000000000000000000FF00FFFF00FF0000FF000000FFFFFF00FF000000000000000000000000000000FFFFFFFF
310
00FF0000FF000000FFFFFF00FF0000000000000000000000000000000000FFFF00FFFFFFFF000000FFFFFF00FF0000000000000000000000000000000000FFFF00FF00FFFF000000FFFFFF00FF0000000000000000000000000000000000FFFF00FF00FFFF000000FFFFFF00FF000000000000000000000000000000000000
310
FF00FFFFFFFF000000FFFFFF00FF000000000000000000000000000000000000FF00FF00FFFF000000FFFFFFFF00000000000000000000000000000000000000FF00FF0000FFFFFFFFFF00000000000000000000000000000000000000000000FFFFFF00000000000000000000000000000000000000000000000000000000
310
00FF00FF0000000000000000000000000000000000000000000000000000000000FFFFFF0000000000000000000000000000000000000000000000000000000000FF00FF0000000000000000000000000000000000000000000000000000000000FF00FF000000000000000000000000000000000000000000000000000000
310
0000FF00FF0000000000000000000000000000000000000000000000000000000000FFFFFF0000000000000000000000000000000000000000000000000000000000FF00FF0000000000000000000000000000000000000000000000000000000000FF00FF0000000000000000000000000000000000000000000000000000
310
000000FFFFFF0000000000000000000000000000000000000000000000000000000000000000000000000000000000000000000000000000
102
{BLKREFS
331
3EC
102
}
 70
     4
280
     1
281
     1
  0
BLOCK_RECORD
  5
22E
330
1
100
AcDbSymbolTableRecord
100
AcDbBlockTableRecord
  2
Sensor-Betätigungsmodul
340
0
310
2800000020000000200000000100080000000000000400000000000000000000000000000000000000000000000080000080000000808000800000008000800080800000C0C0C000C0DCC000F0CAA6000020400000206000002080000020A0000020C0000020E00000400000004020000040400000406000004080000040A0
310
000040C0000040E00000600000006020000060400000606000006080000060A0000060C0000060E00000800000008020000080400000806000008080000080A0000080C0000080E00000A0000000A0200000A0400000A0600000A0800000A0A00000A0C00000A0E00000C0000000C0200000C0400000C0600000C0800000C0
310
A00000C0C00000C0E00000E0000000E0200000E0400000E0600000E0800000E0A00000E0C00000E0E00040000000400020004000400040006000400080004000A0004000C0004000E00040200000402020004020400040206000402080004020A0004020C0004020E000404000004040200040404000404060004040800040
310
40A0004040C0004040E00040600000406020004060400040606000406080004060A0004060C0004060E00040800000408020004080400040806000408080004080A0004080C0004080E00040A0000040A0200040A0400040A0600040A0800040A0A00040A0C00040A0E00040C0000040C0200040C0400040C0600040C08000
310
40C0A00040C0C00040C0E00040E0000040E0200040E0400040E0600040E0800040E0A00040E0C00040E0E00080000000800020008000400080006000800080008000A0008000C0008000E00080200000802020008020400080206000802080008020A0008020C0008020E00080400000804020008040400080406000804080
310
008040A0008040C0008040E00080600000806020008060400080606000806080008060A0008060C0008060E00080800000808020008080400080806000808080008080A0008080C0008080E00080A0000080A0200080A0400080A0600080A0800080A0A00080A0C00080A0E00080C0000080C0200080C0400080C0600080C0
310
800080C0A00080C0C00080C0E00080E0000080E0200080E0400080E0600080E0800080E0A00080E0C00080E0E000C0000000C0002000C0004000C0006000C0008000C000A000C000C000C000E000C0200000C0202000C0204000C0206000C0208000C020A000C020C000C020E000C0400000C0402000C0404000C0406000C0
310
408000C040A000C040C000C040E000C0600000C0602000C0604000C0606000C0608000C060A000C060C000C060E000C0800000C0802000C0804000C0806000C0808000C080A000C080C000C080E000C0A00000C0A02000C0A04000C0A06000C0A08000C0A0A000C0A0C000C0A0E000C0C00000C0C02000C0C04000C0C06000
310
C0C08000C0C0A000F0FBFF00A4A0A000808080000000FF0000FF000000FFFF00FF000000FF00FF00FFFF0000FFFFFF000000000000000000000000000000000000000000000000000000000000000000000000000000000000000000000000000000FFFF0000000000000000000000000000000000000000000000FAFFFFFF
310
FFFFFFFF00FFFF000000000000000000000000000000000000000000FF000000FFFF0000FF00FF0000000000000000000000000000000000000000FFFA0000000000FF0000FF0000000000000000000000000000000000000000FFFFFA000000000000FFFFFAFAFF000000000000000000000000000000000000FFFFFA0000
310
00F900000000FFFAFF000000000000000000000000000000000000FFFFFA0000F9F9F9000000FFFAFF000000000000000000000000000000000000FFFFFA000000F900000000FFFAFF000000000000000000000000000000000000FFFFFA0000000000000000FFFAFF000000000000000000000000000000000000FFFFFA00
310
00000000000000FFFAFF00000000000000000000000000000000000000FFFA0000000000000000FFFAFF00000000000000000000000000000000000000FF000000000000000000FFFAFF00000000000000000000000000000000000000FF000000000000000000FFFAFF00000000000000000000000000000000000000FF00
310
0000000000000000FFFAFF00000000000000000000000000000000000000FF000000000000000000FFFAFF00000000000000000000000000000000000000FF000000000000000000FFFAFF00000000000000000000000000000000000000FF000000000000000000FF000000000000000000000000000000000000000000FF
310
000000000000000000FF000000000000000000000000000000000000000000FF000000000000000000FF000000000000000000000000000000000000000000FF000000000000000000FF0000000000000000000000000000000000000000FFFF000000000000000000FF0000000000000000000000000000000000000000FF
310
FF00000000F9000000FFFF0000000000000000000000000000000000000000FFFF000000F9F9F90000FF000000000000000000000000000000000000000000FFFF00000000F90000FFFF000000000000000000000000000000000000000000FFFF00000000000000FFFF000000000000000000000000000000000000000000
310
FFFF000000000000FFFF0000000000000000000000000000000000000000000000FF00FAFAFAFA00FFFF0000000000000000000000000000000000000000000000FFFFFAFFFFFAFFFF00000000000000000000000000000000000000000000000000FFFAFAFAFA00FF00000000000000000000000000000000000000000000
310
000000FFFFFFFFFFFF0000000000000000000000000000000000000000000000000000000000000000000000000000000000000000000000
102
{BLKREFS
331
22D
102
}
 70
     4
280
     1
281
     0
  0
BLOCK_RECORD
  5
15B
102
{ACAD_XDICTIONARY
360
15C
102
}
330
1
100
AcDbSymbolTableRecord
100
AcDbBlockTableRecord
  2
e-modul vorderansicht
340
0
102
{BLKREFS
331
15A
102
}
 70
     0
280
     1
281
     0
  0
BLOCK_RECORD
  5
453
330
1
100
AcDbSymbolTableRecord
100
AcDbBlockTableRecord
  2
schloss-024454-D
340
0
310
2800000020000000200000000100080000000000000400000000000000000000000000000000000000000000000080000080000000808000800000008000800080800000C0C0C000C0DCC000F0CAA6000020400000206000002080000020A0000020C0000020E00000400000004020000040400000406000004080000040A0
310
000040C0000040E00000600000006020000060400000606000006080000060A0000060C0000060E00000800000008020000080400000806000008080000080A0000080C0000080E00000A0000000A0200000A0400000A0600000A0800000A0A00000A0C00000A0E00000C0000000C0200000C0400000C0600000C0800000C0
310
A00000C0C00000C0E00000E0000000E0200000E0400000E0600000E0800000E0A00000E0C00000E0E00040000000400020004000400040006000400080004000A0004000C0004000E00040200000402020004020400040206000402080004020A0004020C0004020E000404000004040200040404000404060004040800040
310
40A0004040C0004040E00040600000406020004060400040606000406080004060A0004060C0004060E00040800000408020004080400040806000408080004080A0004080C0004080E00040A0000040A0200040A0400040A0600040A0800040A0A00040A0C00040A0E00040C0000040C0200040C0400040C0600040C08000
310
40C0A00040C0C00040C0E00040E0000040E0200040E0400040E0600040E0800040E0A00040E0C00040E0E00080000000800020008000400080006000800080008000A0008000C0008000E00080200000802020008020400080206000802080008020A0008020C0008020E00080400000804020008040400080406000804080
310
008040A0008040C0008040E00080600000806020008060400080606000806080008060A0008060C0008060E00080800000808020008080400080806000808080008080A0008080C0008080E00080A0000080A0200080A0400080A0600080A0800080A0A00080A0C00080A0E00080C0000080C0200080C0400080C0600080C0
310
800080C0A00080C0C00080C0E00080E0000080E0200080E0400080E0600080E0800080E0A00080E0C00080E0E000C0000000C0002000C0004000C0006000C0008000C000A000C000C000C000E000C0200000C0202000C0204000C0206000C0208000C020A000C020C000C020E000C0400000C0402000C0404000C0406000C0
310
408000C040A000C040C000C040E000C0600000C0602000C0604000C0606000C0608000C060A000C060C000C060E000C0800000C0802000C0804000C0806000C0808000C080A000C080C000C080E000C0A00000C0A02000C0A04000C0A06000C0A08000C0A0A000C0A0C000C0A0E000C0C00000C0C02000C0C04000C0C06000
310
C0C08000C0C0A000F0FBFF00A4A0A000808080000000FF0000FF000000FFFF00FF000000FF00FF00FFFF0000FFFFFF00000000000000000000000000000000000000000000000000000000000000000000000000000000000000000000000000F9000000000000000000000000000000000000000000000000000000000000
310
00F900000000000000000000000000000000000000000000000000000000000000F90000000000000000000000000000000000000000FFFFFFFFFFFFFFFFFFFFFFF9FFFFFFFFFFFFFFFFFFFF00000000000000000000FF00000000000000000000F900000000000000000000FF0000000000000000FFFFFFFFFFFFFFFFFFFF
310
FFFFF9FFFFFFFFFFFFFFFFFFFFFF0000000000000000FF0000000000000000000000F900000000000000000000FF0000000000000000FF0000000000000000000000F900000000000000000000FF0000000000000000FFFFFFFFFFFFFFFFFFFFFFFFF9FFFFFFFFFFFFFFFFFFFFFF000000000000FFFFFFFFFFFFFFFFFFFFFF
310
FFFFFFF9FFFFFFFFFFFFFFFFFFFFFFFFFF00000000FF000000FF000000000000000000F90000000000000000FF000000FF00000000FF000000FF000000000000000000F90000000000000000FF000000FF00000000FF000000FF000000000000000000F90000000000000000FF000000FF00000000FF000000FF0000000000
310
00000000F90000000000000000FF000000FF00000000FFFFFFFFFFFFFFFFFFFFFFFFFFFFF9FFFFFFFFFFFFFFFFFFFFFFFFFF0000000000000000FF000000000000000000F90000000000000000FF000000000000000000000000FF000000000000000000F90000000000000000FF000000000000000000000000FF00000000
310
0000000000F90000000000000000FF000000000000000000000000FF000000000000000000F90000000000000000FF000000000000000000000000FFFFFFFFFFFFFFFFFFFFF9FFFFFFFFFFFFFFFFFF000000000000000000000000FF000000000000000000F90000000000000000FF000000000000000000000000FF000000
310
000000000000F90000000000000000FF000000000000000000000000FFFFFFFFFFFFFFFFFFFFF9FFFFFFFFFFFFFFFFFF00000000000000000000000000FFFFFFFFFFFFFFFFFFF9FFFFFFFFFFFFFFFF000000000000000000000000000000000000FF00000000F9000000FF0000000000000000000000000000000000000000
310
0000FF00000000F9000000FF00000000000000000000000000000000000000000000FFFFFFFFFFF9FFFFFFFF000000000000000000000000000000000000000000000000000000F900000000000000000000000000000000000000000000000000000000000000F90000000000000000000000000000000000000000000000
310
0000000000000000F90000000000000000000000000000000000000000000000000000000000000000000000000000000000000000000000
102
{BLKREFS
331
452
102
}
 70
     4
280
     1
281
     1
  0
BLOCK_RECORD
  5
2FA
330
1
100
AcDbSymbolTableRecord
100
AcDbBlockTableRecord
  2
schloss-024454-V
340
0
310
2800000020000000200000000100080000000000000400000000000000000000000000000000000000000000000080000080000000808000800000008000800080800000C0C0C000C0DCC000F0CAA6000020400000206000002080000020A0000020C0000020E00000400000004020000040400000406000004080000040A0
310
000040C0000040E00000600000006020000060400000606000006080000060A0000060C0000060E00000800000008020000080400000806000008080000080A0000080C0000080E00000A0000000A0200000A0400000A0600000A0800000A0A00000A0C00000A0E00000C0000000C0200000C0400000C0600000C0800000C0
310
A00000C0C00000C0E00000E0000000E0200000E0400000E0600000E0800000E0A00000E0C00000E0E00040000000400020004000400040006000400080004000A0004000C0004000E00040200000402020004020400040206000402080004020A0004020C0004020E000404000004040200040404000404060004040800040
310
40A0004040C0004040E00040600000406020004060400040606000406080004060A0004060C0004060E00040800000408020004080400040806000408080004080A0004080C0004080E00040A0000040A0200040A0400040A0600040A0800040A0A00040A0C00040A0E00040C0000040C0200040C0400040C0600040C08000
310
40C0A00040C0C00040C0E00040E0000040E0200040E0400040E0600040E0800040E0A00040E0C00040E0E00080000000800020008000400080006000800080008000A0008000C0008000E00080200000802020008020400080206000802080008020A0008020C0008020E00080400000804020008040400080406000804080
310
008040A0008040C0008040E00080600000806020008060400080606000806080008060A0008060C0008060E00080800000808020008080400080806000808080008080A0008080C0008080E00080A0000080A0200080A0400080A0600080A0800080A0A00080A0C00080A0E00080C0000080C0200080C0400080C0600080C0
310
800080C0A00080C0C00080C0E00080E0000080E0200080E0400080E0600080E0800080E0A00080E0C00080E0E000C0000000C0002000C0004000C0006000C0008000C000A000C000C000C000E000C0200000C0202000C0204000C0206000C0208000C020A000C020C000C020E000C0400000C0402000C0404000C0406000C0
310
408000C040A000C040C000C040E000C0600000C0602000C0604000C0606000C0608000C060A000C060C000C060E000C0800000C0802000C0804000C0806000C0808000C080A000C080C000C080E000C0A00000C0A02000C0A04000C0A06000C0A08000C0A0A000C0A0C000C0A0E000C0C00000C0C02000C0C04000C0C06000
310
C0C08000C0C0A000F0FBFF00A4A0A000808080000000FF0000FF000000FFFF00FF000000FF00FF00FFFF0000FFFFFF00000000000000000000000000000000000000000000000000000000000000000000000000000000000000000000000000F900000000000000000000000000000000000000000000000000FAFAFAFAFA
310
FAFAFAFAFAFAFA0000000000000000000000000000000000000000FA000000FFFFF90000000000FA000000000000000000000000000000000000FA00FFFFFBFBFBFBFBFBFF0000FA000000000000000000000000000000000000FAFFFBFBFAFFFFF9FFFAFBFB0000FA00000000000000000000000000000000FAFFFBFFFFFA
310
FAFAF9FAFAFFFFFB00FA00000000000000000000000000000000FAFBFFFAFAFF0000F90000FAFAFFFB00FA0000000000000000000000000000FAFFFBFAFF0000FFFFF9FF0000FFFAFBFFFA0000000000000000000000000000FAFFFBFA000000FF00F9FF0000FFFAFBFF00FA000000000000000000000000FA00FFFBFF0000
310
00FF00F9FF000000FFFB00FFFA000000000000000000000000FAFFFFFBFF0000FFFF00F9FFFF0000FFFBFFFF00FA00000000000000000000FAF9F9F9FBF9F9F9F9F9F9F9F9F9F9F9F9FBF9F9F9FA0000000000000000000000FA00FFFBFF0000FF0000F900FF0000FFFB00FFFA000000000000000000000000FA00FFFBFF00
310
00FFFF00F9FFFF0000FFFB00FFFA00000000000000000000000000FAFFFBFFFF0000FF00F9FF0000FFFFFBFFFA0000000000000000000000000000FA00FBFF00FFFFFFFFF9FF00FFFFFFFB00FA000000000000000000000000000000FAFAFBFFFF00FFFFF9FFFFFFFFFBFAFA00000000000000000000000000000000FAFAFF
310
FBFFFFFFFFF9FFFFFFFB00FAFA0000000000000000000000000000000000FA00FFFBFBFBFBFBFBFBFB0000FA000000000000000000000000000000000000FA00000000FFFFF9FFFF000000FA000000000000000000000000000000000000FAFAFAFAFAFAFAFAFAFAFAFAFAFA000000000000000000000000000000000000FA
310
0000000000FAFAFAFAFA000000000000000000000000000000000000000000FA0000FAFAFA0000000000000000000000000000000000000000000000000000FA0000FA00000000000000000000000000000000000000000000000000000000FA0000FA00000000000000000000000000000000000000000000000000000000
310
FA0000FA00000000000000000000000000000000000000000000000000000000FA0000FAFAFAFAFAFAFAFAFAFAFA000000000000000000000000000000000000FA000000000000000000000000FA000000000000000000000000000000000000FAFA00000000000000000000FAFA0000000000000000000000000000000000
310
000000FAFAFAFAFAFAFAFAFAFA00000000000000000000000000000000000000000000000000000000000000000000000000000000000000
102
{BLKREFS
331
2F9
102
}
 70
     4
280
     1
281
     1
  0
BLOCK_RECORD
  5
446
330
1
100
AcDbSymbolTableRecord
100
AcDbBlockTableRecord
  2
*D7
340
0
 70
     0
280
     1
281
     0
  0
BLOCK_RECORD
  5
439
330
1
100
AcDbSymbolTableRecord
100
AcDbBlockTableRecord
  2
*D8
340
0
 70
     0
280
     1
281
     0
  0
BLOCK_RECORD
  5
3D4
330
1
100
AcDbSymbolTableRecord
100
AcDbBlockTableRecord
  2
*D9
340
0
 70
     0
280
     1
281
     0
  0
BLOCK_RECORD
  5
341
330
1
100
AcDbSymbolTableRecord
100
AcDbBlockTableRecord
  2
*D10
340
0
 70
     0
280
     1
281
     0
  0
BLOCK_RECORD
  5
334
330
1
100
AcDbSymbolTableRecord
100
AcDbBlockTableRecord
  2
*D11
340
0
 70
     0
280
     1
281
     0
  0
BLOCK_RECORD
  5
180
330
1
100
AcDbSymbolTableRecord
100
AcDbBlockTableRecord
  2
*D12
340
0
 70
     0
280
     1
281
     0
  0
BLOCK_RECORD
  5
8A
330
1
100
AcDbSymbolTableRecord
100
AcDbBlockTableRecord
  2
*D13
340
0
 70
     0
280
     1
281
     0
  0
BLOCK_RECORD
  5
7B
330
1
100
AcDbSymbolTableRecord
100
AcDbBlockTableRecord
  2
*D14
340
0
 70
     0
280
     1
281
     0
  0
ENDTAB
  0
ENDSEC
  0
SECTION
  2
BLOCKS
  0
BLOCK
  5
5
330
2
100
AcDbEntity
  8
0
100
AcDbBlockBegin
  2
*Model_Space
 70
     0
 10
0.0
 20
0.0
 30
0.0
  3
*Model_Space
  1

  0
ENDBLK
  5
16
330
2
100
AcDbEntity
  8
0
100
AcDbBlockEnd
  0
BLOCK
  5
1D
330
1C
100
AcDbEntity
 67
     1
  8
0
100
AcDbBlockBegin
  2
*Paper_Space
 70
     0
 10
0.0
 20
0.0
 30
0.0
  3
*Paper_Space
  1

  0
ENDBLK
  5
1E
330
1C
100
AcDbEntity
 67
     1
  8
0
100
AcDbBlockEnd
  0
BLOCK
  5
351
330
34E
100
AcDbEntity
  8
0
100
AcDbBlockBegin
  2
DIN A4
 70
     2
 10
0.0
 20
0.0
 30
0.0
  3
DIN A4
  1

  0
LINE
  5
352
330
34E
100
AcDbEntity
  8
01-99
100
AcDbLine
 10
204.0000075739527
 20
290.9999979434973
 30
0.0
 11
20.0000075739529
 21
290.9999979434973
 31
0.0
  0
LINE
  5
356
330
34E
100
AcDbEntity
  8
01-99
100
AcDbLine
 10
204.0000075122353
 20
290.9999979871026
 30
0.0
 11
204.0000075122355
 21
5.999997987102574
 31
0.0
  0
LINE
  5
357
330
34E
100
AcDbEntity
  8
01-99
100
AcDbLine
 10
20.0000075122355
 20
5.99999798710246
 30
0.0
 11
20.0000075122355
 21
290.9999979871026
 31
0.0
  0
LWPOLYLINE
  5
358
330
34E
100
AcDbEntity
  8
02-99
100
AcDbPolyline
 90
        4
 70
     1
 43
0.0
 10
0.0000075122354986
 20
-0.0000020128974256
 10
210.0000075122355
 20
-0.0000020128974256
 10
210.0000075122355
 20
296.9999979871026
 10
0.0000075122354986
 20
296.9999979871026
  0
LINE
  5
35C
330
34E
100
AcDbEntity
  8
01-99
100
AcDbLine
 10
20.0000075122355
 20
5.99999798710246
 30
0.0
 11
204.0000075122355
 21
5.999997987102631
 31
0.0
  0
LINE
  5
35D
330
34E
100
AcDbEntity
  8
01-99
100
AcDbLine
 10
70.0000075122355
 20
11.11110909810247
 30
0.0
 11
20.0000075122355
 21
11.11110909810247
 31
0.0
  0
LINE
  5
35E
330
34E
100
AcDbEntity
  8
01-99
100
AcDbLine
 10
70.0000075122355
 20
16.22222020910249
 30
0.0
 11
20.0000075122355
 21
16.22222020910249
 31
0.0
  0
LINE
  5
35F
330
34E
100
AcDbEntity
  8
01-99
100
AcDbLine
 10
70.0000075122355
 20
21.3333313201025
 30
0.0
 11
20.0000075122355
 21
21.33333132010244
 31
0.0
  0
LINE
  5
360
330
34E
100
AcDbEntity
  8
01-99
100
AcDbLine
 10
115.0000075122355
 20
26.44444243110252
 30
0.0
 11
20.0000075122355
 21
26.44444243110246
 31
0.0
  0
LINE
  5
361
330
34E
100
AcDbEntity
  8
01-99
100
AcDbLine
 10
115.0000075122355
 20
31.55555354210253
 30
0.0
 11
20.0000075122355
 21
31.55555354210247
 31
0.0
  0
LINE
  5
362
330
34E
100
AcDbEntity
  8
01-99
100
AcDbLine
 10
45.0000075122355
 20
5.99999798710246
 30
0.0
 11
45.0000075122355
 21
11.11110909810247
 31
0.0
  0
LINE
  5
363
330
34E
100
AcDbEntity
  8
01-99
100
AcDbLine
 10
28.0000075122355
 20
11.11110909810247
 30
0.0
 11
28.0000075122355
 21
36.66666465376915
 31
0.0
  0
LINE
  5
364
330
34E
100
AcDbEntity
  8
01-99
100
AcDbLine
 10
70.0000075122355
 20
5.99999798710246
 30
0.0
 11
70.0000075122355
 21
51.99999798710246
 31
0.0
  0
LINE
  5
365
330
34E
100
AcDbEntity
  8
01-99
100
AcDbLine
 10
115.0000075122355
 20
5.99999798710246
 30
0.0
 11
115.0000075122355
 21
51.99999798710246
 31
0.0
  0
LINE
  5
366
330
34E
100
AcDbEntity
  8
01-99
100
AcDbLine
 10
144.5000075122355
 20
5.99999798710246
 30
0.0
 11
144.5000075122355
 21
16.22222020910254
 31
0.0
  0
LINE
  5
367
330
34E
100
AcDbEntity
  8
01-99
100
AcDbLine
 10
177.0000075122355
 20
5.99999798710246
 30
0.0
 11
177.0000075122355
 21
16.2222202091026
 31
0.0
  0
LINE
  5
368
330
34E
100
AcDbEntity
  8
01-99
100
AcDbLine
 10
148.5000075122355
 20
36.6666646537692
 30
0.0
 11
148.5000075122355
 21
51.99999798710257
 31
0.0
  0
LINE
  5
369
330
34E
100
AcDbEntity
  8
01-99
100
AcDbLine
 10
182.0000075122355
 20
36.6666646537692
 30
0.0
 11
182.0000075122355
 21
51.99999798710257
 31
0.0
  0
LINE
  5
36A
330
34E
100
AcDbEntity
  8
01-99
100
AcDbLine
 10
78.00000751223549
 20
21.33333132043583
 30
0.0
 11
78.00000751223549
 21
36.6666646537692
 31
0.0
  0
LINE
  5
36B
330
34E
100
AcDbEntity
  8
01-99
100
AcDbLine
 10
60.00319585166497
 20
11.11110909810247
 30
0.0
 11
60.00319585166497
 21
36.66666465376915
 31
0.0
  0
LINE
  5
36C
330
34E
100
AcDbEntity
  8
01-99
100
AcDbLine
 10
48.00319585166497
 20
11.11110909810247
 30
0.0
 11
48.00319585166497
 21
36.66666465376915
 31
0.0
  0
LINE
  5
36D
330
34E
100
AcDbEntity
  8
01-99
100
AcDbLine
 10
204.0000075122355
 20
51.99999798710257
 30
0.0
 11
20.00000751223368
 21
51.99999798710246
 31
0.0
  0
LINE
  5
36E
330
34E
100
AcDbEntity
  8
01-99
100
AcDbLine
 10
115.0000075122355
 20
21.33333132043583
 30
0.0
 11
70.0000075122355
 21
21.33333132043583
 31
0.0
  0
LINE
  5
36F
330
34E
100
AcDbEntity
  8
01-99
100
AcDbLine
 10
115.0000075122355
 20
36.6666646537692
 30
0.0
 11
20.0000075122355
 21
36.66666465376909
 31
0.0
  0
LINE
  5
370
330
34E
100
AcDbEntity
  8
01-99
100
AcDbLine
 10
92.0000075122355
 20
21.33333132043583
 30
0.0
 11
92.0000075122355
 21
51.99999798710251
 31
0.0
  0
LINE
  5
371
330
34E
100
AcDbEntity
  8
01-99
100
AcDbLine
 10
70.0000075122355
 20
36.66666465376915
 30
0.0
 11
78.00000751223549
 21
31.55555355376919
 31
0.0
  0
LINE
  5
372
330
34E
100
AcDbEntity
  8
01-99
100
AcDbLine
 10
70.0000075122355
 20
31.55555355376919
 30
0.0
 11
78.00000751223549
 21
36.6666646537692
 31
0.0
  0
LINE
  5
373
330
34E
100
AcDbEntity
  8
01-99
100
AcDbLine
 10
204.0000075122355
 20
44.33333132043583
 30
0.0
 11
115.0000075122355
 21
44.33333132043578
 31
0.0
  0
LINE
  5
374
330
34E
100
AcDbEntity
  8
01-99
100
AcDbLine
 10
115.0000075122355
 20
16.22222020910249
 30
0.0
 11
204.0000075122355
 21
16.2222202091026
 31
0.0
  0
LINE
  5
375
330
34E
100
AcDbEntity
  8
01-99
100
AcDbLine
 10
115.0000075122355
 20
36.6666646537692
 30
0.0
 11
204.0000075122355
 21
36.66666465376926
 31
0.0
  0
LINE
  5
376
330
34E
100
AcDbEntity
  8
01-99
100
AcDbLine
 10
92.0000075122355
 20
41.77777576510249
 30
0.0
 11
70.0000075122355
 21
41.77777576510249
 31
0.0
  0
LINE
  5
377
330
34E
100
AcDbEntity
  8
01-99
100
AcDbLine
 10
92.0000075122355
 20
46.8888868761025
 30
0.0
 11
70.0000075122355
 21
46.88888687610244
 31
0.0
  0
LINE
  5
378
330
34E
100
AcDbEntity
  8
01-99
100
AcDbLine
 10
20.00000751223368
 20
51.99999798710246
 30
0.0
 11
20.00000751223368
 21
5.99999798710246
 31
0.0
  0
TEXT
  5
379
330
34E
100
AcDbEntity
  8
08-99
100
AcDbText
 10
116.4997086805418
 20
32.66987169496042
 30
0.0
 40
2.5
  1
Benennung/Teil:
 51
15.0
  7
ROMANS8
100
AcDbText
  0
TEXT
  5
37E
330
34E
100
AcDbEntity
  8
08-99
100
AcDbText
 10
178.5028349598029
 20
12.01760068133313
 30
0.0
 40
2.7
  1
Ident-Nr.
 51
15.0
  7
ROMANS8
100
AcDbText
  0
TEXT
  5
37F
330
34E
100
AcDbEntity
  8
08-99
100
AcDbText
 10
93.50002924540357
 20
33.0555749488849
 30
0.0
 40
2.5
  1
Name:
 51
15.0
  7
ROMANS8
100
AcDbText
  0
TEXT
  5
380
330
34E
100
AcDbEntity
  8
08-99
100
AcDbText
 10
79.50777665478042
 20
33.04841594810694
 30
0.0
 40
2.5
  1
Datum:
 50
0.102528160689452
 41
0.8933771909280748
 51
15.0
  7
ROMANS8
 72
     5
 11
90.67497366186243
 21
33.06839915456692
 31
0.0
100
AcDbText
  0
TEXT
  5
381
330
34E
100
AcDbEntity
  8
08-99
100
AcDbText
 10
29.50001559397086
 20
33.05597508608236
 30
0.0
 40
1.6
  1
Änderung:
 51
15.0
  7
ROMANS8
100
AcDbText
  0
TEXT
  5
382
330
34E
100
AcDbEntity
  8
08-99
100
AcDbText
 10
46.49994558798837
 20
9.111117286264914
 30
0.0
 40
1.0
  1
ERSETZT.DURCH:
 51
15.0
  7
ROMANS8
100
AcDbText
  0
TEXT
  5
383
330
34E
100
AcDbEntity
  8
08-99
100
AcDbText
 10
21.49936832790721
 20
9.110852190038713
 30
0.0
 40
1.0
  1
ERSETZT.FÜR:
 51
15.0
  7
ROMANS8
100
AcDbText
  0
TEXT
  5
384
330
34E
100
AcDbEntity
  8
08-99
100
AcDbText
 10
145.9909143543897
 20
12.61295485116625
 30
0.0
 40
2.112
  1
AUFTRAGS.NR.:
 51
15.0
  7
ROMANS8
100
AcDbText
  0
TEXT
  5
385
330
34E
100
AcDbEntity
  8
08-99
100
AcDbText
 10
116.5034717172479
 20
12.61092664313281
 30
0.0
 40
2.112
  1
Sonder-Nr:
 51
15.0
  7
ROMANS8
100
AcDbText
  0
TEXT
  5
386
330
34E
100
AcDbEntity
  8
08-99
100
AcDbText
 10
99.69631500731376
 20
49.92370649414477
 30
0.0
 40
1.349999999999999
  1
Format
 51
15.0
  7
ROMANS8
100
AcDbText
  0
TEXT
  5
387
330
34E
100
AcDbEntity
  8
08-99
100
AcDbText
 10
98.30438725900334
 20
44.6416167802032
 30
0.0
 40
1.822499999999999
  1
Normen
 51
15.0
  7
ROMANS8
100
AcDbText
  0
TEXT
  5
388
330
34E
100
AcDbEntity
  8
08-99
100
AcDbText
 10
21.50003711613706
 20
33.05556582266059
 30
0.0
 40
1.6
  1
Zust.
 51
15.0
  7
ROMANS8
100
AcDbText
  0
TEXT
  5
389
330
34E
100
AcDbEntity
  8
08-99
100
AcDbText
 10
49.50318821340468
 20
33.05555723859902
 30
0.0
 40
1.6
  1
Datum:
 51
15.0
  7
ROMANS8
100
AcDbText
  0
TEXT
  5
38A
330
34E
100
AcDbEntity
  8
08-99
100
AcDbText
 10
61.50322112916754
 20
33.05556204504791
 30
0.0
 40
1.6
  1
Name:
 51
15.0
  7
ROMANS8
100
AcDbText
  0
TEXT
  5
38B
330
34E
100
AcDbEntity
  8
08-99
100
AcDbText
 10
71.1545619578267
 20
28.03813755505132
 30
0.0
 40
1.6
  1
Erst.
 51
15.0
  7
ROMANS8
100
AcDbText
  0
TEXT
  5
38C
330
34E
100
AcDbEntity
  8
08-99
100
AcDbText
 10
70.51718787454618
 20
23.1974490465235
 30
0.0
 40
1.6
  1
Bearb.
 51
15.0
  7
ROMANS8
100
AcDbText
  0
TEXT
  5
38D
330
34E
100
AcDbEntity
  8
08-99
100
AcDbText
 10
149.4308124240035
 20
41.61949547980938
 30
0.0
 40
2.0
  1
Zuschnittsbreite:
 51
15.0
  7
ROMANS8
100
AcDbText
  0
TEXT
  5
38E
330
34E
100
AcDbEntity
  8
08-99
100
AcDbText
 10
115.9850022862677
 20
41.73762161521608
 30
0.0
 40
2.0
  1
Zuschnittslänge:
 51
15.0
  7
ROMANS8
100
AcDbText
  0
LWPOLYLINE
  5
38F
330
34E
100
AcDbEntity
  8
06-99
100
AcDbPolyline
 90
      133
 70
     1
 43
0.010692
 10
93.76754732423549
 20
18.87656283643588
 10
94.00905465623557
 20
19.08724513243589
 10
93.92285931623556
 20
19.22625538843579
 10
93.82427194823552
 20
19.35180441643592
 10
93.71363469623569
 20
19.46393854843592
 10
93.59130396023548
 20
19.56271124443577
 10
93.45762188423558
 20
19.64816170843585
 10
93.31293417623559
 20
19.72033627243581
 10
93.15759367223554
 20
19.77928839643584
 10
92.99194251623569
 20
19.82505728443584
 10
92.81632998023557
 20
19.85768926843593
 10
92.63110533623573
 20
19.87723780843589
 10
92.43661429223564
 20
19.88374210843585
 10
92.27568900023554
 20
19.87767974443585
 10
92.11994932823543
 20
19.85975638843581
 10
91.96972672823566
 20
19.83036051643597
 10
91.82535621623562
 20
19.78988773243583
 10
91.68716924423554
 20
19.73873364043595
 10
91.55549013623559
 20
19.67729028043584
 10
91.43066103623565
 20
19.60594969243584
 10
91.31300626823557
 20
19.52510391643579
 10
91.20285728423553
 20
19.43514499243588
 10
91.10055266423561
 20
19.33647208843587
 10
91.00641316823569
 20
19.22947011643589
 10
90.92077737623563
 20
19.11454180843589
 10
90.84397674023561
 20
18.99207207643587
 10
90.77633914823563
 20
18.86245652443591
 10
90.71819961623559
 20
18.72608719243584
 10
90.66988603223562
 20
18.58336324843583
 10
90.63172984823566
 20
18.43466960443584
 10
90.60406964423547
 20
18.28040542843581
 10
90.5872261802356
 20
18.12095919643588
 10
90.58154160023562
 20
17.95672651243586
 10
90.58715490023557
 20
17.78762184043592
 10
90.60380590823573
 20
17.62428728443586
 10
90.63119524823539
 20
17.46704004043585
 10
90.66902354423545
 20
17.31619374043578
 10
90.71699498423553
 20
17.17206201643586
 10
90.77481375623566
 20
17.03495850043589
 10
90.84218404823563
 20
16.90519326043585
 10
90.91880648423559
 20
16.78308349243582
 10
91.00438525223561
 20
16.66893926443583
 10
91.09862810423559
 20
16.56307777243586
 10
91.2012285362355
 20
16.46580908443587
 10
91.31190142823554
 20
16.37745039643579
 10
91.43034027623562
 20
16.29831177643592
 10
91.55625283223551
 20
16.2287068564359
 10
91.6893397202355
 20
16.16895283243582
 10
91.82930869223552
 20
16.11935977243587
 10
91.9758568082357
 20
16.08024130843591
 10
92.1286953842355
 20
16.05191107243593
 10
92.28751791623555
 20
16.03468269643588
 10
92.45203572023561
 20
16.02886981243591
 10
92.61603318023563
 20
16.03412314843587
 10
92.77336596023557
 20
16.0497619804359
 10
92.92384516823554
 20
16.07559385243587
 10
93.06728191223546
 20
16.11142630843591
 10
93.20349086423565
 20
16.15707045643586
 10
93.33227956823547
 20
16.21233740443585
 10
93.45346269623556
 20
16.27703469643586
 10
93.56684422823562
 20
16.35097700443589
 10
93.67224596423559
 20
16.43397187243585
 10
93.76946832023557
 20
16.52582328043587
 10
93.85832953223555
 20
16.62635302843586
 10
93.93864070823568
 20
16.73535796843583
 10
94.01020939223556
 20
16.85265990043587
 10
94.07284669223557
 20
16.97805924043587
 10
94.12636728023565
 20
17.11137066043579
 10
94.17058226423549
 20
17.25240170443584
 10
94.20529562423556
 20
17.40096348043585
 10
94.23032916023558
 20
17.55686709643589
 10
94.2454868522357
 20
17.71992366043582
 10
94.25057980823547
 20
17.88993715243583
 10
94.25057980823547
 20
17.88993715243583
 10
94.25057980823547
 20
17.94131934043588
 10
92.6164715522356
 20
17.94131934043588
 10
92.6164715522356
 20
17.65354772443584
 10
93.88573312823544
 20
17.65354772443584
 10
93.87499479623548
 20
17.49100437643585
 10
93.84766248023552
 20
17.33635885243586
 10
93.80444185223566
 20
17.19027405643589
 10
93.74603858423554
 20
17.05341645643585
 10
93.67316547623572
 20
16.92644182843588
 10
93.58653176423562
 20
16.81002376843588
 10
93.4868359922356
 20
16.70481448843588
 10
93.37479452423556
 20
16.61148758443585
 10
93.2511130322355
 20
16.53069526843586
 10
93.11649718823563
 20
16.46310757243589
 10
92.9716562282355
 20
16.40938383643583
 10
92.81729938823563
 20
16.37019052843595
 10
92.65413234023563
 20
16.34618698843581
 10
92.48286432023567
 20
16.3380396844359
 10
92.31820395623563
 20
16.34599096843584
 10
92.15990889623553
 20
16.3693743724358
 10
92.00857076423554
 20
16.40748066043585
 10
91.86477762023541
 20
16.45960416043584
 10
91.7291103962356
 20
16.52503563643586
 10
91.60216071623555
 20
16.60306585243592
 10
91.48451307623558
 20
16.69299270043586
 10
91.37675910023554
 20
16.79410338043595
 10
91.27948328423569
 20
16.90569222043587
 10
91.19327012423552
 20
17.02705354843584
 10
91.11871124423558
 20
17.15747456443586
 10
91.05639114023555
 20
17.29625316043587
 10
91.00689787223556
 20
17.44268010043583
 10
90.97081950023541
 20
17.5960425844359
 10
90.94874052023547
 20
17.75564206843597
 10
90.94125255623557
 20
17.92076575243578
 10
90.94763924423572
 20
18.08913980443589
 10
90.96654270023558
 20
18.25115211643583
 10
90.99756375623568
 20
18.40630372843583
 10
91.04030680823555
 20
18.55409924443586
 10
91.09437981623548
 20
18.69404326843585
 10
91.15938361223554
 20
18.82564396843588
 10
91.23492259223556
 20
18.9483988204359
 10
91.32060471623564
 20
19.06181955643586
 10
91.41603081623546
 20
19.16540365243594
 10
91.52081241623548
 20
19.25865927643582
 10
91.63454322023566
 20
19.34108746843589
 10
91.75683831623567
 20
19.41219639643589
 10
91.88729497223542
 20
19.47148710043586
 10
92.02552114823564
 20
19.51846418443586
 10
92.17112480423569
 20
19.55263225243584
 10
92.32370320823568
 20
19.57349947243585
 10
92.48286432023567
 20
19.58056332043588
 10
92.66056892423561
 20
19.57164619243588
 10
92.83032224423564
 20
19.54500885643586
 10
92.99178570023562
 20
19.50081882043588
 10
93.14462071223559
 20
19.43924359243584
 10
93.28848870023561
 20
19.36045780843585
 10
93.42305464823565
 20
19.26462541243592
 10
93.54797997623554
 20
19.15192104043586
 10
93.66292254023566
 20
19.02250863643593
  0
LWPOLYLINE
  5
393
330
34E
100
AcDbEntity
  8
06-99
100
AcDbPolyline
 90
       12
 70
     1
 43
0.010692
 10
90.43900298423549
 20
12.25281181243593
 10
92.32227048023563
 20
12.25281181243593
 10
92.46760683623554
 20
13.00767770443588
 10
91.56487771223558
 20
13.00767770443588
 10
91.62106060823546
 20
13.29950515243581
 10
92.41872301223557
 20
13.29950515243581
 10
92.55580870823544
 20
14.01156027643583
 10
91.75814630423545
 20
14.01156027643583
 10
91.80985281623547
 20
14.28005421643581
 10
92.68923417623549
 20
14.28005421643581
 10
92.83455984023559
 20
15.03490585243588
 10
90.97464010823561
 20
15.03490585243588
  0
LWPOLYLINE
  5
394
330
34E
100
AcDbEntity
  8
06-99
100
AcDbPolyline
 90
        4
 70
     1
 43
0.010692
 10
76.60861942823558
 20
12.88042508443584
 10
89.06586862823544
 20
12.88042508443584
 10
88.94229049223557
 20
12.25209544843585
 10
76.48504485623553
 20
12.25209544843585
  0
SOLID
  5
395
330
34E
100
AcDbEntity
  8
06-99
100
AcDbTrace
 10
76.60861942823558
 20
12.88042508443584
 30
0.0
 11
89.06586862823544
 21
12.88042508443584
 31
0.0
 12
76.48504485623553
 22
12.25209544843585
 32
0.0
 13
88.94229049223557
 23
12.25209544843585
 33
0.0
  0
LWPOLYLINE
  5
396
330
34E
100
AcDbEntity
  8
06-99
100
AcDbPolyline
 90
       10
 70
     1
 43
0.010692
 10
82.3458504002356
 20
16.02886981243591
 10
83.32219038023552
 20
19.10266656043586
 10
84.33965535623546
 20
16.02886981243591
 10
85.56780619223562
 20
19.80153132043585
 10
85.22351666423551
 20
19.80153132043585
 10
84.33965535623546
 20
16.89302932843583
 10
83.32219038023552
 20
19.9454100004358
 10
82.3458504002356
 20
16.86733645243589
 10
81.42601764023565
 20
19.80153132043585
 10
81.07658882423564
 20
19.80153132043585
  0
LWPOLYLINE
  5
397
330
34E
100
AcDbEntity
  8
06-99
100
AcDbPolyline
 90
        3
 70
     1
 43
0.010692
 10
87.32442338423565
 20
17.65868344843591
 10
87.97704168023555
 20
19.25683094443582
 10
88.6039706642355
 20
17.65868344843591
  0
LWPOLYLINE
  5
398
330
34E
100
AcDbEntity
  8
06-99
100
AcDbPolyline
 90
        7
 70
     1
 43
0.010692
 10
86.38318880423563
 20
16.12735738843582
 10
86.72320153223555
 20
16.12735738843582
 10
87.21136974023549
 20
17.37092608843585
 10
88.71187076423566
 20
17.37092608843585
 10
89.17949964023549
 20
16.12735738843582
 10
89.54434632023552
 20
16.12735738843582
 10
87.99759883223558
 20
19.9454100004358
  0
LWPOLYLINE
  5
399
330
34E
100
AcDbEntity
  8
06-99
100
AcDbPolyline
 90
        8
 70
     1
 43
0.010692
 10
98.92981243223543
 20
12.25281181243593
 10
100.0043869442354
 20
12.25281181243593
 10
100.1574144122356
 20
12.60301045243585
 10
100.9122803042355
 20
12.60301045243585
 10
100.9343521562355
 20
12.25281181243593
 10
102.0082815842354
 20
12.25281181243593
 10
101.5711569842355
 20
15.03490585243588
 10
100.4583193682355
 20
15.03490585243588
  0
LWPOLYLINE
  5
39A
330
34E
100
AcDbEntity
  8
06-99
100
AcDbPolyline
 90
       34
 70
     1
 43
0.010692
 10
96.0434642642356
 20
13.66137589243584
 10
96.07848769223544
 20
13.66137589243584
 10
96.0642316922356
 20
13.48699650043591
 10
96.06380757623552
 20
13.33509882043586
 10
96.06790617623554
 20
13.20222577243589
 10
96.09523849223561
 20
12.25281181243593
 10
96.9668360762354
 20
12.25281181243593
 10
98.31569602823542
 20
15.03490585243588
 10
97.31181345623557
 20
15.03490585243588
 10
96.85792023623552
 20
13.80922843243581
 10
96.80781752423563
 20
13.66872486043581
 10
96.74884758023544
 20
13.48671138043579
 10
96.69003445223545
 20
13.26059696443593
 10
96.66670094423549
 20
13.26059696443593
 10
96.6884270882355
 20
13.45803187243587
 10
96.69298544423558
 20
13.61569254043581
 10
96.69194475623548
 20
13.73531107243588
 10
96.67756045223544
 20
15.03490585243588
 10
95.97329266823548
 20
15.03490585243588
 10
95.45849068823557
 20
13.73531107243588
 10
95.41138886423542
 20
13.61569254043581
 10
95.35523448023562
 20
13.45803187243587
 10
95.30092981223551
 20
13.26059696443593
 10
95.27759630423545
 20
13.26059696443593
 10
95.30585169623558
 20
13.48671138043579
 10
95.31697137623556
 20
13.66872486043581
 10
95.32096662023551
 20
13.80922843243581
 10
95.33903966423546
 20
15.03490585243588
 10
94.33451200823553
 20
15.03490585243588
 10
94.61274279623561
 20
12.25281181243593
 10
95.48433681623547
 20
12.25281181243593
 10
95.87724643223557
 20
13.20222577243589
 10
95.93252050823551
 20
13.33509882043586
 10
95.99058519623557
 20
13.48699650043591
  0
LWPOLYLINE
  5
39B
330
34E
100
AcDbEntity
  8
06-99
100
AcDbPolyline
 90
       10
 70
     1
 43
0.010692
 10
100.4520752402354
 20
13.26448172443588
 10
100.5983667482354
 20
13.57965693643587
 10
100.6731180842355
 20
13.74409276843596
 10
100.7541598802355
 20
13.94570824843589
 10
100.8288363722355
 20
14.19056217643595
 10
100.8482958122355
 20
14.19056217643595
 10
100.8286724282354
 20
13.94570824843589
 10
100.8320796122355
 20
13.74409276843596
 10
100.8435129242355
 20
13.57965693643587
 10
100.8684181562356
 20
13.26448172443588
  0
LWPOLYLINE
  5
39C
330
34E
100
AcDbEntity
  8
06-99
100
AcDbPolyline
 90
       23
 70
     1
 43
0.010692
 10
103.5867130322356
 20
12.25281181243593
 10
104.5672478402354
 20
12.25281181243593
 10
104.7440436242355
 20
13.17110136043584
 10
105.0536340482356
 20
12.25281181243593
 10
106.1742447482354
 20
12.25281181243593
 10
105.6490750922355
 20
13.38511243243585
 10
105.8084357882355
 20
13.42380678043588
 10
105.9537079922354
 20
13.49881472443587
 10
106.0813562162355
 20
13.60690015243585
 10
106.1878378442354
 20
13.74481626043587
 10
106.2696066962354
 20
13.90931980843584
 10
106.3231201562354
 20
14.09716755643586
 10
106.3446075122355
 20
14.26808986843588
 10
106.3403093282354
 20
14.42329850443593
 10
106.3102362962355
 20
14.56225886443587
 10
106.2543991082354
 20
14.68443278443578
 10
106.1728155842354
 20
14.78928566443591
 10
106.0654999802355
 20
14.87627577643587
 10
105.9324594242355
 20
14.94487208443587
 10
105.7737153002354
 20
14.99453286043592
 10
105.5892711722355
 20
15.02472350443588
 10
105.3791519882354
 20
15.03490585243588
 10
104.1223501562355
 20
15.03490585243588
  0
LWPOLYLINE
  5
39D
330
34E
100
AcDbEntity
  8
06-99
100
AcDbPolyline
 90
        9
 70
     1
 43
0.010692
 10
104.9650401362355
 20
14.31896240443586
 10
105.1206907082355
 20
14.31896240443586
 10
105.2773605842356
 20
14.28538239643581
 10
105.3582277442354
 20
14.19040892443593
 10
105.3632244722355
 20
14.04269894443587
 10
105.3008722922355
 20
13.89699906043591
 10
105.1832994962355
 20
13.80577848043589
 10
105.0158200082354
 20
13.77421926043581
 10
104.8601694362355
 20
13.77421926043581
  0
LWPOLYLINE
  5
39E
330
34E
100
AcDbEntity
  8
06-99
100
AcDbPolyline
 90
       12
 70
     1
 43
0.010692
 10
100.5798090002356
 20
16.12735738843582
 10
102.3989066762356
 20
16.12735738843582
 10
102.3989066762356
 20
16.4408218804358
 10
100.9138270802356
 20
16.4408218804358
 10
100.9138270802356
 20
18.02353012843594
 10
102.3989066762356
 20
18.02353012843594
 10
102.3989066762356
 20
18.33699462043592
 10
100.9138270802356
 20
18.33699462043592
 10
100.9138270802356
 20
19.48806682843587
 10
102.3989066762356
 20
19.48806682843587
 10
102.3989066762356
 20
19.80153132043585
 10
100.5798090002356
 20
19.80153132043585
  0
LWPOLYLINE
  5
39F
330
34E
100
AcDbEntity
  8
06-99
100
AcDbPolyline
 90
        8
 70
     1
 43
0.010692
 10
95.85303261623565
 20
16.12735738843582
 10
96.18705426023556
 20
16.12735738843582
 10
96.18705426023556
 20
19.09753083643585
 10
98.76667389623552
 20
16.01858410843584
 10
98.76667389623552
 20
19.80153132043585
 10
98.4326665082356
 20
19.80153132043585
 10
98.4326665082356
 20
16.88274362443587
 10
95.85303261623565
 20
19.95568144843582
  0
LWPOLYLINE
  5
3A0
330
34E
100
AcDbEntity
  8
06-99
100
AcDbPolyline
 90
       19
 70
     1
 43
0.010692
 10
104.4484312082357
 20
19.5086239804358
 10
104.7824385962356
 20
19.5086239804358
 10
104.9866237202355
 20
19.50030560443588
 10
105.1604542562355
 20
19.47385716043584
 10
105.3049031762356
 20
19.42705471243579
 10
105.4209256322356
 20
19.35767076043584
 10
105.5094874682356
 20
19.26347780443581
 10
105.5715509642355
 20
19.14224834443593
 10
105.6080855282355
 20
18.9917477524358
 10
105.6200498762355
 20
18.80975922043586
 10
105.6074547002355
 20
18.63100680043584
 10
105.5693840522356
 20
18.48585933643585
 10
105.5054245082356
 20
18.37130168443593
 10
105.4151448242355
 20
18.28432582843589
 10
105.2981315762356
 20
18.22192018843589
 10
105.1539570842356
 20
18.18106962043583
 10
104.9821972322354
 20
18.15876967243594
 10
104.7824385962356
 20
18.15200520043589
 10
104.4484312082357
 20
18.15200520043589
  0
LWPOLYLINE
  5
3A1
330
34E
100
AcDbEntity
  8
06-99
100
AcDbPolyline
 90
       29
 70
     1
 43
0.010692
 10
106.3446075122355
 20
16.12735738843582
 10
105.0239637482355
 20
17.87965144843588
 10
105.2123817362357
 20
17.89225018843592
 10
105.3829084442356
 20
17.92941914443582
 10
105.5344069562356
 20
17.99022811243594
 10
105.6657296642355
 20
18.07375401643588
 10
105.7757360882356
 20
18.17905596043584
 10
105.8632821842355
 20
18.30521443243589
 10
105.9272310362355
 20
18.45129210043592
 10
105.9664386002355
 20
18.6163587604359
 10
105.9797608322353
 20
18.79948777243589
 10
105.9699455762357
 20
18.97455145243589
 10
105.9404891162357
 20
19.13261485243589
 10
105.8913629402356
 20
19.27374568843589
 10
105.8225492282356
 20
19.39801167643577
 10
105.7340230322356
 20
19.50548409643591
 10
105.6257594042356
 20
19.59623422843589
 10
105.4977369602356
 20
19.67032622443582
 10
105.3499307522354
 20
19.72783136443587
 10
105.1823193962355
 20
19.76882449243589
 10
104.9948815082355
 20
19.79336619643589
 10
104.7875885762355
 20
19.80153132043585
 10
104.7875885762355
 20
19.80153132043585
 10
104.1144131282356
 20
19.80153132043585
 10
104.1144131282356
 20
16.12735738843582
 10
104.4484312082357
 20
16.12735738843582
 10
104.4484312082357
 20
17.87965144843588
 10
104.6488456202355
 20
17.87965144843588
 10
105.9386465282355
 20
16.12735738843582
  0
TEXT
  5
3A2
330
34E
100
AcDbEntity
  8
06-99
100
AcDbText
 10
85.6083656112951
 20
9.63320697282171
 30
0.0
 40
1.4256
  1
GmbH & Co KG
 41
1.199203187251
 51
15.0
  7
ROMAND8
 72
     5
 11
106.0419656112951
 21
9.63320697282171
 31
0.0
100
AcDbText
  0
TEXT
  5
3A4
330
34E
100
AcDbEntity
  8
06-99
100
AcDbText
 10
85.70982236587898
 20
7.391013700398161
 30
0.0
 40
1.4256
  1
72774 Reutlingen
 50
0.5663244663116128
 41
1.087840993687879
 51
15.0
  7
ROMAND8
 72
     5
 11
105.943422365879
 21
7.59101370039815
 31
0.0
100
AcDbText
  0
TEXT
  5
3A5
330
34E
100
AcDbEntity
  8
08-99
100
AcDbText
 10
73.414125712073
 20
48.45008961754581
 30
0.0
 40
2.25
  1
Zul. Abw.
 51
15.0
  7
ROMANS8
100
AcDbText
  0
TEXT
  5
3A6
330
34E
100
AcDbEntity
  8
08-99
100
AcDbText
 10
123.2099338325191
 20
49.28616214647601
 30
0.0
 40
2.0
  1
Mat. Art.
 51
15.0
  7
ROMANS8
100
AcDbText
  0
TEXT
  5
3A7
330
34E
100
AcDbEntity
  8
08-99
100
AcDbText
 10
155.4865384826082
 20
49.4043113704472
 30
0.0
 40
2.0
  1
Oberfläche:
 51
15.0
  7
ROMANS8
100
AcDbText
  0
TEXT
  5
3A8
330
34E
100
AcDbEntity
  8
08-99
100
AcDbText
 10
184.762545350816
 20
41.73764470378046
 30
0.0
 40
2.0
  1
Blech Dicke:
 51
15.0
  7
ROMANS8
100
AcDbText
  0
TEXT
  5
3A9
330
34E
100
AcDbEntity
  8
08-99
100
AcDbText
 10
187.4380355407932
 20
49.28616214647604
 30
0.0
 40
2.0
  1
Maßstab:
 51
15.0
  7
ROMANS8
100
AcDbText
  0
LINE
  5
3AA
330
34E
100
AcDbEntity
  8
01-99
100
AcDbLine
 10
115.0000075122355
 20
46.8888868761025
 30
0.0
 11
92.0000075122355
 21
46.8888868761025
 31
0.0
  0
LINE
  5
3AB
330
34E
100
AcDbEntity
  8
01-99
100
AcDbLine
 10
115.0000075122355
 20
44.33333132043578
 30
0.0
 11
92.0000075122355
 21
44.33333132043578
 31
0.0
  0
LINE
  5
3AC
330
34E
100
AcDbEntity
  8
01-99
100
AcDbLine
 10
115.0000075122355
 20
40.49999798710246
 30
0.0
 11
92.00000751223544
 21
40.49999798710246
 31
0.0
  0
ATTDEF
  5
3AD
330
34E
100
AcDbEntity
  8
06-99
100
AcDbText
 10
116.4954542514127
 20
26.18783668438471
 30
0.0
 40
4.0
  1

 41
0.9
  7
ROMANS8
100
AcDbAttributeDefinition
280
     0
  3
Benennung/Teil
  2
TEILE
 70
     0
280
     0
  0
ATTDEF
  5
3AE
330
34E
100
AcDbEntity
  8
06-99
100
AcDbText
 10
116.4954542514127
 20
19.29547648609889
 30
0.0
 40
4.0
  1

 41
0.9
  7
ROMANS8
100
AcDbAttributeDefinition
280
     0
  3
Benennung/Teil2
  2
TEILE2
 70
     0
280
     0
  0
ATTDEF
  5
3AF
330
34E
100
AcDbEntity
  8
06-99
100
AcDbText
 10
191.3473937239501
 20
45.33333132043583
 30
0.0
 40
3.375
  1

  7
ROMANS8
100
AcDbAttributeDefinition
280
     0
  3
Maßstab
  2
:
 70
     0
280
     0
  0
ATTDEF
  5
3B0
330
34E
100
AcDbEntity
  8
06-99
100
AcDbText
 10
92.99707531160292
 20
27.44168345513378
 30
0.0
 40
2.5
  1

 41
0.9
  7
ROMANS8
100
AcDbAttributeDefinition
280
     0
  3
Name
  2
NAME
 70
     0
280
     0
  0
ATTDEF
  5
3B1
330
34E
100
AcDbEntity
  8
06-99
100
AcDbText
 10
79.49315396412956
 20
27.46123316121373
 30
0.0
 40
2.5
  1

 50
359.9144597696142
 41
0.9542572414211148
  7
ROMANS8
 72
     5
 11
90.73974463267431
 21
27.44444245376917
 31
0.0
100
AcDbAttributeDefinition
280
     0
  3
Datum
  2
DATUM
 70
     0
280
     0
  0
ATTDEF
  5
3B2
330
34E
100
AcDbEntity
  8
06-99
100
AcDbText
 10
178.5063514793938
 20
7.4928977873912
 30
0.0
 40
2.99376
  1

  7
ROMANS8
100
AcDbAttributeDefinition
280
     0
  3
Ident-Nummer
  2
ID.NR
 70
     0
280
     0
  0
ATTDEF
  5
3B3
330
34E
100
AcDbEntity
  8
06-99
100
AcDbText
 10
116.731273767946
 20
37.66666463154695
 30
0.0
 40
3.0
  1

 41
0.9
  7
ROMANS8
100
AcDbAttributeDefinition
280
     0
  3
Zuschnitts.Länge
  2
LÄNGE
 70
     0
280
     0
  0
ATTDEF
  5
3B4
330
34E
100
AcDbEntity
  8
06-99
100
AcDbText
 10
150.1808124240052
 20
37.67810185754732
 30
0.0
 40
3.0
  1

 41
0.9
  7
ROMANS8
100
AcDbAttributeDefinition
280
     0
  3
Zuschnitts Breite
  2
BREITE
 70
     0
280
     0
  0
ATTDEF
  5
3B5
330
34E
100
AcDbEntity
  8
06-99
100
AcDbText
 10
190.6090996389673
 20
37.66666465376926
 30
0.0
 40
3.09375
  1

  7
ROMANS8
100
AcDbAttributeDefinition
280
     0
  3
Blech.Dicke
  2
1.0
 70
     0
280
     0
  0
ATTDEF
  5
3B6
330
34E
100
AcDbEntity
  8
06-99
100
AcDbText
 10
164.1277931136382
 20
45.33333132043594
 30
0.0
 40
3.0
  1

  7
ROMANS8
 72
     1
 11
164.1277931136382
 21
45.33333132043594
 31
0.0
100
AcDbAttributeDefinition
280
     0
  3
Oberfläche
  2
IV
 70
     0
280
     0
  0
ATTDEF
  5
3B7
330
34E
100
AcDbEntity
  8
06-99
100
AcDbText
 10
123.2747480483513
 20
45.3333313204358
 30
0.0
 40
3.375
  1
1.4301
  7
ROMANS8
100
AcDbAttributeDefinition
280
     0
  3
Mat.Art
  2
1.4301
 70
     0
280
     0
  0
ATTDEF
  5
3B8
330
34E
100
AcDbEntity
  8
06-99
100
AcDbText
 10
146.0006413991156
 20
7.504394591457128
 30
0.0
 40
3.168
  1

 41
0.9
  7
ROMANS8
100
AcDbAttributeDefinition
280
     0
  3
Auftrags Nr.
  2
AUFTRAGS.NR.
 70
     0
280
     0
  0
ATTDEF
  5
3B9
330
34E
100
AcDbEntity
  8
06-99
100
AcDbText
 10
116.5000075122355
 20
7.499997987102517
 30
0.0
 40
3.168
  1

 41
0.9
  7
ROMANS8
100
AcDbAttributeDefinition
280
     0
  3
Sonder-NR,WPS
  2
SONDER-NR
 70
     0
280
     0
  0
ATTDEF
  5
3BA
330
34E
100
AcDbEntity
  8
06-99
100
AcDbText
 10
46.4997585072438
 20
6.601808056362358
 30
0.0
 40
1.5
  1

 41
0.9
  7
ROMANS8
100
AcDbAttributeDefinition
280
     0
  3
ERSETZT.Durch
  2
ERSETZT.DURCH
 70
     0
280
     0
  0
ATTDEF
  5
3BB
330
34E
100
AcDbEntity
  8
06-99
100
AcDbText
 10
21.49947529243403
 20
6.597454384974923
 30
0.0
 40
1.5
  1

 41
0.9
  7
ROMANS8
100
AcDbAttributeDefinition
280
     0
  3
ERSETZT.Für
  2
ERSETZT.FÜR
 70
     0
280
     0
  0
ATTDEF
  5
3BC
330
34E
100
AcDbEntity
  8
06-99
100
AcDbText
 10
99.97308015867309
 20
47.66850912711049
 30
0.0
 40
1.287
  1
DIN A4
  7
ROMANS8
 72
     1
 11
103.2518658729588
 21
47.66850912711049
 31
0.0
100
AcDbAttributeDefinition
280
     0
  3
Format
  2
FORMAT
 70
     0
280
     0
  0
ATTDEF
  5
3BD
330
34E
100
AcDbEntity
  8
06-99
100
AcDbText
 10
95.9874465096418
 20
37.19696532096725
 30
0.0
 40
2.34
  1
DIN 2768
  7
ROMANS8
 72
     1
 11
104.0103036524989
 21
37.19696532096725
 31
0.0
100
AcDbAttributeDefinition
280
     0
  3
Norm / Kanten
  2
NORM2
 70
     0
280
     0
  0
ATTDEF
  5
3BE
330
34E
100
AcDbEntity
  8
06-99
100
AcDbText
 10
92.81173222392748
 20
41.03029865430056
 30
0.0
 40
2.34
  1
DIN 6930-M
  7
ROMANS8
 72
     1
 11
103.5088750810703
 21
41.03029865430056
 31
0.0
100
AcDbAttributeDefinition
280
     0
  3
Norm / Fräsen
  2
NORM1
 70
     0
280
     0
  0
ENDBLK
  5
3BF
330
34E
100
AcDbEntity
  8
0
100
AcDbBlockEnd
  0
BLOCK
  5
1B6
330
1B3
100
AcDbEntity
  8
0
100
AcDbBlockBegin
  2
desipumpe_dr
 70
     0
 10
0.0
 20
0.0
 30
0.0
  3
desipumpe_dr
  1

  0
LINE
  5
1B7
330
1B3
100
AcDbEntity
  8
03-01
100
AcDbLine
 10
-351.2335693789804
 20
199.527899906843
 30
0.0
 11
-351.2335693789804
 21
198.027899906843
 31
0.0
  0
LINE
  5
1B8
330
1B3
100
AcDbEntity
  8
03-01
100
AcDbLine
 10
-351.2335693789804
 20
194.1278999068431
 30
0.0
 11
-351.2335693789812
 21
146.2369719841174
 31
0.0
  0
LINE
  5
1B9
330
1B3
100
AcDbEntity
  8
03-01
100
AcDbLine
 10
-351.2335693789804
 20
142.3369719841173
 30
0.0
 11
-351.2335693789804
 21
140.8369719841173
 31
0.0
  0
LINE
  5
1BA
330
1B3
100
AcDbEntity
  8
03-01
100
AcDbLine
 10
-351.2335693789804
 20
199.527899906843
 30
0.0
 11
-354.8335693789803
 21
199.527899906843
 31
0.0
  0
LINE
  5
1BB
330
1B3
100
AcDbEntity
  8
03-01
100
AcDbLine
 10
-351.2335693789804
 20
198.027899906843
 30
0.0
 11
-353.3335693789803
 21
198.027899906843
 31
0.0
  0
LINE
  5
1BC
330
1B3
100
AcDbEntity
  8
03-01
100
AcDbLine
 10
-358.0335693789804
 20
199.527899906843
 30
0.0
 11
-420.2335693789803
 21
199.527899906843
 31
0.0
  0
LINE
  5
1BD
330
1B3
100
AcDbEntity
  8
03-01
100
AcDbLine
 10
-353.2335693789805
 20
183.527899906843
 30
0.0
 11
-377.2335693789806
 21
183.527899906843
 31
0.0
  0
LINE
  5
1BE
330
1B3
100
AcDbEntity
  8
03-01
100
AcDbLine
 10
-353.2335693789804
 20
186.027899906843
 30
0.0
 11
-377.2335693789805
 21
186.027899906843
 31
0.0
  0
LINE
  5
1BF
330
1B3
100
AcDbEntity
  8
03-01
100
AcDbLine
 10
-354.8335693789803
 20
194.8278999068429
 30
0.0
 11
-358.0335693789804
 21
194.8278999068429
 31
0.0
  0
LINE
  5
1C0
330
1B3
100
AcDbEntity
  8
03-01
100
AcDbLine
 10
-351.2335693789804
 20
194.1278999068431
 30
0.0
 11
-353.3335693789803
 21
194.1278999068431
 31
0.0
  0
LINE
  5
1C1
330
1B3
100
AcDbEntity
  8
03-01
100
AcDbLine
 10
-360.1335693789803
 20
197.727899906843
 30
0.0
 11
-418.4335693789803
 21
197.727899906843
 31
0.0
  0
LINE
  5
1C2
330
1B3
100
AcDbEntity
  8
03-01
100
AcDbLine
 10
-351.2335693789804
 20
140.8369719841173
 30
0.0
 11
-354.8335693789803
 21
140.8369719841173
 31
0.0
  0
LINE
  5
1C3
330
1B3
100
AcDbEntity
  8
03-01
100
AcDbLine
 10
-351.2335693789804
 20
142.3369719841173
 30
0.0
 11
-353.3335693789803
 21
142.3369719841173
 31
0.0
  0
LINE
  5
1C4
330
1B3
100
AcDbEntity
  8
03-01
100
AcDbLine
 10
-358.0335693789804
 20
140.8369719841173
 30
0.0
 11
-420.2335693789803
 21
140.8369719841173
 31
0.0
  0
LINE
  5
1C5
330
1B3
100
AcDbEntity
  8
03-01
100
AcDbLine
 10
-353.2335693789811
 20
156.8369719841173
 30
0.0
 11
-377.2335693789811
 21
156.8369719841173
 31
0.0
  0
LINE
  5
1C6
330
1B3
100
AcDbEntity
  8
03-01
100
AcDbLine
 10
-353.2335693789811
 20
154.3369719841173
 30
0.0
 11
-377.2335693789811
 21
154.3369719841173
 31
0.0
  0
LINE
  5
1C7
330
1B3
100
AcDbEntity
  8
03-01
100
AcDbLine
 10
-354.8335693789803
 20
145.5369719841173
 30
0.0
 11
-358.0335693789804
 21
145.5369719841173
 31
0.0
  0
LINE
  5
1C8
330
1B3
100
AcDbEntity
  8
03-01
100
AcDbLine
 10
-351.2335693789812
 20
146.2369719841174
 30
0.0
 11
-353.3335693789803
 21
146.2369719841174
 31
0.0
  0
LINE
  5
1C9
330
1B3
100
AcDbEntity
  8
03-01
100
AcDbLine
 10
-360.1335693789804
 20
142.6369719841173
 30
0.0
 11
-418.4335693789803
 21
142.6369719841173
 31
0.0
  0
LINE
  5
1CA
330
1B3
100
AcDbEntity
  8
03-01
100
AcDbLine
 10
-420.2335693789803
 20
199.527899906843
 30
0.0
 11
-420.2335693789803
 21
140.8369719841173
 31
0.0
  0
LINE
  5
1CB
330
1B3
100
AcDbEntity
  8
03-01
100
AcDbLine
 10
-418.4335693789803
 20
197.727899906843
 30
0.0
 11
-418.4335693789803
 21
142.6369719841173
 31
0.0
  0
LINE
  5
1CC
330
1B3
100
AcDbEntity
  8
03-01
100
AcDbLine
 10
-354.8335693789803
 20
199.527899906843
 30
0.0
 11
-354.8335693789803
 21
194.8278999068429
 31
0.0
  0
LINE
  5
1CD
330
1B3
100
AcDbEntity
  8
03-01
100
AcDbLine
 10
-354.8335693789803
 20
145.5369719841171
 30
0.0
 11
-354.8335693789803
 21
140.8369719841173
 31
0.0
  0
LINE
  5
1CE
330
1B3
100
AcDbEntity
  8
03-01
100
AcDbLine
 10
-353.3335693789803
 20
198.027899906843
 30
0.0
 11
-353.3335693789803
 21
194.1278999068433
 31
0.0
  0
LINE
  5
1CF
330
1B3
100
AcDbEntity
  8
03-01
100
AcDbLine
 10
-353.3335693789803
 20
146.2369719841174
 30
0.0
 11
-353.3335693789803
 21
142.3369719841173
 31
0.0
  0
LINE
  5
1D0
330
1B3
100
AcDbEntity
  8
03-01
100
AcDbLine
 10
-358.0335693789804
 20
199.527899906843
 30
0.0
 11
-358.0335693789804
 21
194.8278999068429
 31
0.0
  0
LINE
  5
1D1
330
1B3
100
AcDbEntity
  8
03-01
100
AcDbLine
 10
-360.1335693789803
 20
197.727899906843
 30
0.0
 11
-360.1335693789803
 21
192.527899906843
 31
0.0
  0
LINE
  5
1D2
330
1B3
100
AcDbEntity
  8
03-01
100
AcDbLine
 10
-360.1335693789804
 20
147.8369719841173
 30
0.0
 11
-360.1335693789804
 21
142.6369719841173
 31
0.0
  0
LINE
  5
1D3
330
1B3
100
AcDbEntity
  8
03-01
100
AcDbLine
 10
-358.0335693789804
 20
140.8369719841173
 30
0.0
 11
-358.0335693789804
 21
145.5369719841173
 31
0.0
  0
LINE
  5
1D4
330
1B3
100
AcDbEntity
  8
03-01
100
AcDbLine
 10
-353.2335693789804
 20
192.527899906843
 30
0.0
 11
-353.2335693789804
 21
186.027899906843
 31
0.0
  0
LINE
  5
1D5
330
1B3
100
AcDbEntity
  8
03-01
100
AcDbLine
 10
-353.2335693789805
 20
183.527899906843
 30
0.0
 11
-353.233569378981
 21
156.8369719841175
 31
0.0
  0
LINE
  5
1D6
330
1B3
100
AcDbEntity
  8
03-01
100
AcDbLine
 10
-353.2335693789811
 20
154.3369719841173
 30
0.0
 11
-353.2335693789812
 21
147.8369719841173
 31
0.0
  0
LINE
  5
1D7
330
1B3
100
AcDbEntity
  8
03-01
100
AcDbLine
 10
-360.1335693789803
 20
192.527899906843
 30
0.0
 11
-353.2335693789804
 21
192.527899906843
 31
0.0
  0
LINE
  5
1D8
330
1B3
100
AcDbEntity
  8
03-01
100
AcDbLine
 10
-360.1335693789804
 20
147.8369719841173
 30
0.0
 11
-353.2335693789812
 21
147.8369719841173
 31
0.0
  0
LINE
  5
1D9
330
1B3
100
AcDbEntity
  8
03-01
100
AcDbLine
 10
-354.2335693789805
 20
186.027899906843
 30
0.0
 11
-354.2335693789805
 21
183.527899906843
 31
0.0
  0
LINE
  5
1DA
330
1B3
100
AcDbEntity
  8
03-01
100
AcDbLine
 10
-354.2335693789811
 20
156.8369719841173
 30
0.0
 11
-354.2335693789811
 21
154.3369719841173
 31
0.0
  0
LINE
  5
1DB
330
1B3
100
AcDbEntity
  8
03-01
100
AcDbLine
 10
-377.2335693789805
 20
186.027899906843
 30
0.0
 11
-377.2335693789806
 21
183.527899906843
 31
0.0
  0
LINE
  5
1DC
330
1B3
100
AcDbEntity
  8
03-01
100
AcDbLine
 10
-377.2335693789811
 20
156.8369719841173
 30
0.0
 11
-377.2335693789811
 21
154.3369719841173
 31
0.0
  0
LINE
  5
1DD
330
1B3
100
AcDbEntity
  8
03-01
100
AcDbLine
 10
-354.2361770821899
 20
154.1824351855223
 30
0.0
 11
-358.2205240680068
 21
154.1824351855223
 31
0.0
  0
ARC
  5
1DE
330
1B3
100
AcDbEntity
  8
03-01
100
AcDbCircle
 10
-356.2335625840514
 20
154.1824359454817
 30
0.0
 40
2.0
100
AcDbArc
 50
180.0
 51
0.0
  0
LINE
  5
1DF
330
1B3
100
AcDbEntity
  8
03-01
100
AcDbLine
 10
-358.2335625840515
 20
157.1824356772606
 30
0.0
 11
-358.2335625840515
 21
154.1824351855223
 31
0.0
  0
LINE
  5
1E0
330
1B3
100
AcDbEntity
  8
03-01
100
AcDbLine
 10
-354.233569378981
 20
154.1824351855223
 30
0.0
 11
-354.233569378981
 21
157.1824356772606
 31
0.0
  0
LINE
  5
1E1
330
1B3
100
AcDbEntity
  8
03-01
100
AcDbLine
 10
-354.233569378981
 20
183.1824362137024
 30
0.0
 11
-354.233569378981
 21
186.1824367054407
 31
0.0
  0
LINE
  5
1E2
330
1B3
100
AcDbEntity
  8
03-01
100
AcDbLine
 10
-358.2335625840515
 20
186.1824367054407
 30
0.0
 11
-358.2335625840515
 21
183.1824362137024
 31
0.0
  0
ARC
  5
1E3
330
1B3
100
AcDbEntity
  8
03-01
100
AcDbCircle
 10
-356.2335625840514
 20
186.1824359454817
 30
0.0
 40
2.0
100
AcDbArc
 50
0.0
 51
180.0
  0
LINE
  5
1E4
330
1B3
100
AcDbEntity
  8
03-01
100
AcDbLine
 10
-358.2335625840515
 20
186.1824359454817
 30
0.0
 11
-354.233569378981
 21
186.1824367054407
 31
0.0
  0
LINE
  5
1E5
330
1B3
100
AcDbEntity
  8
03-01
100
AcDbLine
 10
-375.1493839159526
 20
183.1824362137024
 30
0.0
 11
-350.2335693789806
 21
183.1824362137024
 31
0.0
  0
LINE
  5
1E6
330
1B3
100
AcDbEntity
  8
03-01
100
AcDbLine
 10
-375.1493839159531
 20
157.1824356772606
 30
0.0
 11
-350.2335693789811
 21
157.1824356772606
 31
0.0
  0
LINE
  5
1E7
330
1B3
100
AcDbEntity
  8
03-01
100
AcDbLine
 10
-350.2335693789806
 20
183.1824362137024
 30
0.0
 11
-350.2335693789811
 21
157.1824356772606
 31
0.0
  0
ARC
  5
1E8
330
1B3
100
AcDbEntity
  8
03-01
100
AcDbCircle
 10
-390.6335700763551
 20
170.182435945482
 30
0.0
 40
19.40000069737442
100
AcDbArc
 50
321.0869207880793
 51
38.91307921192072
  0
ARC
  5
1E9
330
1B3
100
AcDbEntity
  8
03-01
100
AcDbCircle
 10
-375.1493839159531
 20
157.6824356772606
 30
0.0
 40
0.5
100
AcDbArc
 50
141.0869207880793
 51
270.0
  0
ARC
  5
1EA
330
1B3
100
AcDbEntity
  8
03-01
100
AcDbCircle
 10
-375.1493839159526
 20
182.6824362137024
 30
0.0
 40
0.5
100
AcDbArc
 50
90.0
 51
218.9130792119065
  0
ARC
  5
1EB
330
1B3
100
AcDbEntity
  8
03-01
100
AcDbCircle
 10
-387.0335700763552
 20
170.1824359454815
 30
0.0
 40
19.40000069737442
100
AcDbArc
 50
321.0869207880793
 51
38.91307921192072
  0
ARC
  5
1EC
330
1B3
100
AcDbEntity
  8
03-01
100
AcDbCircle
 10
-371.5493839159529
 20
157.6824356772606
 30
0.0
 40
0.5
100
AcDbArc
 50
141.0869207880793
 51
270.0
  0
ARC
  5
1ED
330
1B3
100
AcDbEntity
  8
03-01
100
AcDbCircle
 10
-371.5493839159529
 20
182.6824362137024
 30
0.0
 40
0.5
100
AcDbArc
 50
90.0
 51
218.9130792119207
  0
LINE
  5
1EE
330
1B3
100
AcDbEntity
  8
03-01
100
AcDbLine
 10
-421.4614561965119
 20
202.6824373564518
 30
0.0
 11
-421.4614561965119
 21
137.6929142734802
 31
0.0
  0
ARC
  5
1EF
330
1B3
100
AcDbEntity
  8
03-01
100
AcDbCircle
 10
-418.461456196512
 20
137.6929142734802
 30
0.0
 40
3.0
100
AcDbArc
 50
180.0
 51
270.0
  0
LINE
  5
1F0
330
1B3
100
AcDbEntity
  8
03-01
100
AcDbLine
 10
-323.9418569105022
 20
202.6824373564521
 30
0.0
 11
-323.9418569105022
 21
137.6929142734802
 31
0.0
  0
ARC
  5
1F1
330
1B3
100
AcDbEntity
  8
03-01
100
AcDbCircle
 10
-326.9418569105022
 20
202.6824373564521
 30
0.0
 40
3.0
100
AcDbArc
 50
0.0
 51
90.0
  0
LINE
  5
1F2
330
1B3
100
AcDbEntity
  8
03-01
100
AcDbLine
 10
-326.9418569105022
 20
205.6824373564518
 30
0.0
 11
-418.461456196512
 21
205.6824373564518
 31
0.0
  0
ARC
  5
1F3
330
1B3
100
AcDbEntity
  8
03-01
100
AcDbCircle
 10
-418.461456196512
 20
202.6824373564518
 30
0.0
 40
3.0
100
AcDbArc
 50
90.0
 51
180.0
  0
LINE
  5
1F4
330
1B3
100
AcDbEntity
  8
03-01
100
AcDbLine
 10
-326.9418569105022
 20
134.6929142734802
 30
0.0
 11
-418.461456196512
 21
134.6929142734802
 31
0.0
  0
ARC
  5
1F5
330
1B3
100
AcDbEntity
  8
03-01
100
AcDbCircle
 10
-326.9418569105022
 20
137.6929142734802
 30
0.0
 40
3.0
100
AcDbArc
 50
270.0
 51
0.0
  0
LINE
  5
1F6
330
1B3
100
AcDbEntity
  8
03-01
100
AcDbLine
 10
-343.8882562083501
 20
134.6929142734802
 30
0.0
 11
-343.88825620835
 21
205.682437356452
 31
0.0
  0
LINE
  5
1F7
330
1B3
100
AcDbEntity
  8
03-01
100
AcDbLine
 10
-345.93232163963
 20
134.6929142734802
 30
0.0
 11
-345.9323216396301
 21
205.6824373564518
 31
0.0
  0
LINE
  5
1F8
330
1B3
100
AcDbEntity
  8
03-01
100
AcDbLine
 10
-341.8441907770698
 20
134.6929142734802
 30
0.0
 11
-341.8441907770698
 21
205.6824373564518
 31
0.0
  0
LINE
  5
1F9
330
1B3
100
AcDbEntity
  8
03-01
100
AcDbLine
 10
-412.2331298763644
 20
144.4534961149877
 30
0.0
 11
-412.2331298763644
 21
195.9113718126527
 31
0.0
  0
LINE
  5
1FA
330
1B3
100
AcDbEntity
  8
03-01
100
AcDbLine
 10
-351.7361806450315
 20
144.4534961149877
 30
0.0
 11
-351.7361806450315
 21
195.9113718126527
 31
0.0
  0
ARC
  5
1FB
330
1B3
100
AcDbEntity
  8
03-01
100
AcDbCircle
 10
-352.7361806450315
 20
144.4534961149877
 30
0.0
 40
1.0
100
AcDbArc
 50
270.0
 51
0.0
  0
LINE
  5
1FC
330
1B3
100
AcDbEntity
  8
03-01
100
AcDbLine
 10
-411.2331298763645
 20
196.9113718126527
 30
0.0
 11
-352.7361806450315
 21
196.9113718126527
 31
0.0
  0
ARC
  5
1FD
330
1B3
100
AcDbEntity
  8
03-01
100
AcDbCircle
 10
-352.7361806450315
 20
195.9113718126527
 30
0.0
 40
1.0
100
AcDbArc
 50
0.0
 51
90.0
  0
ARC
  5
1FE
330
1B3
100
AcDbEntity
  8
03-01
100
AcDbCircle
 10
-411.2331298763645
 20
195.9113718126527
 30
0.0
 40
1.0
100
AcDbArc
 50
90.0
 51
180.0
  0
LINE
  5
1FF
330
1B3
100
AcDbEntity
  8
03-01
100
AcDbLine
 10
-411.2331298763645
 20
143.4534961149877
 30
0.0
 11
-352.7361806450315
 21
143.4534961149877
 31
0.0
  0
ARC
  5
200
330
1B3
100
AcDbEntity
  8
03-01
100
AcDbCircle
 10
-411.2331298763645
 20
144.4534961149877
 30
0.0
 40
1.0
100
AcDbArc
 50
180.0
 51
270.0
  0
ENDBLK
  5
201
330
1B3
100
AcDbEntity
  8
0
100
AcDbBlockEnd
  0
BLOCK
  5
3EE
330
3ED
100
AcDbEntity
  8
0
100
AcDbBlockBegin
  2
schloss-024454-S
 70
     0
 10
0.0
 20
0.0
 30
0.0
  3
schloss-024454-S
  1

  0
LINE
  5
3EF
330
3ED
100
AcDbEntity
  8
0
100
AcDbLine
 10
3.300000000000011
 20
7.25
 30
0.0
 11
3.300000000000011
 21
-7.25
 31
0.0
  0
LINE
  5
3F0
330
3ED
100
AcDbEntity
  8
0
100
AcDbLine
 10
3.300000000000011
 20
7.25
 30
0.0
 11
1.800000000000011
 21
8.5
 31
0.0
  0
LINE
  5
3F1
330
3ED
100
AcDbEntity
  8
0
100
AcDbLine
 10
3.300000000000011
 20
-7.25
 30
0.0
 11
1.800000000000011
 21
-8.5
 31
0.0
  0
LINE
  5
3F2
330
3ED
100
AcDbEntity
  8
0
100
AcDbLine
 10
1.800000000000011
 20
-8.5
 30
0.0
 11
1.800000000000011
 21
8.5
 31
0.0
  0
LINE
  5
3F3
330
3ED
100
AcDbEntity
  8
0
100
AcDbLine
 10
1.800000000000011
 20
8.5
 30
0.0
 11
0.0000000000000142
 21
8.5
 31
0.0
  0
LINE
  5
3F4
330
3ED
100
AcDbEntity
  8
0
100
AcDbLine
 10
0.0000000000000142
 20
8.5
 30
0.0
 11
0.0
 21
-8.5
 31
0.0
  0
LINE
  5
3F5
330
3ED
100
AcDbEntity
  8
0
100
AcDbLine
 10
0.0
 20
-8.5
 30
0.0
 11
1.800000000000011
 21
-8.5
 31
0.0
  0
LINE
  5
3F6
330
3ED
100
AcDbEntity
  8
0
100
AcDbLine
 10
0.0
 20
-7.799999999999997
 30
0.0
 11
-1.0
 21
-7.799999999999997
 31
0.0
  0
LINE
  5
3F7
330
3ED
100
AcDbEntity
  8
0
100
AcDbLine
 10
-4.099999999999994
 20
-7.799999999999997
 30
0.0
 11
-5.449999999999988
 21
-7.799999999999997
 31
0.0
  0
LINE
  5
3F8
330
3ED
100
AcDbEntity
  8
0
100
AcDbLine
 10
-5.649999999999991
 20
-7.599999999999994
 30
0.0
 11
-5.449999999999988
 21
-7.799999999999997
 31
0.0
  0
LINE
  5
3F9
330
3ED
100
AcDbEntity
  8
0
100
AcDbLine
 10
0.0000000000000142
 20
7.799999999999997
 30
0.0
 11
-0.9999999999999715
 21
7.799999999999997
 31
0.0
  0
LINE
  5
3FA
330
3ED
100
AcDbEntity
  8
0
100
AcDbLine
 10
-4.09999999999998
 20
7.799999999999997
 30
0.0
 11
-5.449999999999974
 21
7.800000000000011
 31
0.0
  0
LINE
  5
3FB
330
3ED
100
AcDbEntity
  8
0
100
AcDbLine
 10
-7.849999999999994
 20
7.0
 30
0.0
 11
-7.849999999999994
 21
-7.0
 31
0.0
  0
LINE
  5
3FC
330
3ED
100
AcDbEntity
  8
0
100
AcDbLine
 10
-5.649999999999977
 20
7.0
 30
0.0
 11
-7.849999999999994
 21
7.0
 31
0.0
  0
LINE
  5
3FD
330
3ED
100
AcDbEntity
  8
0
100
AcDbLine
 10
-5.649999999999991
 20
-7.0
 30
0.0
 11
-7.849999999999994
 21
-7.0
 31
0.0
  0
LINE
  5
3FE
330
3ED
100
AcDbEntity
  8
0
100
AcDbLine
 10
-5.649999999999977
 20
7.599999999999994
 30
0.0
 11
-5.649999999999977
 21
7.0
 31
0.0
  0
LINE
  5
3FF
330
3ED
100
AcDbEntity
  8
0
100
AcDbLine
 10
-5.449999999999974
 20
7.800000000000011
 30
0.0
 11
-5.649999999999977
 21
7.599999999999994
 31
0.0
  0
LINE
  5
400
330
3ED
100
AcDbEntity
  8
0
100
AcDbLine
 10
-5.649999999999991
 20
-7.599999999999994
 30
0.0
 11
-5.649999999999991
 21
-7.0
 31
0.0
  0
LINE
  5
401
330
3ED
100
AcDbEntity
  8
0
100
AcDbLine
 10
0.0000000000000142
 20
7.5
 30
0.0
 11
-0.9999999999999715
 21
7.5
 31
0.0
  0
LINE
  5
402
330
3ED
100
AcDbEntity
  8
0
100
AcDbLine
 10
-4.099999999999965
 20
7.5
 30
0.0
 11
-5.649999999999977
 21
7.5
 31
0.0
  0
LINE
  5
403
330
3ED
100
AcDbEntity
  8
0
100
AcDbLine
 10
0.0
 20
-7.5
 30
0.0
 11
-1.0
 21
-7.5
 31
0.0
  0
LINE
  5
404
330
3ED
100
AcDbEntity
  8
0
100
AcDbLine
 10
-4.099999999999994
 20
-7.5
 30
0.0
 11
-5.649999999999991
 21
-7.5
 31
0.0
  0
LINE
  5
405
330
3ED
100
AcDbEntity
  8
0
100
AcDbLine
 10
-7.849999999999994
 20
18.55000000000001
 30
0.0
 11
-7.849999999999994
 21
-6.75
 31
0.0
  0
LINE
  5
406
330
3ED
100
AcDbEntity
  8
0
100
AcDbLine
 10
-7.849999999999994
 20
-6.75
 30
0.0
 11
-9.849999999999994
 21
-6.75
 31
0.0
  0
LINE
  5
407
330
3ED
100
AcDbEntity
  8
0
100
AcDbLine
 10
-9.849999999999994
 20
-6.75
 30
0.0
 11
-9.849999999999994
 21
18.55000000000001
 31
0.0
  0
LINE
  5
408
330
3ED
100
AcDbEntity
  8
0
100
AcDbLine
 10
-9.849999999999994
 20
18.55000000000001
 30
0.0
 11
-7.849999999999994
 21
18.55000000000001
 31
0.0
  0
LINE
  5
409
330
3ED
100
AcDbEntity
  8
0
100
AcDbLine
 10
-5.649999999999977
 20
7.0
 30
0.0
 11
-5.649999999999977
 21
3.886057455164035
 31
0.0
  0
LINE
  5
40A
330
3ED
100
AcDbEntity
  8
0
100
AcDbLine
 10
-5.649999999999977
 20
-3.886057455164035
 30
0.0
 11
-5.649999999999991
 21
-7.0
 31
0.0
  0
LINE
  5
40B
330
3ED
100
AcDbEntity
  8
0
100
AcDbLine
 10
0.0000000000000142
 20
4.386057455164035
 30
0.0
 11
-0.9999999999999715
 21
4.386057455164035
 31
0.0
  0
LINE
  5
40C
330
3ED
100
AcDbEntity
  8
0
100
AcDbLine
 10
-4.099999999999965
 20
4.386057455164035
 30
0.0
 11
-5.649999999999977
 21
4.386057455164035
 31
0.0
  0
LINE
  5
40D
330
3ED
100
AcDbEntity
  8
0
100
AcDbLine
 10
0.0
 20
-4.386057455164035
 30
0.0
 11
-1.0
 21
-4.386057455164035
 31
0.0
  0
LINE
  5
40E
330
3ED
100
AcDbEntity
  8
0
100
AcDbLine
 10
-4.099999999999994
 20
-4.386057455164035
 30
0.0
 11
-5.649999999999977
 21
-4.386057455164035
 31
0.0
  0
LINE
  5
40F
330
3ED
100
AcDbEntity
  8
0
100
AcDbLine
 10
-5.649999999999977
 20
3.886057455164035
 30
0.0
 11
-7.849999999999994
 21
3.886057455164035
 31
0.0
  0
LINE
  5
410
330
3ED
100
AcDbEntity
  8
0
100
AcDbLine
 10
-5.649999999999977
 20
-3.886057455164035
 30
0.0
 11
-7.849999999999994
 21
-3.886057455164035
 31
0.0
  0
LINE
  5
411
330
3ED
100
AcDbEntity
  8
05-01
100
AcDbLine
 10
4.759251177166959
 20
0.0
 30
0.0
 11
-14.89074882283304
 21
0.0
 31
0.0
  0
LINE
  5
412
330
3ED
100
AcDbEntity
  8
0
100
AcDbLine
 10
-10.84999999999999
 20
-5.799999999999997
 30
0.0
 11
-10.84999999999999
 21
5.800000000000011
 31
0.0
  0
LINE
  5
413
330
3ED
100
AcDbEntity
  8
0
100
AcDbLine
 10
-12.84999999999999
 20
-3.5
 30
0.0
 11
-12.84999999999998
 21
3.5
 31
0.0
  0
LINE
  5
414
330
3ED
100
AcDbEntity
  8
0
100
AcDbLine
 10
-9.849999999999994
 20
5.800000000000011
 30
0.0
 11
-10.84999999999999
 21
5.800000000000011
 31
0.0
  0
LINE
  5
415
330
3ED
100
AcDbEntity
  8
0
100
AcDbLine
 10
-9.849999999999994
 20
-5.799999999999997
 30
0.0
 11
-10.84999999999999
 21
-5.799999999999997
 31
0.0
  0
LINE
  5
416
330
3ED
100
AcDbEntity
  8
0
100
AcDbLine
 10
-10.84999999999999
 20
3.5
 30
0.0
 11
-12.84999999999999
 21
3.5
 31
0.0
  0
LINE
  5
417
330
3ED
100
AcDbEntity
  8
0
100
AcDbLine
 10
-10.84999999999999
 20
-3.5
 30
0.0
 11
-12.84999999999999
 21
-3.5
 31
0.0
  0
LINE
  5
418
330
3ED
100
AcDbEntity
  8
0
100
AcDbLine
 10
-0.9999999999999857
 20
9.5
 30
0.0
 11
-1.0
 21
-9.5
 31
0.0
  0
LINE
  5
419
330
3ED
100
AcDbEntity
  8
0
100
AcDbLine
 10
-4.099999999999994
 20
9.5
 30
0.0
 11
-4.099999999999994
 21
-9.5
 31
0.0
  0
LINE
  5
41A
330
3ED
100
AcDbEntity
  8
0
100
AcDbLine
 10
-4.099999999999994
 20
9.5
 30
0.0
 11
-0.9999999999999857
 21
9.5
 31
0.0
  0
LINE
  5
41B
330
3ED
100
AcDbEntity
  8
0
100
AcDbLine
 10
-4.099999999999994
 20
-9.5
 30
0.0
 11
-1.0
 21
-9.5
 31
0.0
  0
LINE
  5
41C
330
3ED
100
AcDbEntity
  8
0
100
AcDbLine
 10
-4.099999999999994
 20
0.0
 30
0.0
 11
-0.9999999999999857
 21
0.0
 31
0.0
  0
LINE
  5
41D
330
3ED
100
AcDbEntity
  8
0
100
AcDbLine
 10
-9.849999999999994
 20
15.75
 30
0.0
 11
-7.849999999999994
 21
15.75
 31
0.0
  0
LINE
  5
41E
330
3ED
100
AcDbEntity
  8
0
100
AcDbLine
 10
-9.849999999999994
 20
12.25
 30
0.0
 11
-7.849999999999994
 21
12.25
 31
0.0
  0
LINE
  5
41F
330
3ED
100
AcDbEntity
  8
0
100
AcDbLine
 10
-9.849999999999994
 20
9.75
 30
0.0
 11
-7.849999999999994
 21
9.75
 31
0.0
  0
ENDBLK
  5
420
330
3ED
100
AcDbEntity
  8
0
100
AcDbBlockEnd
  0
BLOCK
  5
22F
330
22E
100
AcDbEntity
  8
0
100
AcDbBlockBegin
  2
Sensor-Betätigungsmodul
 70
     0
 10
0.0
 20
0.0
 30
0.0
  3
Sensor-Betätigungsmodul
  1

  0
LINE
  5
230
330
22E
100
AcDbEntity
  8
0
100
AcDbLine
 10
-0.0000000000003411
 20
8.599999999999795
 30
0.0
 11
0.0
 21
2.5
 31
0.0
  0
LINE
  5
231
330
22E
100
AcDbEntity
  8
0
100
AcDbLine
 10
-0.0000000000002274
 20
-20.49999999999994
 30
0.0
 11
-0.0000000000001137
 21
-67.5
 31
0.0
  0
LINE
  5
232
330
22E
100
AcDbEntity
  8
03-01
100
AcDbLine
 10
2.79999999999984
 20
-65.39999999999986
 30
0.0
 11
2.79999999999984
 21
-102.7055531081737
 31
0.0
  0
LINE
  5
233
330
22E
100
AcDbEntity
  8
0
100
AcDbLine
 10
-0.0000000000001137
 20
-90.5
 30
0.0
 11
-0.0000000000001137
 21
-96.39999999999993
 31
0.0
  0
LINE
  5
234
330
22E
100
AcDbEntity
  8
03-01
100
AcDbLine
 10
-1.200000000000159
 20
-0.0000000000000568
 30
0.0
 11
-1.200000000000045
 21
-20.50000000000006
 31
0.0
  0
LINE
  5
235
330
22E
100
AcDbEntity
  8
0
100
AcDbLine
 10
-3.300000000000068
 20
0.5
 30
0.0
 11
-3.300000000000068
 21
-20.50000000000006
 31
0.0
  0
ARC
  5
236
330
22E
100
AcDbEntity
  8
0
100
AcDbCircle
 10
-1.300000000000068
 20
0.5
 30
0.0
 40
2.0
100
AcDbArc
 50
90.0
 51
180.0
  0
LINE
  5
237
330
22E
100
AcDbEntity
  8
0
100
AcDbLine
 10
42.99999999999989
 20
-27.2820219666524
 30
0.0
 11
42.99999999999977
 21
-45.0
 31
0.0
  0
LINE
  5
238
330
22E
100
AcDbEntity
  8
0
100
AcDbLine
 10
42.99999999999966
 20
-93.00000000000006
 30
0.0
 11
42.99999999999977
 21
-96.15658297858965
 31
0.0
  0
LINE
  5
239
330
22E
100
AcDbEntity
  8
0
100
AcDbLine
 10
49.99999999999977
 20
-45.0
 30
0.0
 11
49.99999999999989
 21
-93.00000000000006
 31
0.0
  0
LINE
  5
23A
330
22E
100
AcDbEntity
  8
0
100
AcDbLine
 10
31.36940242224194
 20
-104.8999999999999
 30
0.0
 11
8.499999999999886
 21
-104.8999999999999
 31
0.0
  0
LINE
  5
23B
330
22E
100
AcDbEntity
  8
0
100
AcDbLine
 10
24.17361915066488
 20
14.60000000000013
 30
0.0
 11
5.999999999999658
 21
14.60000000000008
 31
0.0
  0
LINE
  5
23C
330
22E
100
AcDbEntity
  8
03-01
100
AcDbLine
 10
22.33680957533227
 20
11.60000000000019
 30
0.0
 11
7.836809575332267
 21
11.60000000000013
 31
0.0
  0
LINE
  5
23D
330
22E
100
AcDbEntity
  8
03-01
100
AcDbLine
 10
22.33680957533227
 20
3.100000000000136
 30
0.0
 11
7.836809575332267
 21
3.100000000000079
 31
0.0
  0
ARC
  5
23E
330
22E
100
AcDbEntity
  8
0
100
AcDbCircle
 10
5.999999999999658
 20
8.600000000000079
 30
0.0
 40
6.0
100
AcDbArc
 50
90.0
 51
180.0000000000032
  0
LINE
  5
23F
330
22E
100
AcDbEntity
  8
03-01
100
AcDbLine
 10
2.79999999999984
 20
-65.39999999999986
 30
0.0
 11
-0.0000000000001137
 21
-65.39999999999986
 31
0.0
  0
ARC
  5
240
330
22E
100
AcDbEntity
  8
0
100
AcDbCircle
 10
8.499999999999886
 20
-96.39999999999993
 30
0.0
 40
8.5
100
AcDbArc
 50
180.0
 51
270.0
  0
LINE
  5
241
330
22E
100
AcDbEntity
  8
0
100
AcDbLine
 10
25.00728896843054
 20
7.5
 30
0.0
 11
2.499999999999886
 21
7.5
 31
0.0
  0
ARC
  5
242
330
22E
100
AcDbEntity
  8
0
100
AcDbCircle
 10
25.00728896843054
 20
-1.0
 30
0.0
 40
8.5
100
AcDbArc
 50
20.00000000000065
 51
90.0
  0
LINE
  5
243
330
22E
100
AcDbEntity
  8
0
100
AcDbLine
 10
49.99999999999977
 20
-45.0
 30
0.0
 11
42.99999999999977
 21
-45.0
 31
0.0
  0
LINE
  5
244
330
22E
100
AcDbEntity
  8
0
100
AcDbLine
 10
49.99999999999989
 20
-93.00000000000006
 30
0.0
 11
42.99999999999966
 21
-93.00000000000006
 31
0.0
  0
LINE
  5
245
330
22E
100
AcDbEntity
  8
03-01
100
AcDbLine
 10
47.49999999999988
 20
-90.50000000000006
 30
0.0
 11
42.99999999999966
 21
-90.50000000000006
 31
0.0
  0
ARC
  5
246
330
22E
100
AcDbEntity
  8
0
100
AcDbCircle
 10
2.499999999999886
 20
5.0
 30
0.0
 40
2.5
100
AcDbArc
 50
90.0
 51
180.0
  0
LINE
  5
247
330
22E
100
AcDbEntity
  8
0
100
AcDbLine
 10
-0.0000000000001137
 20
2.5
 30
0.0
 11
-1.300000000000068
 21
2.5
 31
0.0
  0
LINE
  5
248
330
22E
100
AcDbEntity
  8
03-01
100
AcDbLine
 10
-0.0000000000001137
 20
0.0
 30
0.0
 11
-1.200000000000159
 21
-0.0000000000000568
 31
0.0
  0
LINE
  5
249
330
22E
100
AcDbEntity
  8
0
100
AcDbLine
 10
-0.0000000000001137
 20
-20.5
 30
0.0
 11
-3.300000000000068
 21
-20.50000000000006
 31
0.0
  0
LINE
  5
24A
330
22E
100
AcDbEntity
  8
0
100
AcDbLine
 10
-3.300000000000068
 20
-69.5
 30
0.0
 11
-3.300000000000068
 21
-90.50000000000006
 31
0.0
  0
ARC
  5
24B
330
22E
100
AcDbEntity
  8
0
100
AcDbCircle
 10
-1.300000000000068
 20
-69.5
 30
0.0
 40
2.0
100
AcDbArc
 50
90.0
 51
180.0
  0
LINE
  5
24C
330
22E
100
AcDbEntity
  8
0
100
AcDbLine
 10
-0.0000000000001137
 20
-67.5
 30
0.0
 11
-1.300000000000068
 21
-67.5
 31
0.0
  0
LINE
  5
24D
330
22E
100
AcDbEntity
  8
0
100
AcDbLine
 10
-0.0000000000001137
 20
-90.5
 30
0.0
 11
-3.300000000000068
 21
-90.50000000000006
 31
0.0
  0
LINE
  5
24E
330
22E
100
AcDbEntity
  8
03-01
100
AcDbLine
 10
-1.200000000000159
 20
-70.00000000000006
 30
0.0
 11
-1.200000000000045
 21
-90.50000000000006
 31
0.0
  0
LINE
  5
24F
330
22E
100
AcDbEntity
  8
03-01
100
AcDbLine
 10
-0.0000000000001137
 20
-70.0
 30
0.0
 11
-1.200000000000159
 21
-70.00000000000006
 31
0.0
  0
LINE
  5
250
330
22E
100
AcDbEntity
  8
03-01
100
AcDbLine
 10
48.19999999999982
 20
-45.0
 30
0.0
 11
47.49999999999988
 21
-90.50000000000006
 31
0.0
  0
LINE
  5
251
330
22E
100
AcDbEntity
  8
03-01
100
AcDbLine
 10
0.0
 20
2.5
 30
0.0
 11
-0.0000000000002274
 21
-20.49999999999994
 31
0.0
  0
LINE
  5
252
330
22E
100
AcDbEntity
  8
03-01
100
AcDbLine
 10
-0.0000000000001137
 20
-67.5
 30
0.0
 11
-0.0000000000001137
 21
-90.5
 31
0.0
  0
LINE
  5
253
330
22E
100
AcDbEntity
  8
03-01
100
AcDbLine
 10
42.99999999999977
 20
-45.0
 30
0.0
 11
42.99999999999977
 21
-93.00000000000006
 31
0.0
  0
ARC
  5
254
330
22E
100
AcDbEntity
  8
0
100
AcDbCircle
 10
16.7755654402124
 20
-102.3
 30
0.0
 40
1.0
100
AcDbArc
 50
270.0
 51
305.9497089065583
  0
ARC
  5
255
330
22E
100
AcDbEntity
  8
0
100
AcDbCircle
 10
40.5999999999999
 20
-85.02246509265711
 30
0.0
 40
1.000000000000005
100
AcDbArc
 50
305.9497089065583
 51
0.0
  0
LINE
  5
256
330
22E
100
AcDbEntity
  8
0
100
AcDbLine
 10
8.899999999999863
 20
-103.3
 30
0.0
 11
16.7755654402124
 21
-103.3
 31
0.0
  0
ARC
  5
257
330
22E
100
AcDbEntity
  8
0
100
AcDbCircle
 10
8.899999999999863
 20
-95.80000000000001
 30
0.0
 40
7.500000000000014
100
AcDbArc
 50
180.0
 51
270.0
  0
LINE
  5
258
330
22E
100
AcDbEntity
  8
0
100
AcDbLine
 10
1.399999999999863
 20
3.900000000000034
 30
0.0
 11
1.399999999999863
 21
-95.80000000000001
 31
0.0
  0
ARC
  5
259
330
22E
100
AcDbEntity
  8
0
100
AcDbCircle
 10
3.399999999999863
 20
3.900000000000034
 30
0.0
 40
2.0
100
AcDbArc
 50
90.0
 51
180.0
  0
LINE
  5
25A
330
22E
100
AcDbEntity
  8
0
100
AcDbLine
 10
24.79999999999995
 20
5.900000000000034
 30
0.0
 11
3.399999999999863
 21
5.900000000000034
 31
0.0
  0
ARC
  5
25B
330
22E
100
AcDbEntity
  8
0
100
AcDbCircle
 10
24.79999999999995
 20
-1.599999999999965
 30
0.0
 40
7.500000000000028
100
AcDbArc
 50
20.00000000001707
 51
90.0
  0
LINE
  5
25C
330
22E
100
AcDbEntity
  8
0
100
AcDbLine
 10
41.1030671952758
 20
-24.46377598564897
 30
0.0
 11
31.8476946558942
 21
0.9651510749426392
 31
0.0
  0
LINE
  5
25D
330
22E
100
AcDbEntity
  8
0
100
AcDbLine
 10
42.41863686437603
 20
-23.98494778499304
 30
0.0
 11
29.81177487538037
 21
10.65212085995415
 31
0.0
  0
ARC
  5
25E
330
22E
100
AcDbEntity
  8
0
100
AcDbCircle
 10
24.17361915066488
 20
8.600000000000136
 30
0.0
 40
6.0
100
AcDbArc
 50
20.00000000000065
 51
90.0
  0
ARC
  5
25F
330
22E
100
AcDbEntity
  8
0
100
AcDbCircle
 10
33.3599999999999
 20
-27.2820219666524
 30
0.0
 40
8.23999999999998
100
AcDbArc
 50
0.0
 51
20.00000000001707
  0
ARC
  5
260
330
22E
100
AcDbEntity
  8
0
100
AcDbCircle
 10
33.3599999999999
 20
-27.2820219666524
 30
0.0
 40
9.639999999999981
100
AcDbArc
 50
0.0
 51
20.00000000001707
  0
LINE
  5
261
330
22E
100
AcDbEntity
  8
0
100
AcDbLine
 10
41.59999999999991
 20
-85.02246509265711
 30
0.0
 11
41.59999999999991
 21
-27.2820219666524
 31
0.0
  0
LINE
  5
262
330
22E
100
AcDbEntity
  8
0
100
AcDbLine
 10
17.36264035541512
 20
-103.1095326083237
 30
0.0
 11
41.18707491520285
 21
-85.83199770098081
 31
0.0
  0
CIRCLE
  5
263
330
22E
100
AcDbEntity
  8
0
100
AcDbCircle
 10
21.51766465965579
 20
-13.60883232982866
 30
0.0
 40
1.75
  0
CIRCLE
  5
264
330
22E
100
AcDbEntity
  8
0
100
AcDbCircle
 10
21.51766465965488
 20
-83.60883232982866
 30
0.0
 40
1.75
  0
LINE
  5
265
330
22E
100
AcDbEntity
  8
05-01
  6
Continuous
100
AcDbLine
 10
21.51766465965579
 20
-16.35883232982866
 30
0.0
 11
21.51766465965579
 21
-10.85883232982866
 31
0.0
  0
LINE
  5
266
330
22E
100
AcDbEntity
  8
05-01
  6
Continuous
100
AcDbLine
 10
18.76766465965579
 20
-13.60883232982866
 30
0.0
 11
24.2676646596558
 21
-13.60883232982866
 31
0.0
  0
LINE
  5
267
330
22E
100
AcDbEntity
  8
05-01
  6
Continuous
100
AcDbLine
 10
21.51766465965488
 20
-86.35883232982866
 30
0.0
 11
21.51766465965488
 21
-80.85883232982865
 31
0.0
  0
LINE
  5
268
330
22E
100
AcDbEntity
  8
05-01
  6
Continuous
100
AcDbLine
 10
18.76766465965488
 20
-83.60883232982866
 30
0.0
 11
24.26766465965489
 21
-83.60883232982866
 31
0.0
  0
ARC
  5
269
330
22E
100
AcDbEntity
  8
03-01
100
AcDbCircle
 10
7.836809575332267
 20
7.350000000000136
 30
0.0
 40
4.25
100
AcDbArc
 50
90.0
 51
270.0
  0
ARC
  5
26A
330
22E
100
AcDbEntity
  8
03-01
100
AcDbCircle
 10
22.33680957533227
 20
7.350000000000136
 30
0.0
 40
4.25
100
AcDbArc
 50
270.0
 51
90.0
  0
LINE
  5
26B
330
22E
100
AcDbEntity
  8
0
100
AcDbLine
 10
34.62971126714365
 20
-107.2924552718343
 30
0.0
 11
45.93049885575431
 21
-105.2998058666647
 31
0.0
  0
ARC
  5
26C
330
22E
100
AcDbEntity
  8
0
100
AcDbCircle
 10
34.57761641703382
 20
-106.9970130158991
 30
0.0
 40
0.3
100
AcDbArc
 50
215.0
 51
280.0000769541884
  0
LWPOLYLINE
  5
26D
330
22E
100
AcDbEntity
  8
0
100
AcDbPolyline
 90
        9
 70
     0
 43
0.0
 10
43.52176514692359
 20
-105.7245339446396
 10
43.81734085507446
 20
-105.672439485106
 10
44.10155442781501
 20
-105.6223119788498
 10
44.36348703928047
 20
-105.5761183791489
 10
44.59306550450378
 20
-105.5356468253465
 10
44.78147951192909
 20
-105.5024172358842
 10
44.92147964663558
 20
-105.4777409129471
 10
45.00769404001289
 20
-105.4625417285294
 10
45.03680345840507
 20
-105.4574157290788
  0
LINE
  5
26E
330
22E
100
AcDbEntity
  8
0
100
AcDbLine
 10
32.51655529494406
 20
-104.5383040885779
 30
0.0
 11
42.14715287270189
 21
-97.79488706716769
 31
0.0
  0
ARC
  5
26F
330
22E
100
AcDbEntity
  8
0
100
AcDbCircle
 10
40.99999999999977
 20
-96.15658297858971
 30
0.0
 40
2.0
100
AcDbArc
 50
304.9999999999974
 51
0.0
  0
ARC
  5
270
330
22E
100
AcDbEntity
  8
0
100
AcDbCircle
 10
31.36940242224194
 20
-102.8999999999999
 30
0.0
 40
2.0
100
AcDbArc
 50
270.0
 51
304.9999999999974
  0
LINE
  5
271
330
22E
100
AcDbEntity
  8
0
100
AcDbLine
 10
32.49851813927865
 20
-104.5507869933884
 30
0.0
 11
34.33187080374717
 21
-107.1690859468044
 31
0.0
  0
LINE
  5
272
330
22E
100
AcDbEntity
  8
0
100
AcDbLine
 10
41.50925962223914
 20
-98.2415447297147
 30
0.0
 11
46.12414961893114
 21
-104.8322906798243
 31
0.0
  0
ARC
  5
273
330
22E
100
AcDbEntity
  8
0
100
AcDbCircle
 10
45.87840400564448
 20
-105.0043636107296
 30
0.0
 40
0.3
100
AcDbArc
 50
280.0000769541884
 51
35.00000000000003
  0
ENDBLK
  5
274
330
22E
100
AcDbEntity
  8
0
100
AcDbBlockEnd
  0
BLOCK
  5
15E
330
15B
100
AcDbEntity
  8
0
100
AcDbBlockBegin
  2
e-modul vorderansicht
 70
     0
 10
0.0
 20
0.0
 30
0.0
  3
e-modul vorderansicht
  1

  0
LINE
  5
15F
330
15B
100
AcDbEntity
  8
05-01
100
AcDbLine
 10
149.7474353286316
 20
-181.0605591484591
 30
0.0
 11
149.7474353286316
 21
-220.5605591484601
 31
0.0
  0
LINE
  5
160
330
15B
100
AcDbEntity
  8
05-01
100
AcDbLine
 10
138.747435328632
 20
-181.0605591484591
 30
0.0
 11
138.7474353286311
 21
-220.5605591484601
 31
0.0
  0
LINE
  5
161
330
15B
100
AcDbEntity
  8
05-01
100
AcDbLine
 10
184.7474353286311
 20
-101.06055914846
 30
0.0
 11
184.7474353286311
 21
-220.5605591484601
 31
0.0
  0
LINE
  5
162
330
15B
100
AcDbEntity
  8
05-01
100
AcDbLine
 10
109.2474353286316
 20
-108.5605591484601
 30
0.0
 11
109.2474353286316
 21
-220.5605591484601
 31
0.0
  0
LINE
  5
163
330
15B
100
AcDbEntity
  8
05-01
100
AcDbLine
 10
109.2474353286316
 20
-183.5605591484601
 30
0.0
 11
109.2474353286316
 21
-206.56055914846
 31
0.0
  0
LINE
  5
164
330
15B
100
AcDbEntity
  8
05-01
100
AcDbLine
 10
114.8474353286315
 20
-183.5605591484601
 30
0.0
 11
114.8474353286315
 21
-206.56055914846
 31
0.0
  0
LINE
  5
165
330
15B
100
AcDbEntity
  8
05-01
100
AcDbLine
 10
112.3474353286315
 20
-186.0605591484601
 30
0.0
 11
112.3474353286315
 21
-206.56055914846
 31
0.0
  0
LINE
  5
166
330
15B
100
AcDbEntity
  8
05-01
100
AcDbLine
 10
109.2474353286316
 20
-220.5605591484601
 30
0.0
 11
184.7474353286311
 21
-220.5605591484601
 31
0.0
  0
LINE
  5
167
330
15B
100
AcDbEntity
  8
05-01
100
AcDbLine
 10
138.747435328632
 20
-181.0605591484591
 30
0.0
 11
149.7474353286316
 21
-181.0605591484591
 31
0.0
  0
LINE
  5
168
330
15B
100
AcDbEntity
  8
05-01
100
AcDbLine
 10
109.2474353286316
 20
-108.5605591484601
 30
0.0
 11
184.7474353286311
 21
-108.5605591484601
 31
0.0
  0
LINE
  5
169
330
15B
100
AcDbEntity
  8
05-01
100
AcDbLine
 10
109.2474353286316
 20
-206.56055914846
 30
0.0
 11
114.8474353286315
 21
-206.56055914846
 31
0.0
  0
LINE
  5
16A
330
15B
100
AcDbEntity
  8
05-01
100
AcDbLine
 10
109.2474353286316
 20
-183.5605591484601
 30
0.0
 11
114.8474353286315
 21
-183.5605591484601
 31
0.0
  0
LINE
  5
16B
330
15B
100
AcDbEntity
  8
05-01
100
AcDbLine
 10
161.8474353286315
 20
-183.5605591484601
 30
0.0
 11
161.8474353286315
 21
-206.56055914846
 31
0.0
  0
LINE
  5
16C
330
15B
100
AcDbEntity
  8
05-01
100
AcDbLine
 10
164.3474353286315
 20
-186.0605591484601
 30
0.0
 11
164.3474353286315
 21
-206.56055914846
 31
0.0
  0
LINE
  5
16D
330
15B
100
AcDbEntity
  8
05-01
100
AcDbLine
 10
166.8474353286315
 20
-206.56055914846
 30
0.0
 11
161.8474353286315
 21
-206.56055914846
 31
0.0
  0
LINE
  5
16E
330
15B
100
AcDbEntity
  8
05-01
100
AcDbLine
 10
164.3474353286315
 20
-186.0605591484601
 30
0.0
 11
161.8474353286315
 21
-186.0605591484601
 31
0.0
  0
LINE
  5
16F
330
15B
100
AcDbEntity
  8
05-01
100
AcDbLine
 10
166.8474353286315
 20
-183.5605591484601
 30
0.0
 11
161.8474353286315
 21
-183.5605591484601
 31
0.0
  0
LINE
  5
170
330
15B
100
AcDbEntity
  8
05-01
100
AcDbLine
 10
109.2474353286316
 20
-113.5605591484601
 30
0.0
 11
109.2474353286316
 21
-136.5605591484601
 31
0.0
  0
LINE
  5
171
330
15B
100
AcDbEntity
  8
05-01
100
AcDbLine
 10
114.8474353286315
 20
-113.5605591484601
 30
0.0
 11
114.8474353286315
 21
-136.5605591484601
 31
0.0
  0
LINE
  5
172
330
15B
100
AcDbEntity
  8
05-01
100
AcDbLine
 10
112.3474353286315
 20
-116.06055914846
 30
0.0
 11
112.3474353286315
 21
-136.5605591484601
 31
0.0
  0
LINE
  5
173
330
15B
100
AcDbEntity
  8
05-01
100
AcDbLine
 10
109.2474353286316
 20
-136.5605591484601
 30
0.0
 11
114.8474353286315
 21
-136.5605591484601
 31
0.0
  0
LINE
  5
174
330
15B
100
AcDbEntity
  8
05-01
100
AcDbLine
 10
112.3474353286315
 20
-116.06055914846
 30
0.0
 11
114.8474353286315
 21
-116.06055914846
 31
0.0
  0
LINE
  5
175
330
15B
100
AcDbEntity
  8
05-01
100
AcDbLine
 10
109.2474353286316
 20
-113.5605591484601
 30
0.0
 11
114.8474353286315
 21
-113.5605591484601
 31
0.0
  0
LINE
  5
176
330
15B
100
AcDbEntity
  8
05-01
100
AcDbLine
 10
166.8474353286315
 20
-108.5605591484601
 30
0.0
 11
166.8474353286315
 21
-220.5605591484601
 31
0.0
  0
LINE
  5
177
330
15B
100
AcDbEntity
  8
05-01
100
AcDbLine
 10
161.8474353286315
 20
-113.5605591484601
 30
0.0
 11
161.8474353286315
 21
-136.5605591484601
 31
0.0
  0
LINE
  5
178
330
15B
100
AcDbEntity
  8
05-01
100
AcDbLine
 10
164.3474353286315
 20
-116.06055914846
 30
0.0
 11
164.3474353286315
 21
-136.5605591484601
 31
0.0
  0
LINE
  5
179
330
15B
100
AcDbEntity
  8
05-01
100
AcDbLine
 10
166.8474353286315
 20
-136.5605591484601
 30
0.0
 11
161.8474353286315
 21
-136.5605591484601
 31
0.0
  0
LINE
  5
17A
330
15B
100
AcDbEntity
  8
05-01
100
AcDbLine
 10
164.3474353286315
 20
-116.06055914846
 30
0.0
 11
161.8474353286315
 21
-116.06055914846
 31
0.0
  0
LINE
  5
17B
330
15B
100
AcDbEntity
  8
05-01
100
AcDbLine
 10
166.8474353286315
 20
-113.5605591484601
 30
0.0
 11
161.8474353286315
 21
-113.5605591484601
 31
0.0
  0
LINE
  5
17C
330
15B
100
AcDbEntity
  8
05-01
100
AcDbLine
 10
184.7474353286311
 20
-101.06055914846
 30
0.0
 11
181.7474353286311
 21
-101.06055914846
 31
0.0
  0
LINE
  5
17D
330
15B
100
AcDbEntity
  8
05-01
100
AcDbLine
 10
181.7474353286311
 20
-101.06055914846
 30
0.0
 11
181.7474353286311
 21
-108.5605591484601
 31
0.0
  0
ENDBLK
  5
17E
330
15B
100
AcDbEntity
  8
0
100
AcDbBlockEnd
  0
BLOCK
  5
454
330
453
100
AcDbEntity
  8
0
100
AcDbBlockBegin
  2
schloss-024454-D
 70
     0
 10
0.0
 20
0.0
 30
0.0
  3
schloss-024454-D
  1

  0
LINE
  5
455
330
453
100
AcDbEntity
  8
0
100
AcDbLine
 10
7.249999999999985
 20
-3.300000000000011
 30
0.0
 11
-7.25
 21
-3.300000000000011
 31
0.0
  0
LINE
  5
456
330
453
100
AcDbEntity
  8
0
100
AcDbLine
 10
7.249999999999985
 20
-3.300000000000011
 30
0.0
 11
8.499999999999985
 21
-1.800000000000011
 31
0.0
  0
LINE
  5
457
330
453
100
AcDbEntity
  8
0
100
AcDbLine
 10
-7.25
 20
-3.300000000000011
 30
0.0
 11
-8.5
 21
-1.800000000000011
 31
0.0
  0
LINE
  5
458
330
453
100
AcDbEntity
  8
0
100
AcDbLine
 10
-8.5
 20
-1.800000000000011
 30
0.0
 11
8.499999999999985
 21
-1.800000000000011
 31
0.0
  0
LINE
  5
459
330
453
100
AcDbEntity
  8
0
100
AcDbLine
 10
8.499999999999985
 20
-1.800000000000011
 30
0.0
 11
8.499999999999985
 21
0.0
 31
0.0
  0
LINE
  5
45A
330
453
100
AcDbEntity
  8
0
100
AcDbLine
 10
8.499999999999985
 20
0.0
 30
0.0
 11
-8.5
 21
0.0
 31
0.0
  0
LINE
  5
45B
330
453
100
AcDbEntity
  8
0
100
AcDbLine
 10
-8.5
 20
0.0
 30
0.0
 11
-8.5
 21
-1.800000000000011
 31
0.0
  0
LINE
  5
45C
330
453
100
AcDbEntity
  8
0
100
AcDbLine
 10
6.750000000000014
 20
7.850000000000022
 30
0.0
 11
-6.75
 21
7.850000000000022
 31
0.0
  0
LINE
  5
45D
330
453
100
AcDbEntity
  8
0
100
AcDbLine
 10
-6.75
 20
7.850000000000022
 30
0.0
 11
-6.75
 21
9.850000000000022
 31
0.0
  0
LINE
  5
45E
330
453
100
AcDbEntity
  8
0
100
AcDbLine
 10
-5.800000000000011
 20
10.85000000000002
 30
0.0
 11
5.800000000000011
 21
10.85000000000002
 31
0.0
  0
LINE
  5
45F
330
453
100
AcDbEntity
  8
0
100
AcDbLine
 10
-3.5
 20
12.85000000000002
 30
0.0
 11
3.5
 21
12.84999999999999
 31
0.0
  0
LINE
  5
460
330
453
100
AcDbEntity
  8
0
100
AcDbLine
 10
5.800000000000011
 20
9.850000000000022
 30
0.0
 11
5.800000000000011
 21
10.85000000000002
 31
0.0
  0
LINE
  5
461
330
453
100
AcDbEntity
  8
0
100
AcDbLine
 10
-5.800000000000011
 20
9.850000000000022
 30
0.0
 11
-5.800000000000011
 21
10.85000000000002
 31
0.0
  0
LINE
  5
462
330
453
100
AcDbEntity
  8
0
100
AcDbLine
 10
3.5
 20
10.85000000000002
 30
0.0
 11
3.5
 21
12.85000000000002
 31
0.0
  0
LINE
  5
463
330
453
100
AcDbEntity
  8
0
100
AcDbLine
 10
-3.5
 20
10.85000000000002
 30
0.0
 11
-3.5
 21
12.85000000000002
 31
0.0
  0
LINE
  5
464
330
453
100
AcDbEntity
  8
0
100
AcDbLine
 10
9.499999999999985
 20
1.0
 30
0.0
 11
-9.5
 21
1.0
 31
0.0
  0
LINE
  5
465
330
453
100
AcDbEntity
  8
0
100
AcDbLine
 10
9.499999999999985
 20
4.099999999999994
 30
0.0
 11
-9.5
 21
4.099999999999994
 31
0.0
  0
LINE
  5
466
330
453
100
AcDbEntity
  8
0
100
AcDbLine
 10
9.499999999999985
 20
4.099999999999994
 30
0.0
 11
9.499999999999985
 21
1.0
 31
0.0
  0
LINE
  5
467
330
453
100
AcDbEntity
  8
0
100
AcDbLine
 10
-9.5
 20
4.099999999999994
 30
0.0
 11
-9.5
 21
1.0
 31
0.0
  0
LINE
  5
468
330
453
100
AcDbEntity
  8
0
100
AcDbLine
 10
0.0
 20
4.099999999999994
 30
0.0
 11
0.0
 21
1.0
 31
0.0
  0
LINE
  5
469
330
453
100
AcDbEntity
  8
0
100
AcDbLine
 10
6.450000000000002
 20
7.850000000000022
 30
0.0
 11
6.449999999999988
 21
0.0
 31
0.0
  0
LINE
  5
46A
330
453
100
AcDbEntity
  8
0
100
AcDbLine
 10
-6.449999999999988
 20
0.0
 30
0.0
 11
-6.449999999999988
 21
7.850000000000022
 31
0.0
  0
LINE
  5
46B
330
453
100
AcDbEntity
  8
0
100
AcDbLine
 10
-6.75
 20
9.850000000000022
 30
0.0
 11
6.750000000000014
 21
9.850000000000022
 31
0.0
  0
LINE
  5
46C
330
453
100
AcDbEntity
  8
0
100
AcDbLine
 10
6.750000000000014
 20
7.850000000000022
 30
0.0
 11
6.750000000000014
 21
9.850000000000022
 31
0.0
  0
LINE
  5
46D
330
453
100
AcDbEntity
  8
05-01
100
AcDbLine
 10
0.0
 20
14.84999999999999
 30
0.0
 11
0.0
 21
-5.300000000000011
 31
0.0
  0
ENDBLK
  5
46E
330
453
100
AcDbEntity
  8
0
100
AcDbBlockEnd
  0
BLOCK
  5
2FB
330
2FA
100
AcDbEntity
  8
0
100
AcDbBlockBegin
  2
schloss-024454-V
 70
     0
 10
0.0
 20
0.0
 30
0.0
  3
schloss-024454-V
  1

  0
CIRCLE
  5
2FC
330
2FA
100
AcDbEntity
  8
0
100
AcDbCircle
 10
0.0
 20
0.0
 30
0.0
 40
7.25
  0
CIRCLE
  5
2FD
330
2FA
100
AcDbEntity
  8
0
100
AcDbCircle
 10
0.0
 20
0.0
 30
0.0
 40
6.75
  0
ARC
  5
2FE
330
2FA
100
AcDbEntity
  8
0
100
AcDbCircle
 10
0.0
 20
0.8335449644247887
 30
0.0
 40
2.5
100
AcDbArc
 50
119.9999999999997
 51
240.0000000000003
  0
ARC
  5
2FF
330
2FA
100
AcDbEntity
  8
0
100
AcDbCircle
 10
0.0
 20
0.8335449644247887
 30
0.0
 40
2.5
100
AcDbArc
 50
299.9999999999997
 51
60.00000000000028
  0
LWPOLYLINE
  5
300
330
2FA
100
AcDbEntity
  8
0
100
AcDbPolyline
 90
        2
 70
     0
 43
0.0
 10
1.25
 20
-3.195428162044066
 10
1.25
 20
-1.331518545036317
  0
LWPOLYLINE
  5
301
330
2FA
100
AcDbEntity
  8
0
100
AcDbPolyline
 90
        2
 70
     0
 43
0.0
 10
1.25
 20
2.99860847388588
 10
1.25
 20
4.800000000000011
  0
LWPOLYLINE
  5
302
330
2FA
100
AcDbEntity
  8
0
100
AcDbPolyline
 90
        2
 70
     0
 43
0.0
 10
-1.25
 20
-3.195428162044066
 10
-1.25
 20
-1.331518545036317
  0
LWPOLYLINE
  5
303
330
2FA
100
AcDbEntity
  8
0
100
AcDbPolyline
 90
        2
 70
     0
 43
0.0
 10
-1.25
 20
2.99860847388588
 10
-1.25
 20
4.800000000000011
  0
LINE
  5
304
330
2FA
100
AcDbEntity
  8
0
100
AcDbLine
 10
-1.25
 20
4.800000000000011
 30
0.0
 11
1.25
 21
4.800000000000011
 31
0.0
  0
LINE
  5
305
330
2FA
100
AcDbEntity
  8
0
100
AcDbLine
 10
-1.25
 20
-3.195428162044066
 30
0.0
 11
1.25
 21
-3.195428162044066
 31
0.0
  0
CIRCLE
  5
306
330
2FA
100
AcDbEntity
  8
0
100
AcDbCircle
 10
0.0
 20
0.0
 30
0.0
 40
5.799999999999999
  0
LINE
  5
307
330
2FA
100
AcDbEntity
  8
03-01
100
AcDbLine
 10
-6.450000000000017
 20
-4.386057455164035
 30
0.0
 11
-6.450000000000017
 21
4.386057455164035
 31
0.0
  0
LINE
  5
308
330
2FA
100
AcDbEntity
  8
03-01
100
AcDbLine
 10
6.449999999999988
 20
4.386057455164035
 30
0.0
 11
6.449999999999988
 21
-4.386057455164035
 31
0.0
  0
ARC
  5
309
330
2FA
100
AcDbEntity
  8
03-01
100
AcDbCircle
 10
0.0
 20
0.0
 30
0.0
 40
7.799999999999999
100
AcDbArc
 50
214.2160511312984
 51
325.783948868701
  0
ARC
  5
30A
330
2FA
100
AcDbEntity
  8
03-01
100
AcDbCircle
 10
0.0
 20
0.0
 30
0.0
 40
7.799999999999999
100
AcDbArc
 50
34.21605113129835
 51
145.7839488687016
  0
CIRCLE
  5
30B
330
2FA
100
AcDbEntity
  8
0
100
AcDbCircle
 10
0.0
 20
0.0
 30
0.0
 40
8.5
  0
LINE
  5
30C
330
2FA
100
AcDbEntity
  8
03-01
100
AcDbLine
 10
-6.299999999999982
 20
0.0
 30
0.0
 11
-6.300000000000011
 21
17.75
 31
0.0
  0
LINE
  5
30D
330
2FA
100
AcDbEntity
  8
03-01
100
AcDbLine
 10
6.299999999999997
 20
0.0
 30
0.0
 11
6.299999999999997
 21
9.75
 31
0.0
  0
LINE
  5
30E
330
2FA
100
AcDbEntity
  8
03-01
100
AcDbLine
 10
6.299999999999997
 20
15.75
 30
0.0
 11
6.299999999999997
 21
17.75
 31
0.0
  0
ARC
  5
30F
330
2FA
100
AcDbEntity
  8
03-01
100
AcDbCircle
 10
0.0
 20
0.0
 30
0.0
 40
6.299999999999999
100
AcDbArc
 50
180.0
 51
0.0
  0
LINE
  5
310
330
2FA
100
AcDbEntity
  8
05-01
100
AcDbLine
 10
-10.5
 20
0.0
 30
0.0
 11
10.5
 21
0.0
 31
0.0
  0
LINE
  5
311
330
2FA
100
AcDbEntity
  8
05-01
100
AcDbLine
 10
0.0
 20
-10.5
 30
0.0
 11
0.0000000000000284
 21
11.0
 31
0.0
  0
ARC
  5
312
330
2FA
100
AcDbEntity
  8
01-01
100
AcDbCircle
 10
0.0
 20
0.0000000000001137
 30
0.0
 40
8.05
100
AcDbArc
 50
35.54446660210409
 51
144.4555333978959
  0
LINE
  5
316
330
2FA
100
AcDbEntity
  8
01-01
100
AcDbLine
 10
6.550000000000181
 20
4.67974358271806
 30
0.0
 11
6.550000000000181
 21
-4.679743582717833
 31
0.0
  0
LINE
  5
317
330
2FA
100
AcDbEntity
  8
01-01
100
AcDbLine
 10
-6.550000000000181
 20
4.67974358271806
 30
0.0
 11
-6.550000000000181
 21
-4.67974358271806
 31
0.0
  0
ARC
  5
318
330
2FA
100
AcDbEntity
  8
01-01
100
AcDbCircle
 10
0.0
 20
0.0000000000001137
 30
0.0
 40
8.05
100
AcDbArc
 50
215.5444666021041
 51
324.4555333978959
  0
LWPOLYLINE
  5
319
330
2FA
100
AcDbEntity
  8
03-01
100
AcDbPolyline
 90
        6
 70
     1
 43
0.0
 10
-5.484827557301429
 20
9.5
 10
-10.96965511460288
 20
0.0
 10
-5.484827557301429
 20
-9.5
 10
5.484827557301429
 20
-9.5
 10
10.96965511460288
 20
-0.0000000000000142
 10
5.484827557301457
 20
9.5
  0
LINE
  5
31A
330
2FA
100
AcDbEntity
  8
03-01
100
AcDbLine
 10
6.299999999999997
 20
9.75
 30
0.0
 11
-3.700000000000017
 21
11.73412698412699
 31
0.0
  0
LINE
  5
31B
330
2FA
100
AcDbEntity
  8
03-01
100
AcDbLine
 10
6.299999999999997
 20
15.75
 30
0.0
 11
-3.700000000000017
 21
15.75
 31
0.0
  0
ARC
  5
31C
330
2FA
100
AcDbEntity
  8
03-01
100
AcDbCircle
 10
0.0
 20
-6.656249999999872
 30
0.0
 40
25.20624999999988
100
AcDbArc
 50
75.52615594806404
 51
104.4738440519359
  0
LINE
  5
31D
330
2FA
100
AcDbEntity
  8
03-01
100
AcDbLine
 10
-3.700000000000017
 20
11.73412698412699
 30
0.0
 11
-3.700000000000017
 21
15.75
 31
0.0
  0
ENDBLK
  5
31E
330
2FA
100
AcDbEntity
  8
0
100
AcDbBlockEnd
  0
BLOCK
  5
447
330
446
100
AcDbEntity
  8
0
100
AcDbBlockBegin
  2
*D7
 70
     1
 10
0.0
 20
0.0
 30
0.0
  3
*D7
  1

  0
LINE
  5
448
330
446
100
AcDbEntity
  8
09-01
 62
     4
370
    -2
100
AcDbLine
 10
355.5010104937962
 20
1448.198570447701
 30
0.0
 11
370.9427720743888
 21
1448.198570447701
 31
0.0
  0
LINE
  5
449
330
446
100
AcDbEntity
  8
09-01
 62
     4
370
    -2
100
AcDbLine
 10
355.501010493831
 20
1206.986552042437
 30
0.0
 11
370.9427720743887
 21
1206.986552042437
 31
0.0
  0
LINE
  5
44A
330
446
100
AcDbEntity
  8
09-01
 62
     4
370
    -2
100
AcDbLine
 10
368.9427720743888
 20
1443.198570447701
 30
0.0
 11
368.9427720743887
 21
1211.986552042437
 31
0.0
  0
SOLID
  5
44B
330
446
100
AcDbEntity
  8
09-01
 62
     4
100
AcDbTrace
 10
368.1094387410555
 20
1443.198570447701
 30
0.0
 11
369.7761054077221
 21
1443.198570447701
 31
0.0
 12
368.9427720743888
 22
1448.198570447701
 32
0.0
 13
368.9427720743888
 23
1448.198570447701
 33
0.0
  0
SOLID
  5
44C
330
446
100
AcDbEntity
  8
09-01
 62
     4
100
AcDbTrace
 10
368.1094387410555
 20
1211.986552042437
 30
0.0
 11
369.7761054077221
 21
1211.986552042437
 31
0.0
 12
368.9427720743887
 22
1206.986552042437
 32
0.0
 13
368.9427720743887
 23
1206.986552042437
 33
0.0
  0
MTEXT
  5
44D
330
446
100
AcDbEntity
  8
09-01
 62
     1
100
AcDbMText
 10
364.4427720743885
 20
1327.592561245069
 30
0.0
 40
5.0
 41
0.0
 46
0.0
 71
     5
 72
     1
  1
241.2
 11
0.0000000000000001
 21
1.0
 31
0.0
 73
     1
 44
1.0
  0
POINT
  5
44E
330
446
100
AcDbEntity
  8
Defpoints
 62
     0
100
AcDbPoint
 10
353.5010104937962
 20
1448.198570447701
 30
0.0
  0
POINT
  5
44F
330
446
100
AcDbEntity
  8
Defpoints
 62
     0
100
AcDbPoint
 10
353.501010493831
 20
1206.986552042437
 30
0.0
  0
POINT
  5
450
330
446
100
AcDbEntity
  8
Defpoints
 62
     0
100
AcDbPoint
 10
368.9427720743887
 20
1206.986552042437
 30
0.0
  0
ENDBLK
  5
451
330
446
100
AcDbEntity
  8
0
100
AcDbBlockEnd
  0
BLOCK
  5
43A
330
439
100
AcDbEntity
  8
0
100
AcDbBlockBegin
  2
*D8
 70
     1
 10
0.0
 20
0.0
 30
0.0
  3
*D8
  1

  0
LINE
  5
43B
330
439
100
AcDbEntity
  8
09-01
 62
     4
370
    -2
100
AcDbLine
 10
234.2010104938326
 20
1185.698570447701
 30
0.0
 11
234.2010104938326
 21
1162.896518761325
 31
0.0
  0
LINE
  5
43C
330
439
100
AcDbEntity
  8
09-01
 62
     4
370
    -2
100
AcDbLine
 10
353.501010493831
 20
1204.986552042437
 30
0.0
 11
353.501010493831
 21
1162.896518761325
 31
0.0
  0
LINE
  5
43D
330
439
100
AcDbEntity
  8
09-01
 62
     4
370
    -2
100
AcDbLine
 10
239.2010104938326
 20
1164.896518761325
 30
0.0
 11
348.5010104938309
 21
1164.896518761325
 31
0.0
  0
SOLID
  5
43E
330
439
100
AcDbEntity
  8
09-01
 62
     4
100
AcDbTrace
 10
239.2010104938326
 20
1165.729852094658
 30
0.0
 11
239.2010104938326
 21
1164.063185427991
 31
0.0
 12
234.2010104938326
 22
1164.896518761325
 32
0.0
 13
234.2010104938326
 23
1164.896518761325
 33
0.0
  0
SOLID
  5
43F
330
439
100
AcDbEntity
  8
09-01
 62
     4
100
AcDbTrace
 10
348.5010104938309
 20
1165.729852094658
 30
0.0
 11
348.5010104938309
 21
1164.063185427991
 31
0.0
 12
353.501010493831
 22
1164.896518761325
 32
0.0
 13
353.501010493831
 23
1164.896518761325
 33
0.0
  0
MTEXT
  5
440
330
439
100
AcDbEntity
  8
09-01
 62
     1
100
AcDbMText
 10
293.8510104938318
 20
1169.396518761325
 30
0.0
 40
5.0
 41
0.0
 46
0.0
 71
     5
 72
     1
  1
119.3
 73
     1
 44
1.0
  0
POINT
  5
441
330
439
100
AcDbEntity
  8
Defpoints
 62
     0
100
AcDbPoint
 10
234.2010104938326
 20
1187.698570447701
 30
0.0
  0
POINT
  5
442
330
439
100
AcDbEntity
  8
Defpoints
 62
     0
100
AcDbPoint
 10
353.501010493831
 20
1206.986552042437
 30
0.0
  0
POINT
  5
443
330
439
100
AcDbEntity
  8
Defpoints
 62
     0
100
AcDbPoint
 10
353.501010493831
 20
1164.896518761325
 30
0.0
  0
ENDBLK
  5
444
330
439
100
AcDbEntity
  8
0
100
AcDbBlockEnd
  0
BLOCK
  5
3D5
330
3D4
100
AcDbEntity
  8
0
100
AcDbBlockBegin
  2
*D9
 70
     1
 10
0.0
 20
0.0
 30
0.0
  3
*D9
  1

  0
LINE
  5
3D6
330
3D4
100
AcDbEntity
  8
09-01
 62
     4
370
    -2
100
AcDbLine
 10
237.2010104938326
 20
1187.698570447701
 30
0.0
 11
217.0166145665861
 21
1187.698570447701
 31
0.0
  0
LINE
  5
3D7
330
3D4
100
AcDbEntity
  8
09-01
 62
     4
370
    -2
100
AcDbLine
 10
232.2010104937965
 20
1448.198570447701
 30
0.0
 11
217.0166145665862
 21
1448.198570447701
 31
0.0
  0
LINE
  5
3D8
330
3D4
100
AcDbEntity
  8
09-01
 62
     4
370
    -2
100
AcDbLine
 10
219.0166145665861
 20
1192.698570447701
 30
0.0
 11
219.0166145665862
 21
1443.198570447701
 31
0.0
  0
SOLID
  5
3D9
330
3D4
100
AcDbEntity
  8
09-01
 62
     4
100
AcDbTrace
 10
218.1832812332527
 20
1192.698570447701
 30
0.0
 11
219.8499478999194
 21
1192.698570447701
 31
0.0
 12
219.0166145665861
 22
1187.698570447701
 32
0.0
 13
219.0166145665861
 23
1187.698570447701
 33
0.0
  0
SOLID
  5
3DA
330
3D4
100
AcDbEntity
  8
09-01
 62
     4
100
AcDbTrace
 10
218.1832812332528
 20
1443.198570447701
 30
0.0
 11
219.8499478999195
 21
1443.198570447701
 31
0.0
 12
219.0166145665862
 22
1448.198570447701
 32
0.0
 13
219.0166145665862
 23
1448.198570447701
 33
0.0
  0
MTEXT
  5
3DB
330
3D4
100
AcDbEntity
  8
09-01
 62
     1
100
AcDbMText
 10
214.5166145665859
 20
1317.948570447701
 30
0.0
 40
5.0
 41
0.0
 46
0.0
 71
     5
 72
     1
  1
260.5
 11
0.0000000000000001
 21
1.0
 31
0.0
 73
     1
 44
1.0
  0
POINT
  5
3DC
330
3D4
100
AcDbEntity
  8
Defpoints
 62
     0
100
AcDbPoint
 10
239.2010104938326
 20
1187.698570447701
 30
0.0
  0
POINT
  5
3DD
330
3D4
100
AcDbEntity
  8
Defpoints
 62
     0
100
AcDbPoint
 10
234.2010104937965
 20
1448.198570447701
 30
0.0
  0
POINT
  5
3DE
330
3D4
100
AcDbEntity
  8
Defpoints
 62
     0
100
AcDbPoint
 10
219.0166145665862
 20
1448.198570447701
 30
0.0
  0
ENDBLK
  5
3DF
330
3D4
100
AcDbEntity
  8
0
100
AcDbBlockEnd
  0
BLOCK
  5
342
330
341
100
AcDbEntity
  8
0
100
AcDbBlockBegin
  2
*D10
 70
     1
 10
0.0
 20
0.0
 30
0.0
  3
*D10
  1

  0
LINE
  5
343
330
341
100
AcDbEntity
  8
09-01
 62
     4
370
    -2
100
AcDbLine
 10
77.86641165351096
 20
1150.904570955457
 30
0.0
 11
77.86641165351096
 21
1160.868636420506
 31
0.0
  0
LINE
  5
344
330
341
100
AcDbEntity
  8
09-01
 62
     4
370
    -2
100
AcDbLine
 10
163.8664116535109
 20
1150.904570955457
 30
0.0
 11
163.8664116535109
 21
1160.868636420506
 31
0.0
  0
LINE
  5
345
330
341
100
AcDbEntity
  8
09-01
 62
     4
370
    -2
100
AcDbLine
 10
82.86641165351097
 20
1158.868636420506
 30
0.0
 11
158.8664116535109
 21
1158.868636420506
 31
0.0
  0
SOLID
  5
346
330
341
100
AcDbEntity
  8
09-01
 62
     4
100
AcDbTrace
 10
82.86641165351097
 20
1159.701969753839
 30
0.0
 11
82.86641165351097
 21
1158.035303087173
 31
0.0
 12
77.86641165351096
 22
1158.868636420506
 32
0.0
 13
77.86641165351096
 23
1158.868636420506
 33
0.0
  0
SOLID
  5
347
330
341
100
AcDbEntity
  8
09-01
 62
     4
100
AcDbTrace
 10
158.8664116535109
 20
1159.701969753839
 30
0.0
 11
158.8664116535109
 21
1158.035303087173
 31
0.0
 12
163.8664116535109
 22
1158.868636420506
 32
0.0
 13
163.8664116535109
 23
1158.868636420506
 33
0.0
  0
MTEXT
  5
348
330
341
100
AcDbEntity
  8
09-01
 62
     1
100
AcDbMText
 10
120.8664116535109
 20
1163.368636420506
 30
0.0
 40
5.0
 41
0.0
 46
0.0
 71
     5
 72
     1
  1
86
 73
     1
 44
1.0
  0
POINT
  5
349
330
341
100
AcDbEntity
  8
Defpoints
 62
     0
100
AcDbPoint
 10
77.86641165351096
 20
1148.904570955457
 30
0.0
  0
POINT
  5
34A
330
341
100
AcDbEntity
  8
Defpoints
 62
     0
100
AcDbPoint
 10
163.8664116535109
 20
1148.904570955457
 30
0.0
  0
POINT
  5
34B
330
341
100
AcDbEntity
  8
Defpoints
 62
     0
100
AcDbPoint
 10
163.8664116535109
 20
1158.868636420506
 30
0.0
  0
ENDBLK
  5
34C
330
341
100
AcDbEntity
  8
0
100
AcDbBlockEnd
  0
BLOCK
  5
335
330
334
100
AcDbEntity
  8
0
100
AcDbBlockBegin
  2
*D11
 70
     1
 10
0.0
 20
0.0
 30
0.0
  3
*D11
  1

  0
LINE
  5
336
330
334
100
AcDbEntity
  8
09-01
 62
     4
370
    -2
100
AcDbLine
 10
165.8664116535109
 20
1148.904570955457
 30
0.0
 11
178.3896998719931
 21
1148.904570955457
 31
0.0
  0
LINE
  5
337
330
334
100
AcDbEntity
  8
09-01
 62
     4
370
    -2
100
AcDbLine
 10
156.566411653511
 20
1029.604570955457
 30
0.0
 11
178.389699871993
 21
1029.604570955457
 31
0.0
  0
LINE
  5
338
330
334
100
AcDbEntity
  8
09-01
 62
     4
370
    -2
100
AcDbLine
 10
176.3896998719931
 20
1143.904570955457
 30
0.0
 11
176.389699871993
 21
1034.604570955457
 31
0.0
  0
SOLID
  5
339
330
334
100
AcDbEntity
  8
09-01
 62
     4
100
AcDbTrace
 10
175.5563665386597
 20
1143.904570955457
 30
0.0
 11
177.2230332053264
 21
1143.904570955457
 31
0.0
 12
176.3896998719931
 22
1148.904570955457
 32
0.0
 13
176.3896998719931
 23
1148.904570955457
 33
0.0
  0
SOLID
  5
33A
330
334
100
AcDbEntity
  8
09-01
 62
     4
100
AcDbTrace
 10
175.5563665386597
 20
1034.604570955457
 30
0.0
 11
177.2230332053264
 21
1034.604570955457
 31
0.0
 12
176.389699871993
 22
1029.604570955457
 32
0.0
 13
176.389699871993
 23
1029.604570955457
 33
0.0
  0
MTEXT
  5
33B
330
334
100
AcDbEntity
  8
09-01
 62
     1
100
AcDbMText
 10
171.8896998719929
 20
1089.254570955457
 30
0.0
 40
5.0
 41
0.0
 46
0.0
 71
     5
 72
     1
  1
119.3
 11
0.0000000000000001
 21
1.0
 31
0.0
 73
     1
 44
1.0
  0
POINT
  5
33C
330
334
100
AcDbEntity
  8
Defpoints
 62
     0
100
AcDbPoint
 10
163.8664116535109
 20
1148.904570955457
 30
0.0
  0
POINT
  5
33D
330
334
100
AcDbEntity
  8
Defpoints
 62
     0
100
AcDbPoint
 10
154.566411653511
 20
1029.604570955457
 30
0.0
  0
POINT
  5
33E
330
334
100
AcDbEntity
  8
Defpoints
 62
     0
100
AcDbPoint
 10
176.389699871993
 20
1029.604570955457
 30
0.0
  0
ENDBLK
  5
33F
330
334
100
AcDbEntity
  8
0
100
AcDbBlockEnd
  0
BLOCK
  5
181
330
180
100
AcDbEntity
  8
0
100
AcDbBlockBegin
  2
*D12
 70
     1
 10
0.0
 20
0.0
 30
0.0
  3
*D12
  1

  0
LINE
  5
182
330
180
100
AcDbEntity
  8
09-01
 62
     4
370
    -2
100
AcDbLine
 10
75.86641165351096
 20
1448.198570447701
 30
0.0
 11
63.21858524383783
 21
1448.198570447701
 31
0.0
  0
LINE
  5
183
330
180
100
AcDbEntity
  8
09-01
 62
     4
370
    -2
100
AcDbLine
 10
90.06641165350988
 20
1437.690374809012
 30
0.0
 11
63.21858524383783
 21
1437.690374809012
 31
0.0
  0
LINE
  5
184
330
180
100
AcDbEntity
  8
09-01
 62
     4
370
    -2
100
AcDbLine
 10
65.21858524383784
 20
1453.198570447701
 30
0.0
 11
65.21858524383784
 21
1458.198570447701
 31
0.0
  0
LINE
  5
185
330
180
100
AcDbEntity
  8
09-01
 62
     4
370
    -2
100
AcDbLine
 10
65.21858524383782
 20
1432.690374809012
 30
0.0
 11
65.21858524383782
 21
1427.690374809011
 31
0.0
  0
MTEXT
  5
186
330
180
100
AcDbEntity
  8
09-01
 62
     1
100
AcDbMText
 10
60.66572030522952
 20
1442.768853719826
 30
0.0
 40
5.0
 41
0.0
 46
0.0
 71
     5
 72
     1
  1
10.5
 11
0.0000000000000001
 21
1.0
 31
0.0
 73
     1
 44
1.0
  0
LINE
  5
187
330
180
100
AcDbEntity
  8
09-01
 62
     4
370
    -2
100
AcDbLine
 10
65.21858524383784
 20
1448.198570447701
 30
0.0
 11
65.21858524383782
 21
1437.690374809012
 31
0.0
  0
SOLID
  5
188
330
180
100
AcDbEntity
  8
09-01
 62
     4
100
AcDbTrace
 10
64.38525191050451
 20
1453.198570447701
 30
0.0
 11
66.05191857717116
 21
1453.198570447701
 31
0.0
 12
65.21858524383784
 22
1448.198570447701
 32
0.0
 13
65.21858524383784
 23
1448.198570447701
 33
0.0
  0
SOLID
  5
189
330
180
100
AcDbEntity
  8
09-01
 62
     4
100
AcDbTrace
 10
64.38525191050449
 20
1432.690374809012
 30
0.0
 11
66.05191857717115
 21
1432.690374809012
 31
0.0
 12
65.21858524383782
 22
1437.690374809012
 32
0.0
 13
65.21858524383782
 23
1437.690374809012
 33
0.0
  0
POINT
  5
18A
330
180
100
AcDbEntity
  8
Defpoints
 62
     0
100
AcDbPoint
 10
77.86641165351096
 20
1448.198570447701
 30
0.0
  0
POINT
  5
18B
330
180
100
AcDbEntity
  8
Defpoints
 62
     0
100
AcDbPoint
 10
92.06641165350987
 20
1437.690374809012
 30
0.0
  0
POINT
  5
18C
330
180
100
AcDbEntity
  8
Defpoints
 62
     0
100
AcDbPoint
 10
65.21858524383782
 20
1437.690374809012
 30
0.0
  0
ENDBLK
  5
18D
330
180
100
AcDbEntity
  8
0
100
AcDbBlockEnd
  0
BLOCK
  5
8B
330
8A
100
AcDbEntity
  8
0
100
AcDbBlockBegin
  2
*D13
 70
     1
 10
0.0
 20
0.0
 30
0.0
  3
*D13
  1

  0
LINE
  5
8C
330
8A
100
AcDbEntity
  8
09-01
 62
     4
370
    -2
100
AcDbLine
 10
88.06641165350987
 20
1437.690374809012
 30
0.0
 11
63.21858524383783
 21
1437.690374809012
 31
0.0
  0
LINE
  5
8D
330
8A
100
AcDbEntity
  8
09-01
 62
     4
370
    -2
100
AcDbLine
 10
112.0664116535099
 20
1232.690374809012
 30
0.0
 11
63.21858524383778
 21
1232.690374809012
 31
0.0
  0
LINE
  5
8E
330
8A
100
AcDbEntity
  8
09-01
 62
     4
370
    -2
100
AcDbLine
 10
65.21858524383782
 20
1432.690374809012
 30
0.0
 11
65.21858524383778
 21
1237.690374809012
 31
0.0
  0
SOLID
  5
8F
330
8A
100
AcDbEntity
  8
09-01
 62
     4
100
AcDbTrace
 10
64.38525191050449
 20
1432.690374809012
 30
0.0
 11
66.05191857717115
 21
1432.690374809012
 31
0.0
 12
65.21858524383782
 22
1437.690374809012
 32
0.0
 13
65.21858524383782
 23
1437.690374809012
 33
0.0
  0
SOLID
  5
90
330
8A
100
AcDbEntity
  8
09-01
 62
     4
100
AcDbTrace
 10
64.38525191050445
 20
1237.690374809012
 30
0.0
 11
66.05191857717111
 21
1237.690374809012
 31
0.0
 12
65.21858524383778
 22
1232.690374809012
 32
0.0
 13
65.21858524383778
 23
1232.690374809012
 33
0.0
  0
MTEXT
  5
91
330
8A
100
AcDbEntity
  8
09-01
 62
     1
100
AcDbMText
 10
60.7185852438376
 20
1335.190374809012
 30
0.0
 40
5.0
 41
0.0
 46
0.0
 71
     5
 72
     1
  1
205
 11
0.0000000000000001
 21
1.0
 31
0.0
 73
     1
 44
1.0
  0
POINT
  5
92
330
8A
100
AcDbEntity
  8
Defpoints
 62
     0
100
AcDbPoint
 10
90.06641165350988
 20
1437.690374809012
 30
0.0
  0
POINT
  5
93
330
8A
100
AcDbEntity
  8
Defpoints
 62
     0
100
AcDbPoint
 10
114.0664116535099
 20
1232.690374809012
 30
0.0
  0
POINT
  5
94
330
8A
100
AcDbEntity
  8
Defpoints
 62
     0
100
AcDbPoint
 10
65.21858524383778
 20
1232.690374809012
 30
0.0
  0
ENDBLK
  5
95
330
8A
100
AcDbEntity
  8
0
100
AcDbBlockEnd
  0
BLOCK
  5
7C
330
7B
100
AcDbEntity
  8
0
100
AcDbBlockBegin
  2
*D14
 70
     1
 10
0.0
 20
0.0
 30
0.0
  3
*D14
  1

  0
LINE
  5
7D
330
7B
100
AcDbEntity
  8
09-01
 62
     4
370
    -2
100
AcDbLine
 10
110.0664116535098
 20
1232.690374809012
 30
0.0
 11
63.21858524383778
 21
1232.690374809012
 31
0.0
  0
LINE
  5
7E
330
7B
100
AcDbEntity
  8
09-01
 62
     4
370
    -2
100
AcDbLine
 10
75.86641165351096
 20
1187.6985704477
 30
0.0
 11
63.21858524383777
 21
1187.6985704477
 31
0.0
  0
LINE
  5
7F
330
7B
100
AcDbEntity
  8
09-01
 62
     4
370
    -2
100
AcDbLine
 10
65.21858524383778
 20
1227.690374809011
 30
0.0
 11
65.21858524383778
 21
1192.6985704477
 31
0.0
  0
SOLID
  5
80
330
7B
100
AcDbEntity
  8
09-01
 62
     4
100
AcDbTrace
 10
64.38525191050445
 20
1227.690374809011
 30
0.0
 11
66.05191857717111
 21
1227.690374809011
 31
0.0
 12
65.21858524383778
 22
1232.690374809012
 32
0.0
 13
65.21858524383778
 23
1232.690374809012
 33
0.0
  0
SOLID
  5
81
330
7B
100
AcDbEntity
  8
09-01
 62
     4
100
AcDbTrace
 10
64.38525191050445
 20
1192.6985704477
 30
0.0
 11
66.05191857717111
 21
1192.6985704477
 31
0.0
 12
65.21858524383778
 22
1187.6985704477
 32
0.0
 13
65.21858524383778
 23
1187.6985704477
 33
0.0
  0
MTEXT
  5
82
330
7B
100
AcDbEntity
  8
09-01
 62
     1
100
AcDbMText
 10
60.71858524383758
 20
1210.194472628356
 30
0.0
 40
5.0
 41
0.0
 46
0.0
 71
     5
 72
     1
  1
45
 11
0.0000000000000001
 21
1.0
 31
0.0
 73
     1
 44
1.0
  0
POINT
  5
83
330
7B
100
AcDbEntity
  8
Defpoints
 62
     0
100
AcDbPoint
 10
112.0664116535099
 20
1232.690374809012
 30
0.0
  0
POINT
  5
85
330
7B
100
AcDbEntity
  8
Defpoints
 62
     0
100
AcDbPoint
 10
77.86641165351096
 20
1187.6985704477
 30
0.0
  0
POINT
  5
86
330
7B
100
AcDbEntity
  8
Defpoints
 62
     0
100
AcDbPoint
 10
65.21858524383778
 20
1187.6985704477
 30
0.0
  0
ENDBLK
  5
87
330
7B
100
AcDbEntity
  8
0
100
AcDbBlockEnd
  0
ENDSEC
  0
SECTION
  2
ENTITIES
  0
DIMENSION
  5
7A
330
2
100
AcDbEntity
  8
09-01
100
AcDbDimension
280
     0
  2
*D14
 10
65.21858524383778
 20
1187.6985704477
 30
0.0
 11
60.71858524383758
 21
1210.194472628356
 31
0.0
 71
     5
 42
44.99180436131155
 73
     0
 74
     0
 75
     0
  3
Wagner$0
100
AcDbAlignedDimension
 13
112.0664116535099
 23
1232.690374809012
 33
0.0
 14
77.86641165351096
 24
1187.6985704477
 34
0.0
 50
90.0
100
AcDbRotatedDimension
1001
ACAD
1000
DSTYLE
1002
{
1070
    40
1040
2.0
1070
   271
1070
     1
1002
}
  0
DIMENSION
  5
89
330
2
100
AcDbEntity
  8
09-01
100
AcDbDimension
280
     0
  2
*D13
 10
65.21858524383778
 20
1232.690374809012
 30
0.0
 11
60.7185852438376
 21
1335.190374809012
 31
0.0
 71
     5
 42
205.0
 73
     0
 74
     0
 75
     0
  3
Wagner$0
100
AcDbAlignedDimension
 13
90.06641165350988
 23
1437.690374809012
 33
0.0
 14
114.0664116535099
 24
1232.690374809012
 34
0.0
 50
90.0
100
AcDbRotatedDimension
1001
ACAD
1000
DSTYLE
1002
{
1070
    40
1040
2.0
1002
}
  0
ARC
  5
96
330
2
100
AcDbEntity
  8
03-01
100
AcDbCircle
 10
145.5664116535098
 20
1425.690374809011
 30
0.0
 40
6.25
100
AcDbArc
 50
113.5781784782928
 51
66.4218215217072
  0
LINE
  5
9B
330
2
100
AcDbEntity
  8
05-01
100
AcDbLine
 10
152.8164116535099
 20
1425.690374809011
 30
0.0
 11
138.3164116535098
 21
1425.690374809011
 31
0.0
  0
LINE
  5
A0
330
2
100
AcDbEntity
  8
05-01
100
AcDbLine
 10
149.0664116535098
 20
1437.690374809012
 30
0.0
 11
142.0664116535099
 21
1437.690374809012
 31
0.0
  0
LINE
  5
A1
330
2
100
AcDbEntity
  8
03-01
100
AcDbLine
 10
148.0664116535098
 20
1437.690374809012
 30
0.0
 11
148.0664116535098
 21
1431.418594427707
 31
0.0
  0
ARC
  5
A2
330
2
100
AcDbEntity
  8
03-01
100
AcDbCircle
 10
145.5664116535098
 20
1437.690374809012
 30
0.0
 40
2.5
100
AcDbArc
 50
0.0
 51
180.0
  0
LINE
  5
A3
330
2
100
AcDbEntity
  8
03-01
100
AcDbLine
 10
143.0664116535099
 20
1431.418594427707
 30
0.0
 11
143.0664116535099
 21
1437.690374809012
 31
0.0
  0
LINE
  5
A4
330
2
100
AcDbEntity
  8
05-01
100
AcDbLine
 10
145.5664116535098
 20
1441.190374809012
 30
0.0
 11
145.5664116535098
 21
1418.440374809011
 31
0.0
  0
ARC
  5
A5
330
2
100
AcDbEntity
  8
03-01
100
AcDbCircle
 10
95.56641165350987
 20
1425.690374809011
 30
0.0
 40
6.25
100
AcDbArc
 50
113.5781784781933
 51
66.42182152180672
  0
LINE
  5
A6
330
2
100
AcDbEntity
  8
05-01
100
AcDbLine
 10
88.31641165350987
 20
1425.690374809011
 30
0.0
 11
102.8164116535098
 21
1425.690374809011
 31
0.0
  0
LINE
  5
A7
330
2
100
AcDbEntity
  8
05-01
100
AcDbLine
 10
92.06641165350987
 20
1437.690374809012
 30
0.0
 11
99.06641165350988
 21
1437.690374809012
 31
0.0
  0
LINE
  5
A8
330
2
100
AcDbEntity
  8
03-01
100
AcDbLine
 10
93.06641165350987
 20
1437.690374809012
 30
0.0
 11
93.06641165350987
 21
1431.418594427707
 31
0.0
  0
ARC
  5
A9
330
2
100
AcDbEntity
  8
03-01
100
AcDbCircle
 10
95.56641165350987
 20
1437.690374809012
 30
0.0
 40
2.5
100
AcDbArc
 50
0.0
 51
180.0
  0
LINE
  5
AA
330
2
100
AcDbEntity
  8
03-01
100
AcDbLine
 10
98.06641165350988
 20
1431.418594427707
 30
0.0
 11
98.06641165350988
 21
1437.690374809012
 31
0.0
  0
LINE
  5
AB
330
2
100
AcDbEntity
  8
05-01
100
AcDbLine
 10
95.56641165350987
 20
1441.190374809012
 30
0.0
 11
95.56641165350987
 21
1418.440374809011
 31
0.0
  0
CIRCLE
  5
AC
330
2
100
AcDbEntity
  8
03-01
100
AcDbCircle
 10
117.5664116535117
 20
1395.690374809012
 30
0.0
 40
3.25
  0
LINE
  5
AD
330
2
100
AcDbEntity
  8
05-01
100
AcDbLine
 10
117.5664116535117
 20
1399.940374809012
 30
0.0
 11
117.5664116535117
 21
1391.440374809012
 31
0.0
  0
LINE
  5
AE
330
2
100
AcDbEntity
  8
05-01
100
AcDbLine
 10
113.3164116535117
 20
1395.690374809012
 30
0.0
 11
121.8164116535117
 21
1395.690374809012
 31
0.0
  0
ARC
  5
AF
330
2
100
AcDbEntity
  8
03-01
100
AcDbCircle
 10
117.5664116535098
 20
1232.690374809012
 30
0.0
 40
2.5
100
AcDbArc
 50
0.0
 51
180.0
  0
LINE
  5
B0
330
2
100
AcDbEntity
  8
05-01
100
AcDbLine
 10
110.3164116535098
 20
1220.690374809011
 30
0.0
 11
124.8164116535098
 21
1220.690374809011
 31
0.0
  0
LINE
  5
B1
330
2
100
AcDbEntity
  8
05-01
100
AcDbLine
 10
114.0664116535099
 20
1232.690374809012
 30
0.0
 11
121.0664116535099
 21
1232.690374809012
 31
0.0
  0
ARC
  5
B2
330
2
100
AcDbEntity
  8
03-01
100
AcDbCircle
 10
117.5664116535098
 20
1220.690374809011
 30
0.0
 40
6.25
100
AcDbArc
 50
113.5781784781791
 51
66.42182152182093
  0
LINE
  5
B3
330
2
100
AcDbEntity
  8
03-01
100
AcDbLine
 10
115.0664116535099
 20
1232.690374809012
 30
0.0
 11
115.0664116535099
 21
1226.418594427706
 31
0.0
  0
LINE
  5
B4
330
2
100
AcDbEntity
  8
03-01
100
AcDbLine
 10
120.0664116535099
 20
1226.418594427706
 30
0.0
 11
120.0664116535099
 21
1232.690374809012
 31
0.0
  0
LINE
  5
B5
330
2
100
AcDbEntity
  8
05-01
100
AcDbLine
 10
117.5664116535098
 20
1236.190374809012
 30
0.0
 11
117.5664116535098
 21
1213.440374809011
 31
0.0
  0
CIRCLE
  5
B6
330
2
100
AcDbEntity
  8
07-99
100
AcDbCircle
 10
269.6755628565865
 20
1208.530497656519
 30
0.0
 40
6.0
  0
ARC
  5
BA
330
2
100
AcDbEntity
  8
07-99
100
AcDbCircle
 10
272.321901850863
 20
1207.530497656519
 30
0.0
 40
0.9999999999999998
100
AcDbArc
 50
270.0
 51
0.0
  0
LINE
  5
BB
330
2
100
AcDbEntity
  8
07-99
100
AcDbLine
 10
273.321901850863
 20
1209.530497656519
 30
0.0
 11
273.321901850863
 21
1207.530497656519
 31
0.0
  0
ARC
  5
BC
330
2
100
AcDbEntity
  8
07-99
100
AcDbCircle
 10
272.3219018508632
 20
1209.530497656519
 30
0.0
 40
0.9999999999999998
100
AcDbArc
 50
0.0
 51
90.0
  0
ARC
  5
BD
330
2
100
AcDbEntity
  8
07-99
100
AcDbCircle
 10
275.794939090545
 20
1204.065762557181
 30
0.0
 40
1.425000000000008
100
AcDbArc
 50
323.8852762459501
 51
143.8852762459501
  0
ARC
  5
BE
330
2
100
AcDbEntity
  8
07-99
100
AcDbCircle
 10
275.794939090545
 20
1212.995232755857
 30
0.0
 40
1.425000000000008
100
AcDbArc
 50
216.1147237540498
 51
36.11472375404981
  0
LINE
  5
BF
330
2
100
AcDbEntity
  8
07-99
100
AcDbLine
 10
258.2199390905454
 20
1210.530497656519
 30
0.0
 11
258.2199390905459
 21
1206.530497656519
 31
0.0
  0
LINE
  5
C0
330
2
100
AcDbEntity
  8
07-99
100
AcDbLine
 10
265.0608984595214
 20
1210.530497656519
 30
0.0
 11
265.0608984595219
 21
1206.530497656519
 31
0.0
  0
LINE
  5
C1
330
2
100
AcDbEntity
  8
07-99
100
AcDbLine
 10
269.9901388828607
 20
1210.530497656519
 30
0.0
 11
269.9901388828607
 21
1206.530497656519
 31
0.0
  0
ARC
  5
C2
330
2
100
AcDbEntity
  8
07-99
100
AcDbCircle
 10
272.1850937935319
 20
1207.530497656519
 30
0.0
 40
0.9999999999999998
100
AcDbArc
 50
270.0
 51
0.0
  0
LINE
  5
C3
330
2
100
AcDbEntity
  8
07-99
100
AcDbLine
 10
273.1850937935321
 20
1209.530497656519
 30
0.0
 11
273.1850937935318
 21
1207.530497656519
 31
0.0
  0
LINE
  5
C4
330
2
100
AcDbEntity
  8
07-99
100
AcDbLine
 10
258.2199390905454
 20
1210.530497656519
 30
0.0
 11
258.2199390905454
 21
1211.530497656519
 31
0.0
  0
LINE
  5
C5
330
2
100
AcDbEntity
  8
07-99
100
AcDbLine
 10
258.2199390905454
 20
1205.530497656519
 30
0.0
 11
258.2199390905454
 21
1206.530497656519
 31
0.0
  0
LINE
  5
C6
330
2
100
AcDbEntity
  8
03-01
100
AcDbLine
 10
245.2199390905454
 20
1201.530497656519
 30
0.0
 11
245.2199390905454
 21
1215.530497656519
 31
0.0
  0
LINE
  5
C7
330
2
100
AcDbEntity
  8
07-99
100
AcDbLine
 10
246.2199390905454
 20
1201.530497656519
 30
0.0
 11
246.2199390905454
 21
1215.530497656519
 31
0.0
  0
ARC
  5
C8
330
2
100
AcDbEntity
  8
07-99
100
AcDbCircle
 10
269.6755628565865
 20
1208.530497656519
 30
0.0
 40
8.999999999999998
100
AcDbArc
 50
270.0
 51
323.8852762459501
  0
ARC
  5
C9
330
2
100
AcDbEntity
  8
07-99
100
AcDbCircle
 10
269.6755628565865
 20
1208.530497656519
 30
0.0
 40
8.999999999999998
100
AcDbArc
 50
36.11472375404981
 51
90.0
  0
ARC
  5
CA
330
2
100
AcDbEntity
  8
03-01
100
AcDbCircle
 10
246.2010104938328
 20
1218.983601669053
 30
0.0
 40
1.0
100
AcDbArc
 50
300.3135734442821
 51
0.0
  0
ARC
  5
CB
330
2
100
AcDbEntity
  8
03-01
100
AcDbCircle
 10
248.2199390905454
 20
1215.530497656519
 30
0.0
 40
3.0
100
AcDbArc
 50
120.3135734442821
 51
180.0
  0
ARC
  5
CC
330
2
100
AcDbEntity
  8
07-99
100
AcDbCircle
 10
248.2199390905454
 20
1215.530497656519
 30
0.0
 40
1.999999999999999
100
AcDbArc
 50
90.0
 51
180.0
  0
LINE
  5
CD
330
2
100
AcDbEntity
  8
07-99
100
AcDbLine
 10
248.2199390905454
 20
1217.530497656519
 30
0.0
 11
269.6755628565867
 21
1217.530497656519
 31
0.0
  0
ARC
  5
CE
330
2
100
AcDbEntity
  8
03-01
100
AcDbCircle
 10
246.2010104938328
 20
1198.077393643985
 30
0.0
 40
1.0
100
AcDbArc
 50
0.0
 51
59.68642655571783
  0
ARC
  5
CF
330
2
100
AcDbEntity
  8
03-01
100
AcDbCircle
 10
248.2199390905454
 20
1201.530497656519
 30
0.0
 40
3.0
100
AcDbArc
 50
180.0
 51
239.6864265557178
  0
ARC
  5
D0
330
2
100
AcDbEntity
  8
07-99
100
AcDbCircle
 10
248.2199390905454
 20
1201.530497656519
 30
0.0
 40
1.999999999999999
100
AcDbArc
 50
180.0
 51
270.0
  0
LINE
  5
D1
330
2
100
AcDbEntity
  8
07-99
100
AcDbLine
 10
248.2199390905454
 20
1199.530497656519
 30
0.0
 11
269.6755628565865
 21
1199.530497656519
 31
0.0
  0
ARC
  5
D2
330
2
100
AcDbEntity
  8
07-99
100
AcDbCircle
 10
259.2199390905455
 20
1211.530497656519
 30
0.0
 40
0.9999999999999998
100
AcDbArc
 50
90.0
 51
180.0
  0
LINE
  5
D3
330
2
100
AcDbEntity
  8
07-99
100
AcDbLine
 10
264.7793908824828
 20
1212.530497656519
 30
0.0
 11
259.2199390905455
 21
1212.530497656519
 31
0.0
  0
ARC
  5
D4
330
2
100
AcDbEntity
  8
07-99
100
AcDbCircle
 10
272.1850937935321
 20
1209.530497656519
 30
0.0
 40
0.9999999999999998
100
AcDbArc
 50
0.0
 51
90.0
  0
LINE
  5
D5
330
2
100
AcDbEntity
  8
07-99
100
AcDbLine
 10
272.321901850863
 20
1210.530497656519
 30
0.0
 11
258.2199390905454
 21
1210.530497656519
 31
0.0
  0
ARC
  5
D6
330
2
100
AcDbEntity
  8
07-99
100
AcDbCircle
 10
259.2199390905455
 20
1205.530497656519
 30
0.0
 40
0.9999999999999998
100
AcDbArc
 50
180.0
 51
270.0
  0
LINE
  5
D7
330
2
100
AcDbEntity
  8
07-99
100
AcDbLine
 10
264.7793908824828
 20
1204.530497656519
 30
0.0
 11
259.2199390905455
 21
1204.530497656519
 31
0.0
  0
LINE
  5
D8
330
2
100
AcDbEntity
  8
07-99
100
AcDbLine
 10
272.321901850863
 20
1206.530497656519
 30
0.0
 11
258.2199390905454
 21
1206.530497656519
 31
0.0
  0
ARC
  5
D9
330
2
100
AcDbEntity
  8
07-99
100
AcDbCircle
 10
264.7793908824828
 20
1204.030497656519
 30
0.0
 40
0.5
100
AcDbArc
 50
42.5856608852519
 51
90.0
  0
ARC
  5
DA
330
2
100
AcDbEntity
  8
07-99
100
AcDbCircle
 10
269.6755628565865
 20
1208.530497656519
 30
0.0
 40
6.149999999999998
100
AcDbArc
 50
222.5856608852518
 51
323.8852762459501
  0
ARC
  5
DB
330
2
100
AcDbEntity
  8
07-99
100
AcDbCircle
 10
264.7793908824828
 20
1213.030497656519
 30
0.0
 40
0.5
100
AcDbArc
 50
270.0
 51
317.4143391147481
  0
ARC
  5
DC
330
2
100
AcDbEntity
  8
07-99
100
AcDbCircle
 10
269.6755628565865
 20
1208.530497656519
 30
0.0
 40
6.149999999999998
100
AcDbArc
 50
36.11472375404981
 51
137.4143391147481
  0
ELLIPSE
  5
DD
330
2
100
AcDbEntity
  8
0
100
AcDbEllipse
 10
117.8664116535108
 20
1204.251452707347
 30
0.0
 11
-6.999999999999985
 21
0.0000000000000568
 31
0.0
210
0.0
220
0.0
230
1.0
 40
0.173648177666938
 41
0.0
 42
3.141592653589793
  0
LINE
  5
DE
330
2
100
AcDbEntity
  8
0
100
AcDbLine
 10
124.8664116535108
 20
1204.251452707347
 30
0.0
 11
124.8664116535108
 21
1207.094538325631
 31
0.0
  0
LINE
  5
DF
330
2
100
AcDbEntity
  8
0
100
AcDbLine
 10
110.8664116535108
 20
1204.251452707348
 30
0.0
 11
110.8664116535108
 21
1207.094538325631
 31
0.0
  0
LINE
  5
E0
330
2
100
AcDbEntity
  8
0
100
AcDbLine
 10
163.0487197581214
 20
1196.514292642855
 30
0.0
 11
78.68410354890039
 21
1196.514292642855
 31
0.0
  0
LINE
  5
E1
330
2
100
AcDbEntity
  8
04-01
100
AcDbLine
 10
290.6581220540619
 20
1196.514292642855
 30
0.0
 11
352.701010493831
 21
1207.454127835872
 31
0.0
  0
LINE
  5
E4
330
2
100
AcDbEntity
  8
04-01
100
AcDbLine
 10
290.5192035119284
 20
1197.302138845265
 30
0.0
 11
283.6255492408429
 21
1196.086601601596
 31
0.0
  0
ARC
  5
E5
330
2
100
AcDbEntity
  8
04-01
100
AcDbCircle
 10
283.2782528855091
 20
1198.056217107621
 30
0.0
 40
2.0
100
AcDbArc
 50
190.0000000000051
 51
279.9999999999975
  0
LINE
  5
E6
330
2
100
AcDbEntity
  8
04-01
100
AcDbLine
 10
290.6581220540619
 20
1196.514292642855
 30
0.0
 11
290.5192035119284
 21
1197.302138845265
 31
0.0
  0
ARC
  5
E7
330
2
100
AcDbEntity
  8
04-01
100
AcDbCircle
 10
282.3752823616409
 20
1203.177217423284
 30
0.0
 40
2.0
100
AcDbArc
 50
99.99999999999758
 51
190.0000000000051
  0
ARC
  5
E8
330
2
100
AcDbEntity
  8
04-01
100
AcDbCircle
 10
340.8794143418285
 20
1213.49307437432
 30
0.0
 40
2.0
100
AcDbArc
 50
10.00000000000515
 51
99.99999999999758
  0
LINE
  5
E9
330
2
100
AcDbEntity
  8
04-01
100
AcDbLine
 10
352.5620919516975
 20
1208.241974038281
 30
0.0
 11
290.5192035119284
 21
1197.302138845265
 31
0.0
  0
LINE
  5
EA
330
2
100
AcDbEntity
  8
04-01
100
AcDbLine
 10
280.4056668556165
 20
1202.82992106795
 30
0.0
 11
281.3086373794846
 21
1197.708920752287
 31
0.0
  0
LINE
  5
EB
330
2
100
AcDbEntity
  8
04-01
100
AcDbLine
 10
344.0992967270549
 20
1206.749754907966
 30
0.0
 11
342.8490298478529
 21
1213.840370729654
 31
0.0
  0
LINE
  5
EC
330
2
100
AcDbEntity
  8
04-01
100
AcDbLine
 10
340.5321179864947
 20
1215.462689880345
 30
0.0
 11
282.0279860063071
 21
1205.146832929309
 31
0.0
  0
LINE
  5
ED
330
2
100
AcDbEntity
  8
04-01
100
AcDbLine
 10
327.6440829922032
 20
1203.035915463681
 30
0.0
 11
327.5051644500699
 21
1203.823761666091
 31
0.0
  0
LINE
  5
EE
330
2
100
AcDbEntity
  8
04-01
100
AcDbLine
 10
352.701010493831
 20
1207.454127835872
 30
0.0
 11
352.5620919516975
 21
1208.241974038281
 31
0.0
  0
LINE
  5
EF
330
2
100
AcDbEntity
  8
03-01
100
AcDbLine
 10
161.8664116535109
 20
1442.198570447701
 30
0.0
 11
161.8664116535109
 21
1335.69857044775
 31
0.0
  0
LINE
  5
F0
330
2
100
AcDbEntity
  8
03-01
100
AcDbLine
 10
162.8664116535109
 20
1335.69857044775
 30
0.0
 11
161.8664116535109
 21
1335.69857044775
 31
0.0
  0
LINE
  5
F1
330
2
100
AcDbEntity
  8
0
100
AcDbLine
 10
162.8664116535109
 20
1201.37023744914
 30
0.0
 11
161.8664116535109
 21
1201.37023744914
 31
0.0
  0
LINE
  5
F2
330
2
100
AcDbEntity
  8
03-01
100
AcDbLine
 10
79.86641165351096
 20
1202.919048161919
 30
0.0
 11
79.86641165351096
 21
1442.198570447701
 31
0.0
  0
LINE
  5
F3
330
2
100
AcDbEntity
  8
0
100
AcDbLine
 10
79.86641165351096
 20
1187.6985704477
 30
0.0
 11
79.86641165351096
 21
1202.919048161919
 31
0.0
  0
LINE
  5
F4
330
2
100
AcDbEntity
  8
0
100
AcDbLine
 10
161.8664116535109
 20
1187.6985704477
 30
0.0
 11
161.8664116535109
 21
1201.37023744914
 31
0.0
  0
LINE
  5
F5
330
2
100
AcDbEntity
  8
03-01
100
AcDbLine
 10
235.2010104938326
 20
1201.37023744914
 30
0.0
 11
245.8249081395579
 21
1197.882061278718
 31
0.0
  0
ARC
  5
F6
330
2
100
AcDbEntity
  8
03-01
100
AcDbCircle
 10
245.2010104938326
 20
1195.981863465948
 30
0.0
 40
2.0
100
AcDbArc
 50
0.0
 51
71.8232850787131
  0
LINE
  5
F7
330
2
100
AcDbEntity
  8
05-01
100
AcDbLine
 10
74.6578561380515
 20
1194.698570447701
 30
0.0
 11
81.95785613805169
 21
1194.698570447701
 31
0.0
  0
LINE
  5
F8
330
2
100
AcDbEntity
  8
05-01
100
AcDbLine
 10
159.5071813623921
 20
1194.698570447701
 30
0.0
 11
166.8071813623923
 21
1194.698570447701
 31
0.0
  0
ARC
  5
F9
330
2
100
AcDbEntity
  8
03-01
100
AcDbCircle
 10
95.06641165350941
 20
1355.690374809012
 30
0.0
 40
5.0
100
AcDbArc
 50
180.0
 51
270.0
  0
LINE
  5
FA
330
2
100
AcDbEntity
  8
03-01
100
AcDbLine
 10
95.06641165350941
 20
1350.690374809012
 30
0.0
 11
140.0664116535098
 21
1350.690374809012
 31
0.0
  0
ARC
  5
FB
330
2
100
AcDbEntity
  8
03-01
100
AcDbCircle
 10
95.06641165350941
 20
1375.690374809012
 30
0.0
 40
5.0
100
AcDbArc
 50
90.0
 51
180.0
  0
LINE
  5
FC
330
2
100
AcDbEntity
  8
03-01
100
AcDbLine
 10
95.06641165350941
 20
1380.690374809012
 30
0.0
 11
140.0664116535098
 21
1380.690374809012
 31
0.0
  0
ARC
  5
FD
330
2
100
AcDbEntity
  8
03-01
100
AcDbCircle
 10
140.0664116535098
 20
1375.690374809012
 30
0.0
 40
5.0
100
AcDbArc
 50
0.0
 51
90.0
  0
ARC
  5
FE
330
2
100
AcDbEntity
  8
03-01
100
AcDbCircle
 10
140.0664116535098
 20
1355.690374809012
 30
0.0
 40
5.0
100
AcDbArc
 50
270.0
 51
0.0
  0
LINE
  5
FF
330
2
100
AcDbEntity
  8
03-01
100
AcDbLine
 10
145.0664116535099
 20
1375.690374809012
 30
0.0
 11
145.0664116535099
 21
1355.690374809012
 31
0.0
  0
LINE
  5
100
330
2
100
AcDbEntity
  8
03-01
100
AcDbLine
 10
90.06641165350941
 20
1375.690374809013
 30
0.0
 11
90.06641165350941
 21
1355.690374809012
 31
0.0
  0
ARC
  5
101
330
2
100
AcDbEntity
  8
03-01
100
AcDbCircle
 10
142.5664116535098
 20
1261.690374809012
 30
0.0
 40
1.5
100
AcDbArc
 50
0.0
 51
90.0
  0
ARC
  5
102
330
2
100
AcDbEntity
  8
03-01
100
AcDbCircle
 10
128.2664116535088
 20
1211.690374809012
 30
0.0
 40
1.5
100
AcDbArc
 50
90.0
 51
270.0
  0
LINE
  5
103
330
2
100
AcDbEntity
  8
03-01
100
AcDbLine
 10
134.7664116535106
 20
1238.190374809012
 30
0.0
 11
128.2664116535088
 21
1238.190374809012
 31
0.0
  0
LINE
  5
104
330
2
100
AcDbEntity
  8
03-01
100
AcDbLine
 10
134.3664116535109
 20
1213.190374809012
 30
0.0
 11
134.3664116535109
 21
1235.190374809012
 31
0.0
  0
LINE
  5
105
330
2
100
AcDbEntity
  8
03-01
100
AcDbLine
 10
128.5664116535099
 20
1213.190374809012
 30
0.0
 11
128.5664116535099
 21
1235.190374809012
 31
0.0
  0
ARC
  5
106
330
2
100
AcDbEntity
  8
03-01
100
AcDbCircle
 10
128.2664116535088
 20
1236.690374809012
 30
0.0
 40
1.5
100
AcDbArc
 50
90.0
 51
270.0
  0
ARC
  5
107
330
2
100
AcDbEntity
  8
03-01
100
AcDbCircle
 10
137.566411653508
 20
1233.190374809012
 30
0.0
 40
2.0
100
AcDbArc
 50
0.0
 51
90.0
  0
LINE
  5
108
330
2
100
AcDbEntity
  8
03-01
100
AcDbLine
 10
139.566411653508
 20
1215.190374809012
 30
0.0
 11
139.566411653508
 21
1233.190374809012
 31
0.0
  0
ARC
  5
109
330
2
100
AcDbEntity
  8
03-01
100
AcDbCircle
 10
137.566411653508
 20
1215.190374809012
 30
0.0
 40
2.0
100
AcDbArc
 50
270.0
 51
0.0
  0
ARC
  5
10A
330
2
100
AcDbEntity
  8
03-01
100
AcDbCircle
 10
142.5664116535098
 20
1211.690374809012
 30
0.0
 40
1.5
100
AcDbArc
 50
270.0
 51
0.0
  0
LINE
  5
10B
330
2
100
AcDbEntity
  8
03-01
100
AcDbLine
 10
142.5664116535098
 20
1210.190374809013
 30
0.0
 11
128.2664116535088
 21
1210.190374809013
 31
0.0
  0
LINE
  5
10C
330
2
100
AcDbEntity
  8
03-01
100
AcDbLine
 10
137.566411653508
 20
1213.190374809012
 30
0.0
 11
128.2664116535088
 21
1213.190374809012
 31
0.0
  0
LINE
  5
10D
330
2
100
AcDbEntity
  8
03-01
100
AcDbLine
 10
137.566411653508
 20
1235.190374809012
 30
0.0
 11
128.2664116535088
 21
1235.190374809012
 31
0.0
  0
LINE
  5
10E
330
2
100
AcDbEntity
  8
03-01
100
AcDbLine
 10
144.0664116535099
 20
1261.690374809012
 30
0.0
 11
144.0664116535099
 21
1211.690374809012
 31
0.0
  0
LINE
  5
10F
330
2
100
AcDbEntity
  8
03-01
100
AcDbLine
 10
142.5664116535098
 20
1263.190374809012
 30
0.0
 11
136.7664116535106
 21
1263.190374809012
 31
0.0
  0
ARC
  5
110
330
2
100
AcDbEntity
  8
03-01
100
AcDbCircle
 10
134.7664116535106
 20
1240.190374809012
 30
0.0
 40
2.0
100
AcDbArc
 50
270.0
 51
0.0
  0
LINE
  5
111
330
2
100
AcDbEntity
  8
03-01
100
AcDbLine
 10
136.7664116535106
 20
1263.190374809012
 30
0.0
 11
136.7664116535106
 21
1240.190374809012
 31
0.0
  0
ARC
  5
112
330
2
100
AcDbEntity
  8
03-01
100
AcDbCircle
 10
142.5664116535098
 20
1331.690374809012
 30
0.0
 40
1.5
100
AcDbArc
 50
0.0
 51
90.0
  0
ARC
  5
113
330
2
100
AcDbEntity
  8
03-01
100
AcDbCircle
 10
128.2664116535088
 20
1281.690374809012
 30
0.0
 40
1.5
100
AcDbArc
 50
90.0
 51
270.0
  0
LINE
  5
114
330
2
100
AcDbEntity
  8
03-01
100
AcDbLine
 10
134.7664116535106
 20
1308.190374809013
 30
0.0
 11
128.2664116535088
 21
1308.190374809013
 31
0.0
  0
LINE
  5
115
330
2
100
AcDbEntity
  8
03-01
100
AcDbLine
 10
134.3664116535109
 20
1283.190374809012
 30
0.0
 11
134.3664116535109
 21
1305.190374809013
 31
0.0
  0
LINE
  5
116
330
2
100
AcDbEntity
  8
03-01
100
AcDbLine
 10
128.5664116535099
 20
1283.190374809012
 30
0.0
 11
128.5664116535099
 21
1305.190374809013
 31
0.0
  0
ARC
  5
117
330
2
100
AcDbEntity
  8
03-01
100
AcDbCircle
 10
128.2664116535088
 20
1306.690374809013
 30
0.0
 40
1.5
100
AcDbArc
 50
90.0
 51
270.0
  0
ARC
  5
118
330
2
100
AcDbEntity
  8
03-01
100
AcDbCircle
 10
137.566411653508
 20
1303.190374809013
 30
0.0
 40
2.0
100
AcDbArc
 50
0.0
 51
90.0
  0
LINE
  5
119
330
2
100
AcDbEntity
  8
03-01
100
AcDbLine
 10
139.566411653508
 20
1285.190374809013
 30
0.0
 11
139.566411653508
 21
1303.190374809013
 31
0.0
  0
ARC
  5
11A
330
2
100
AcDbEntity
  8
03-01
100
AcDbCircle
 10
137.566411653508
 20
1285.190374809013
 30
0.0
 40
2.0
100
AcDbArc
 50
270.0
 51
0.0
  0
ARC
  5
11B
330
2
100
AcDbEntity
  8
03-01
100
AcDbCircle
 10
142.5664116535098
 20
1281.690374809012
 30
0.0
 40
1.5
100
AcDbArc
 50
270.0
 51
0.0
  0
LINE
  5
11C
330
2
100
AcDbEntity
  8
03-01
100
AcDbLine
 10
142.5664116535098
 20
1280.190374809012
 30
0.0
 11
128.2664116535088
 21
1280.190374809012
 31
0.0
  0
LINE
  5
11D
330
2
100
AcDbEntity
  8
03-01
100
AcDbLine
 10
137.566411653508
 20
1283.190374809012
 30
0.0
 11
128.2664116535088
 21
1283.190374809012
 31
0.0
  0
LINE
  5
11E
330
2
100
AcDbEntity
  8
03-01
100
AcDbLine
 10
137.566411653508
 20
1305.190374809013
 30
0.0
 11
128.2664116535088
 21
1305.190374809013
 31
0.0
  0
LINE
  5
11F
330
2
100
AcDbEntity
  8
03-01
100
AcDbLine
 10
144.0664116535099
 20
1331.690374809012
 30
0.0
 11
144.0664116535099
 21
1281.690374809012
 31
0.0
  0
LINE
  5
120
330
2
100
AcDbEntity
  8
03-01
100
AcDbLine
 10
142.5664116535098
 20
1333.190374809011
 30
0.0
 11
136.7664116535106
 21
1333.190374809011
 31
0.0
  0
ARC
  5
121
330
2
100
AcDbEntity
  8
03-01
100
AcDbCircle
 10
134.7664116535106
 20
1310.190374809012
 30
0.0
 40
2.0
100
AcDbArc
 50
270.0
 51
0.0
  0
LINE
  5
122
330
2
100
AcDbEntity
  8
03-01
100
AcDbLine
 10
136.7664116535106
 20
1333.190374809011
 30
0.0
 11
136.7664116535106
 21
1310.190374809012
 31
0.0
  0
ARC
  5
123
330
2
100
AcDbEntity
  8
03-01
100
AcDbCircle
 10
84.56641165350987
 20
1261.690374809012
 30
0.0
 40
1.5
100
AcDbArc
 50
90.0
 51
180.0
  0
ARC
  5
124
330
2
100
AcDbEntity
  8
03-01
100
AcDbCircle
 10
98.86641165351097
 20
1211.690374809012
 30
0.0
 40
1.5
100
AcDbArc
 50
270.0
 51
90.0
  0
LINE
  5
125
330
2
100
AcDbEntity
  8
03-01
100
AcDbLine
 10
92.36641165350915
 20
1238.190374809012
 30
0.0
 11
98.86641165351097
 21
1238.190374809012
 31
0.0
  0
LINE
  5
126
330
2
100
AcDbEntity
  8
03-01
100
AcDbLine
 10
92.76641165350879
 20
1213.190374809012
 30
0.0
 11
92.76641165350879
 21
1235.190374809012
 31
0.0
  0
LINE
  5
127
330
2
100
AcDbEntity
  8
03-01
100
AcDbLine
 10
98.56641165350987
 20
1213.190374809012
 30
0.0
 11
98.56641165350987
 21
1235.190374809012
 31
0.0
  0
ARC
  5
128
330
2
100
AcDbEntity
  8
03-01
100
AcDbCircle
 10
98.86641165351097
 20
1236.690374809012
 30
0.0
 40
1.5
100
AcDbArc
 50
270.0
 51
90.0
  0
ARC
  5
129
330
2
100
AcDbEntity
  8
03-01
100
AcDbCircle
 10
89.5664116535117
 20
1233.190374809012
 30
0.0
 40
2.0
100
AcDbArc
 50
90.0
 51
180.0
  0
LINE
  5
12A
330
2
100
AcDbEntity
  8
03-01
100
AcDbLine
 10
87.56641165351169
 20
1215.190374809012
 30
0.0
 11
87.56641165351169
 21
1233.190374809012
 31
0.0
  0
ARC
  5
12B
330
2
100
AcDbEntity
  8
03-01
100
AcDbCircle
 10
89.5664116535117
 20
1215.190374809012
 30
0.0
 40
2.0
100
AcDbArc
 50
180.0
 51
270.0
  0
ARC
  5
12C
330
2
100
AcDbEntity
  8
03-01
100
AcDbCircle
 10
84.56641165350987
 20
1211.690374809012
 30
0.0
 40
1.5
100
AcDbArc
 50
180.0
 51
270.0
  0
LINE
  5
12D
330
2
100
AcDbEntity
  8
03-01
100
AcDbLine
 10
84.56641165350987
 20
1210.190374809013
 30
0.0
 11
98.86641165351097
 21
1210.190374809013
 31
0.0
  0
LINE
  5
12E
330
2
100
AcDbEntity
  8
03-01
100
AcDbLine
 10
89.5664116535117
 20
1213.190374809012
 30
0.0
 11
98.86641165351097
 21
1213.190374809012
 31
0.0
  0
LINE
  5
12F
330
2
100
AcDbEntity
  8
03-01
100
AcDbLine
 10
89.5664116535117
 20
1235.190374809012
 30
0.0
 11
98.86641165351097
 21
1235.190374809012
 31
0.0
  0
LINE
  5
130
330
2
100
AcDbEntity
  8
03-01
100
AcDbLine
 10
83.06641165350987
 20
1261.690374809012
 30
0.0
 11
83.06641165350987
 21
1211.690374809012
 31
0.0
  0
LINE
  5
131
330
2
100
AcDbEntity
  8
03-01
100
AcDbLine
 10
84.56641165350987
 20
1263.190374809012
 30
0.0
 11
90.36641165350914
 21
1263.190374809012
 31
0.0
  0
ARC
  5
132
330
2
100
AcDbEntity
  8
03-01
100
AcDbCircle
 10
92.36641165350915
 20
1240.190374809012
 30
0.0
 40
2.0
100
AcDbArc
 50
180.0
 51
270.0
  0
LINE
  5
133
330
2
100
AcDbEntity
  8
03-01
100
AcDbLine
 10
90.36641165350914
 20
1263.190374809012
 30
0.0
 11
90.36641165350914
 21
1240.190374809012
 31
0.0
  0
ARC
  5
134
330
2
100
AcDbEntity
  8
03-01
100
AcDbCircle
 10
84.56641165350987
 20
1331.690374809012
 30
0.0
 40
1.5
100
AcDbArc
 50
90.0
 51
180.0
  0
ARC
  5
135
330
2
100
AcDbEntity
  8
03-01
100
AcDbCircle
 10
98.86641165351097
 20
1281.690374809012
 30
0.0
 40
1.5
100
AcDbArc
 50
270.0
 51
90.0
  0
LINE
  5
136
330
2
100
AcDbEntity
  8
03-01
100
AcDbLine
 10
92.36641165350915
 20
1308.190374809013
 30
0.0
 11
98.86641165351097
 21
1308.190374809013
 31
0.0
  0
LINE
  5
137
330
2
100
AcDbEntity
  8
03-01
100
AcDbLine
 10
92.76641165350879
 20
1283.190374809012
 30
0.0
 11
92.76641165350879
 21
1305.190374809013
 31
0.0
  0
LINE
  5
138
330
2
100
AcDbEntity
  8
03-01
100
AcDbLine
 10
98.56641165350987
 20
1283.190374809012
 30
0.0
 11
98.56641165350987
 21
1305.190374809013
 31
0.0
  0
ARC
  5
139
330
2
100
AcDbEntity
  8
03-01
100
AcDbCircle
 10
98.86641165351097
 20
1306.690374809013
 30
0.0
 40
1.5
100
AcDbArc
 50
270.0
 51
90.0
  0
ARC
  5
13A
330
2
100
AcDbEntity
  8
03-01
100
AcDbCircle
 10
89.5664116535117
 20
1303.190374809013
 30
0.0
 40
2.0
100
AcDbArc
 50
90.0
 51
180.0
  0
LINE
  5
13B
330
2
100
AcDbEntity
  8
03-01
100
AcDbLine
 10
87.56641165351169
 20
1285.190374809013
 30
0.0
 11
87.56641165351169
 21
1303.190374809013
 31
0.0
  0
ARC
  5
13C
330
2
100
AcDbEntity
  8
03-01
100
AcDbCircle
 10
89.5664116535117
 20
1285.190374809013
 30
0.0
 40
2.0
100
AcDbArc
 50
180.0
 51
270.0
  0
ARC
  5
13D
330
2
100
AcDbEntity
  8
03-01
100
AcDbCircle
 10
84.56641165350987
 20
1281.690374809012
 30
0.0
 40
1.5
100
AcDbArc
 50
180.0
 51
270.0
  0
LINE
  5
13E
330
2
100
AcDbEntity
  8
03-01
100
AcDbLine
 10
84.56641165350987
 20
1280.190374809012
 30
0.0
 11
98.86641165351097
 21
1280.190374809012
 31
0.0
  0
LINE
  5
13F
330
2
100
AcDbEntity
  8
03-01
100
AcDbLine
 10
89.5664116535117
 20
1283.190374809012
 30
0.0
 11
98.86641165351097
 21
1283.190374809012
 31
0.0
  0
LINE
  5
140
330
2
100
AcDbEntity
  8
03-01
100
AcDbLine
 10
89.5664116535117
 20
1305.190374809013
 30
0.0
 11
98.86641165351097
 21
1305.190374809013
 31
0.0
  0
LINE
  5
141
330
2
100
AcDbEntity
  8
03-01
100
AcDbLine
 10
83.06641165350987
 20
1331.690374809012
 30
0.0
 11
83.06641165350987
 21
1281.690374809012
 31
0.0
  0
ARC
  5
142
330
2
100
AcDbEntity
  8
03-01
100
AcDbCircle
 10
111.6664116535102
 20
1338.690374809012
 30
0.0
 40
1.0
100
AcDbArc
 50
90.0
 51
270.0
  0
ARC
  5
143
330
2
100
AcDbEntity
  8
03-01
100
AcDbCircle
 10
116.6664116535102
 20
1338.690374809012
 30
0.0
 40
1.0
100
AcDbArc
 50
270.0
 51
90.0
  0
LINE
  5
144
330
2
100
AcDbEntity
  8
03-01
100
AcDbLine
 10
116.6664116535102
 20
1337.690374809013
 30
0.0
 11
111.6664116535102
 21
1337.690374809011
 31
0.0
  0
LINE
  5
145
330
2
100
AcDbEntity
  8
03-01
100
AcDbLine
 10
116.6664116535102
 20
1339.690374809012
 30
0.0
 11
111.6664116535102
 21
1339.690374809012
 31
0.0
  0
LINE
  5
146
330
2
100
AcDbEntity
  8
03-01
100
AcDbLine
 10
104.6664116535102
 20
1338.690374809012
 30
0.0
 11
105.6664116535102
 21
1338.690374809012
 31
0.0
  0
ARC
  5
147
330
2
100
AcDbEntity
  8
03-01
100
AcDbCircle
 10
104.6664116535102
 20
1337.690374809011
 30
0.0
 40
1.0
100
AcDbArc
 50
90.0
 51
180.0
  0
ARC
  5
148
330
2
100
AcDbEntity
  8
03-01
100
AcDbCircle
 10
105.6664116535102
 20
1337.690374809011
 30
0.0
 40
1.0
100
AcDbArc
 50
0.0
 51
90.0
  0
ARC
  5
149
330
2
100
AcDbEntity
  8
03-01
100
AcDbCircle
 10
119.6664116535102
 20
1314.690374809012
 30
0.0
 40
5.0
100
AcDbArc
 50
270.0
 51
0.0
  0
ARC
  5
14A
330
2
100
AcDbEntity
  8
03-01
100
AcDbCircle
 10
119.6664116535102
 20
1314.690374809012
 30
0.0
 40
2.0
100
AcDbArc
 50
270.0
 51
0.0
  0
LINE
  5
14B
330
2
100
AcDbEntity
  8
03-01
100
AcDbLine
 10
123.6664116535102
 20
1338.690374809012
 30
0.0
 11
122.6664116535102
 21
1338.690374809012
 31
0.0
  0
LINE
  5
14C
330
2
100
AcDbEntity
  8
03-01
100
AcDbLine
 10
119.6664116535102
 20
1309.690374809012
 30
0.0
 11
108.6664116535102
 21
1309.690374809012
 31
0.0
  0
LINE
  5
14D
330
2
100
AcDbEntity
  8
03-01
100
AcDbLine
 10
119.6664116535102
 20
1312.690374809011
 30
0.0
 11
108.6664116535102
 21
1312.690374809011
 31
0.0
  0
ARC
  5
14E
330
2
100
AcDbEntity
  8
03-01
100
AcDbCircle
 10
123.6664116535102
 20
1337.690374809011
 30
0.0
 40
1.0
100
AcDbArc
 50
0.0
 51
90.0
  0
LINE
  5
14F
330
2
100
AcDbEntity
  8
03-01
100
AcDbLine
 10
124.6664116535102
 20
1314.690374809012
 30
0.0
 11
124.6664116535102
 21
1337.690374809011
 31
0.0
  0
ARC
  5
150
330
2
100
AcDbEntity
  8
03-01
100
AcDbCircle
 10
122.6664116535102
 20
1337.690374809011
 30
0.0
 40
1.0
100
AcDbArc
 50
90.0
 51
180.0
  0
LINE
  5
151
330
2
100
AcDbEntity
  8
03-01
100
AcDbLine
 10
121.6664116535102
 20
1314.690374809012
 30
0.0
 11
121.6664116535102
 21
1337.690374809011
 31
0.0
  0
ARC
  5
152
330
2
100
AcDbEntity
  8
03-01
100
AcDbCircle
 10
108.6664116535102
 20
1314.690374809012
 30
0.0
 40
5.0
100
AcDbArc
 50
180.0
 51
270.0
  0
ARC
  5
153
330
2
100
AcDbEntity
  8
03-01
100
AcDbCircle
 10
108.6664116535102
 20
1314.690374809012
 30
0.0
 40
2.0
100
AcDbArc
 50
180.0
 51
270.0
  0
LINE
  5
154
330
2
100
AcDbEntity
  8
03-01
100
AcDbLine
 10
103.6664116535102
 20
1314.690374809012
 30
0.0
 11
103.6664116535102
 21
1337.690374809011
 31
0.0
  0
LINE
  5
155
330
2
100
AcDbEntity
  8
03-01
100
AcDbLine
 10
106.6664116535102
 20
1314.690374809012
 30
0.0
 11
106.6664116535102
 21
1337.690374809011
 31
0.0
  0
LINE
  5
156
330
2
100
AcDbEntity
  8
03-01
100
AcDbLine
 10
84.56641165350987
 20
1333.190374809011
 30
0.0
 11
90.36641165350914
 21
1333.190374809011
 31
0.0
  0
ARC
  5
157
330
2
100
AcDbEntity
  8
03-01
100
AcDbCircle
 10
92.36641165350915
 20
1310.190374809012
 30
0.0
 40
2.0
100
AcDbArc
 50
180.0
 51
270.0
  0
LINE
  5
158
330
2
100
AcDbEntity
  8
03-01
100
AcDbLine
 10
90.36641165350914
 20
1333.190374809011
 30
0.0
 11
90.36641165350914
 21
1310.190374809012
 31
0.0
  0
ARC
  5
159
330
2
100
AcDbEntity
  8
03-01
100
AcDbCircle
 10
82.46641165350951
 20
1211.575182562024
 30
0.0
 40
0.2
100
AcDbArc
 50
0.0
 51
90.0
  0
INSERT
  5
15A
330
2
100
AcDbEntity
  8
05-01
100
AcDbBlockReference
  2
e-modul vorderansicht
 10
-24.78102367512298
 20
1421.250933957472
 30
0.0
  0
DIMENSION
  5
17F
330
2
100
AcDbEntity
  8
09-01
100
AcDbDimension
280
     0
  2
*D12
 10
65.21858524383782
 20
1437.690374809012
 30
0.0
 11
60.66572030522952
 21
1442.768853719826
 31
0.0
 70
   128
 71
     5
 42
10.50819563868936
 73
     0
 74
     0
 75
     0
  3
Wagner$0
100
AcDbAlignedDimension
 13
77.86641165351096
 23
1448.198570447701
 33
0.0
 14
92.06641165350987
 24
1437.690374809012
 34
0.0
 50
90.0
100
AcDbRotatedDimension
1001
ACAD
1000
DSTYLE
1002
{
1070
    40
1040
2.0
1070
   271
1070
     1
1002
}
  0
LINE
  5
18E
330
2
100
AcDbEntity
  8
05-01
100
AcDbLine
 10
117.3664116535109
 20
1294.598570447701
 30
0.0
 11
124.3664116535109
 21
1294.598570447701
 31
0.0
  0
LINE
  5
18F
330
2
100
AcDbEntity
  8
05-01
100
AcDbLine
 10
120.8664116535109
 20
1298.098570447701
 30
0.0
 11
120.8664116535109
 21
1240.098570447701
 31
0.0
  0
LINE
  5
190
330
2
100
AcDbEntity
  8
05-01
100
AcDbLine
 10
117.3664116535109
 20
1243.598570447701
 30
0.0
 11
124.3664116535109
 21
1243.598570447701
 31
0.0
  0
LWPOLYLINE
  5
191
330
2
100
AcDbEntity
  8
0
100
AcDbPolyline
 90
        9
 70
     0
 43
0.0
 10
120.8664116535109
 20
1241.098570447701
 10
120.8664116535109
 20
1241.098570447701
 42
0.4142135623730951
 10
123.3664116535109
 20
1243.598570447701
 10
123.3664116535109
 20
1294.598570447701
 42
0.4142135623730951
 10
120.8664116535109
 20
1297.098570447701
 10
120.8664116535109
 20
1297.098570447701
 42
0.4142135623730951
 10
118.3664116535109
 20
1294.598570447701
 10
118.3664116535109
 20
1243.598570447701
 42
0.4142135623730951
 10
120.8664116535109
 20
1241.098570447701
 42
0.4142135623730951
  0
CIRCLE
  5
192
330
2
100
AcDbEntity
  8
03-01
100
AcDbCircle
 10
269.6755628565865
 20
1208.530497656519
 30
0.0
 40
6.0
  0
ARC
  5
193
330
2
100
AcDbEntity
  8
04-01
100
AcDbCircle
 10
272.321901850863
 20
1207.530497656519
 30
0.0
 40
0.9999999999999998
100
AcDbArc
 50
270.0
 51
0.0
  0
LINE
  5
194
330
2
100
AcDbEntity
  8
04-01
100
AcDbLine
 10
273.321901850863
 20
1209.530497656519
 30
0.0
 11
273.321901850863
 21
1207.530497656519
 31
0.0
  0
ARC
  5
195
330
2
100
AcDbEntity
  8
04-01
100
AcDbCircle
 10
272.3219018508632
 20
1209.530497656519
 30
0.0
 40
0.9999999999999998
100
AcDbArc
 50
0.0
 51
90.0
  0
ARC
  5
196
330
2
100
AcDbEntity
  8
04-01
100
AcDbCircle
 10
275.794939090545
 20
1204.065762557181
 30
0.0
 40
1.425000000000008
100
AcDbArc
 50
323.8852762459501
 51
143.8852762459501
  0
ARC
  5
197
330
2
100
AcDbEntity
  8
04-01
100
AcDbCircle
 10
275.794939090545
 20
1212.995232755857
 30
0.0
 40
1.425000000000008
100
AcDbArc
 50
216.1147237540498
 51
36.11472375404981
  0
LINE
  5
198
330
2
100
AcDbEntity
  8
04-01
100
AcDbLine
 10
258.2199390905452
 20
1210.530497656519
 30
0.0
 11
258.2199390905457
 21
1206.530497656519
 31
0.0
  0
LINE
  5
199
330
2
100
AcDbEntity
  8
04-01
100
AcDbLine
 10
265.0608984595214
 20
1210.530497656519
 30
0.0
 11
265.0608984595219
 21
1206.530497656519
 31
0.0
  0
LINE
  5
19A
330
2
100
AcDbEntity
  8
04-01
100
AcDbLine
 10
269.9901388828607
 20
1210.530497656519
 30
0.0
 11
269.9901388828607
 21
1206.530497656519
 31
0.0
  0
ARC
  5
19B
330
2
100
AcDbEntity
  8
04-01
100
AcDbCircle
 10
272.1850937935319
 20
1207.530497656519
 30
0.0
 40
0.9999999999999998
100
AcDbArc
 50
270.0
 51
0.0
  0
LINE
  5
19C
330
2
100
AcDbEntity
  8
04-01
100
AcDbLine
 10
273.1850937935321
 20
1209.530497656519
 30
0.0
 11
273.1850937935318
 21
1207.530497656519
 31
0.0
  0
LINE
  5
19D
330
2
100
AcDbEntity
  8
04-01
100
AcDbLine
 10
258.2199390905452
 20
1210.530497656519
 30
0.0
 11
258.2199390905454
 21
1211.530497656519
 31
0.0
  0
LINE
  5
19E
330
2
100
AcDbEntity
  8
04-01
100
AcDbLine
 10
258.2199390905452
 20
1205.530497656519
 30
0.0
 11
258.2199390905452
 21
1206.530497656519
 31
0.0
  0
LINE
  5
19F
330
2
100
AcDbEntity
  8
04-01
100
AcDbLine
 10
246.2199390905452
 20
1201.530497656519
 30
0.0
 11
246.2199390905452
 21
1215.530497656519
 31
0.0
  0
ARC
  5
1A0
330
2
100
AcDbEntity
  8
04-01
100
AcDbCircle
 10
269.6755628565865
 20
1208.530497656519
 30
0.0
 40
8.999999999999998
100
AcDbArc
 50
270.0
 51
323.8852762459501
  0
ARC
  5
1A1
330
2
100
AcDbEntity
  8
04-01
100
AcDbCircle
 10
269.6755628565865
 20
1208.530497656519
 30
0.0
 40
8.999999999999998
100
AcDbArc
 50
36.11472375404981
 51
90.0
  0
ARC
  5
1A2
330
2
100
AcDbEntity
  8
04-01
100
AcDbCircle
 10
248.2199390905452
 20
1215.530497656519
 30
0.0
 40
1.999999999999999
100
AcDbArc
 50
90.0
 51
180.0
  0
LINE
  5
1A3
330
2
100
AcDbEntity
  8
04-01
100
AcDbLine
 10
248.2199390905452
 20
1217.530497656519
 30
0.0
 11
269.6755628565867
 21
1217.530497656519
 31
0.0
  0
ARC
  5
1A4
330
2
100
AcDbEntity
  8
04-01
100
AcDbCircle
 10
248.2199390905452
 20
1201.530497656519
 30
0.0
 40
1.999999999999999
100
AcDbArc
 50
180.0
 51
270.0
  0
LINE
  5
1A5
330
2
100
AcDbEntity
  8
04-01
100
AcDbLine
 10
248.2199390905452
 20
1199.530497656519
 30
0.0
 11
269.6755628565865
 21
1199.530497656519
 31
0.0
  0
ARC
  5
1A6
330
2
100
AcDbEntity
  8
04-01
100
AcDbCircle
 10
259.2199390905452
 20
1211.530497656519
 30
0.0
 40
0.9999999999999998
100
AcDbArc
 50
90.0
 51
180.0
  0
LINE
  5
1A7
330
2
100
AcDbEntity
  8
04-01
100
AcDbLine
 10
264.7793908824828
 20
1212.530497656519
 30
0.0
 11
259.2199390905452
 21
1212.530497656519
 31
0.0
  0
ARC
  5
1A8
330
2
100
AcDbEntity
  8
04-01
100
AcDbCircle
 10
272.1850937935321
 20
1209.530497656519
 30
0.0
 40
0.9999999999999998
100
AcDbArc
 50
0.0
 51
90.0
  0
LINE
  5
1A9
330
2
100
AcDbEntity
  8
04-01
100
AcDbLine
 10
272.321901850863
 20
1210.530497656519
 30
0.0
 11
258.2199390905452
 21
1210.530497656519
 31
0.0
  0
ARC
  5
1AA
330
2
100
AcDbEntity
  8
04-01
100
AcDbCircle
 10
259.2199390905452
 20
1205.530497656519
 30
0.0
 40
0.9999999999999998
100
AcDbArc
 50
180.0
 51
270.0
  0
LINE
  5
1AB
330
2
100
AcDbEntity
  8
04-01
100
AcDbLine
 10
264.7793908824828
 20
1204.530497656519
 30
0.0
 11
259.2199390905452
 21
1204.530497656519
 31
0.0
  0
LINE
  5
1AC
330
2
100
AcDbEntity
  8
04-01
100
AcDbLine
 10
272.321901850863
 20
1206.530497656519
 30
0.0
 11
258.2199390905452
 21
1206.530497656519
 31
0.0
  0
ARC
  5
1AD
330
2
100
AcDbEntity
  8
04-01
100
AcDbCircle
 10
264.7793908824828
 20
1204.030497656519
 30
0.0
 40
0.5
100
AcDbArc
 50
42.5856608852519
 51
90.0
  0
ARC
  5
1AE
330
2
100
AcDbEntity
  8
04-01
100
AcDbCircle
 10
269.6755628565865
 20
1208.530497656519
 30
0.0
 40
6.149999999999998
100
AcDbArc
 50
222.5856608852518
 51
323.8852762459501
  0
ARC
  5
1AF
330
2
100
AcDbEntity
  8
04-01
100
AcDbCircle
 10
264.7793908824828
 20
1213.030497656519
 30
0.0
 40
0.5
100
AcDbArc
 50
270.0
 51
317.4143391147481
  0
ARC
  5
1B0
330
2
100
AcDbEntity
  8
04-01
100
AcDbCircle
 10
269.6755628565865
 20
1208.530497656519
 30
0.0
 40
6.149999999999998
100
AcDbArc
 50
36.11472375404981
 51
137.4143391147481
  0
LINE
  5
1B1
330
2
100
AcDbEntity
  8
03-01
100
AcDbLine
 10
161.1647628549419
 20
1135.894126696386
 30
0.0
 11
162.164153681961
 21
1135.859227199683
 31
0.0
  0
INSERT
  5
1B2
330
2
100
AcDbEntity
  8
05-01
100
AcDbBlockReference
  2
desipumpe_dr
 10
288.5540874684772
 20
1453.188140334437
 30
0.0
 50
90.0
  0
LINE
  5
202
330
2
100
AcDbEntity
  8
09-01
100
AcDbLine
 10
134.4653911390773
 20
1145.404570955457
 30
0.0
 11
129.5664116535112
 21
1147.904570955457
 31
0.0
  0
LINE
  5
203
330
2
100
AcDbEntity
  8
09-01
100
AcDbLine
 10
134.5664116535112
 20
1146.404570955456
 30
0.0
 11
129.6674321679447
 21
1148.904570955457
 31
0.0
  0
LINE
  5
204
330
2
100
AcDbEntity
  8
09-01
100
AcDbLine
 10
139.5664116535112
 20
1146.404570955456
 30
0.0
 11
134.5664116535112
 21
1146.404570955456
 31
0.0
  0
LINE
  5
205
330
2
100
AcDbEntity
  8
09-01
100
AcDbLine
 10
139.5664116535112
 20
1145.404570955457
 30
0.0
 11
134.4653911390773
 21
1145.404570955457
 31
0.0
  0
LINE
  5
206
330
2
100
AcDbEntity
  8
09-01
100
AcDbLine
 10
139.5664116535112
 20
1146.404570955456
 30
0.0
 11
139.5664116535112
 21
1145.404570955457
 31
0.0
  0
LINE
  5
207
330
2
100
AcDbEntity
  8
09-01
100
AcDbLine
 10
93.2674321679446
 20
1145.404570955457
 30
0.0
 11
98.1664116535107
 21
1147.904570955457
 31
0.0
  0
LINE
  5
208
330
2
100
AcDbEntity
  8
09-01
100
AcDbLine
 10
93.1664116535107
 20
1146.404570955456
 30
0.0
 11
98.06539113907724
 21
1148.904570955457
 31
0.0
  0
LINE
  5
209
330
2
100
AcDbEntity
  8
09-01
100
AcDbLine
 10
98.1664116535107
 20
1147.904570955457
 30
0.0
 11
129.5664116535112
 21
1147.904570955457
 31
0.0
  0
LINE
  5
20A
330
2
100
AcDbEntity
  8
09-01
100
AcDbLine
 10
98.06539113907724
 20
1148.904570955457
 30
0.0
 11
129.6674321679447
 21
1148.904570955457
 31
0.0
  0
LINE
  5
20B
330
2
100
AcDbEntity
  8
09-01
100
AcDbLine
 10
88.1664116535107
 20
1146.404570955456
 30
0.0
 11
93.1664116535107
 21
1146.404570955456
 31
0.0
  0
LINE
  5
20C
330
2
100
AcDbEntity
  8
09-01
100
AcDbLine
 10
88.1664116535107
 20
1145.404570955457
 30
0.0
 11
93.2674321679446
 21
1145.404570955457
 31
0.0
  0
LINE
  5
20D
330
2
100
AcDbEntity
  8
09-01
100
AcDbLine
 10
93.1664116535107
 20
1146.404570955456
 30
0.0
 11
93.1664116535107
 21
1145.404570955457
 31
0.0
  0
LINE
  5
20E
330
2
100
AcDbEntity
  8
09-01
100
AcDbLine
 10
88.1664116535107
 20
1146.404570955456
 30
0.0
 11
88.1664116535107
 21
1145.404570955457
 31
0.0
  0
LINE
  5
20F
330
2
100
AcDbEntity
  8
03-01
100
AcDbLine
 10
142.8664116535109
 20
1148.904570955457
 30
0.0
 11
142.8664116535109
 21
1147.904570955456
 31
0.0
  0
LINE
  5
210
330
2
100
AcDbEntity
  8
03-01
100
AcDbLine
 10
136.3664116535109
 20
1148.904570955457
 30
0.0
 11
136.3664116535109
 21
1147.904570955456
 31
0.0
  0
LINE
  5
211
330
2
100
AcDbEntity
  8
03-01
100
AcDbLine
 10
91.36641165351097
 20
1148.904570955457
 30
0.0
 11
91.36641165351097
 21
1147.904570955456
 31
0.0
  0
LINE
  5
212
330
2
100
AcDbEntity
  8
03-01
100
AcDbLine
 10
84.86641165351096
 20
1148.904570955457
 30
0.0
 11
84.86641165351096
 21
1147.904570955456
 31
0.0
  0
LINE
  5
213
330
2
100
AcDbEntity
  8
05-01
100
AcDbLine
 10
139.8664116535109
 20
1146.504570955457
 30
0.0
 11
139.8664116535109
 21
1145.404570955457
 31
0.0
  0
LINE
  5
214
330
2
100
AcDbEntity
  8
05-01
100
AcDbLine
 10
137.366411653511
 20
1148.604570955457
 30
0.0
 11
137.366411653511
 21
1145.404570955457
 31
0.0
  0
LINE
  5
215
330
2
100
AcDbEntity
  8
05-01
100
AcDbLine
 10
142.3664116535109
 20
1148.604570955457
 30
0.0
 11
142.3664116535109
 21
1145.404570955457
 31
0.0
  0
LINE
  5
216
330
2
100
AcDbEntity
  8
05-01
100
AcDbLine
 10
137.366411653511
 20
1146.504570955457
 30
0.0
 11
139.8664116535109
 21
1146.504570955457
 31
0.0
  0
LINE
  5
217
330
2
100
AcDbEntity
  8
05-01
100
AcDbLine
 10
137.366411653511
 20
1148.604570955457
 30
0.0
 11
142.3664116535109
 21
1148.604570955457
 31
0.0
  0
LINE
  5
218
330
2
100
AcDbEntity
  8
05-01
100
AcDbLine
 10
87.86641165351097
 20
1146.504570955457
 30
0.0
 11
87.86641165351097
 21
1145.404570955457
 31
0.0
  0
LINE
  5
219
330
2
100
AcDbEntity
  8
05-01
100
AcDbLine
 10
90.36641165351097
 20
1148.604570955457
 30
0.0
 11
90.36641165351097
 21
1145.404570955457
 31
0.0
  0
LINE
  5
21A
330
2
100
AcDbEntity
  8
05-01
100
AcDbLine
 10
85.36641165351097
 20
1148.604570955457
 30
0.0
 11
85.36641165351097
 21
1145.404570955457
 31
0.0
  0
LINE
  5
21B
330
2
100
AcDbEntity
  8
05-01
100
AcDbLine
 10
161.8664116535105
 20
1145.404570955457
 30
0.0
 11
161.8664116535105
 21
1102.904570955456
 31
0.0
  0
LINE
  5
21C
330
2
100
AcDbEntity
  8
05-01
100
AcDbLine
 10
85.36641165351097
 20
1145.404570955457
 30
0.0
 11
85.36641165351097
 21
1102.904570955456
 31
0.0
  0
LINE
  5
21D
330
2
100
AcDbEntity
  8
03-01
100
AcDbLine
 10
79.16641165351046
 20
1147.378388358061
 30
0.0
 11
79.16641165351046
 21
1148.904570955457
 31
0.0
  0
LINE
  5
21E
330
2
100
AcDbEntity
  8
03-01
100
AcDbLine
 10
162.5664116535103
 20
1147.378388358061
 30
0.0
 11
162.5664116535103
 21
1148.904570955457
 31
0.0
  0
LINE
  5
21F
330
2
100
AcDbEntity
  8
03-01
100
AcDbLine
 10
94.86641165351096
 20
1146.404570955456
 30
0.0
 11
94.86641165351096
 21
1147.404570955457
 31
0.0
  0
LINE
  5
220
330
2
100
AcDbEntity
  8
03-01
100
AcDbLine
 10
132.8664116535109
 20
1146.404570955456
 30
0.0
 11
132.8664116535109
 21
1147.404570955457
 31
0.0
  0
LINE
  5
221
330
2
100
AcDbEntity
  8
05-01
100
AcDbLine
 10
117.3664116535109
 20
1141.546215956668
 30
0.0
 11
117.3664116535109
 21
1151.004570955457
 31
0.0
  0
LINE
  5
222
330
2
100
AcDbEntity
  8
03-01
100
AcDbLine
 10
80.56806045207991
 20
1135.894126696386
 30
0.0
 11
79.56866962506063
 21
1135.859227199683
 31
0.0
  0
LINE
  5
223
330
2
100
AcDbEntity
  8
03-01
100
AcDbLine
 10
161.5841768104057
 20
1147.904570955456
 30
0.0
 11
161.1647628549419
 21
1135.894126696386
 31
0.0
  0
LINE
  5
224
330
2
100
AcDbEntity
  8
03-01
100
AcDbLine
 10
162.164153681961
 20
1135.859227199683
 30
0.0
 11
162.5664116535103
 21
1147.378388358061
 31
0.0
  0
LINE
  5
225
330
2
100
AcDbEntity
  8
03-01
100
AcDbLine
 10
79.56866962506063
 20
1135.859227199683
 30
0.0
 11
79.16641165351046
 21
1147.378388358061
 31
0.0
  0
LINE
  5
226
330
2
100
AcDbEntity
  8
03-01
100
AcDbLine
 10
80.56806045207991
 20
1135.894126696386
 30
0.0
 11
80.14864649661518
 21
1147.904570955456
 31
0.0
  0
LINE
  5
227
330
2
100
AcDbEntity
  8
03-01
100
AcDbLine
 10
94.86641165351096
 20
1146.404570955456
 30
0.0
 11
132.8664116535109
 21
1146.404570955456
 31
0.0
  0
LINE
  5
228
330
2
100
AcDbEntity
  8
03-01
100
AcDbLine
 10
80.14864649661518
 20
1147.904570955456
 30
0.0
 11
161.5841768104057
 21
1147.904570955456
 31
0.0
  0
LINE
  5
229
330
2
100
AcDbEntity
  8
05-01
100
AcDbLine
 10
90.36641165351097
 20
1146.504570955457
 30
0.0
 11
87.86641165351097
 21
1146.504570955457
 31
0.0
  0
LINE
  5
22A
330
2
100
AcDbEntity
  8
05-01
100
AcDbLine
 10
161.8664116535105
 20
1102.904570955456
 30
0.0
 11
85.36641165351097
 21
1102.904570955456
 31
0.0
  0
LINE
  5
22B
330
2
100
AcDbEntity
  8
05-01
100
AcDbLine
 10
161.8664116535105
 20
1145.404570955457
 30
0.0
 11
85.36641165351097
 21
1145.404570955457
 31
0.0
  0
LINE
  5
22C
330
2
100
AcDbEntity
  8
05-01
100
AcDbLine
 10
90.36641165351097
 20
1148.604570955457
 30
0.0
 11
85.36641165351097
 21
1148.604570955457
 31
0.0
  0
INSERT
  5
22D
330
2
100
AcDbEntity
  8
05-01
100
AcDbBlockReference
  2
Sensor-Betätigungsmodul
 10
236.9010104938338
 20
1305.590374809012
 30
0.0
  0
ARC
  5
275
330
2
100
AcDbEntity
  8
03-01
100
AcDbCircle
 10
244.2010104938328
 20
1338.69857044775
 30
0.0
 40
3.0
100
AcDbArc
 50
270.0
 51
0.0
  0
LINE
  5
276
330
2
100
AcDbEntity
  8
03-01
100
AcDbLine
 10
244.2010104938328
 20
1335.69857044775
 30
0.0
 11
234.2010104938328
 21
1335.69857044775
 31
0.0
  0
LINE
  5
277
330
2
100
AcDbEntity
  8
02-01
100
AcDbLine
 10
287.4281550280843
 20
1217.749662511016
 30
0.0
 11
279.4494429725129
 21
1218.332889683119
 31
0.0
  0
ARC
  5
27A
330
2
100
AcDbEntity
  8
02-01
100
AcDbCircle
 10
285.3646015210033
 20
1256.4623208091
 30
0.0
 40
4.119653316495944
100
AcDbArc
 50
359.2460272369752
 51
175.8192340796936
  0
LINE
  5
27B
330
2
100
AcDbEntity
  8
02-01
100
AcDbLine
 10
289.4838981478906
 20
1256.408110590217
 30
0.0
 11
289.0946639185293
 21
1226.831191678826
 31
0.0
  0
ARC
  5
27C
330
2
100
AcDbEntity
  8
02-01
100
AcDbCircle
 10
287.5010584245972
 20
1218.747001517963
 30
0.0
 40
1.0
100
AcDbArc
 50
265.8192340796792
 51
355.8192340796936
  0
LINE
  5
27D
330
2
100
AcDbEntity
  8
02-01
100
AcDbLine
 10
289.0946639185293
 20
1226.831191678826
 30
0.0
 11
288.4983974315436
 21
1218.67409812145
 31
0.0
  0
CIRCLE
  5
27E
330
2
100
AcDbEntity
  8
02-01
100
AcDbCircle
 10
285.1053078907435
 20
1227.122805264877
 30
0.0
 40
2.5
  0
CIRCLE
  5
27F
330
2
100
AcDbEntity
  8
02-01
100
AcDbCircle
 10
285.253989734328
 20
1256.590378862128
 30
0.0
 40
1.9
  0
ARC
  5
280
330
2
100
AcDbEntity
  8
02-01
100
AcDbCircle
 10
279.5223463690257
 20
1219.330228690066
 30
0.0
 40
1.0
100
AcDbArc
 50
175.8192340796936
 51
265.8192340796792
  0
LINE
  5
281
330
2
100
AcDbEntity
  8
02-01
100
AcDbLine
 10
281.2559105733657
 20
1256.762657528328
 30
0.0
 11
278.5250073620793
 21
1219.403132086579
 31
0.0
  0
LINE
  5
282
330
2
100
AcDbEntity
  8
03-01
100
AcDbLine
 10
340.214374916813
 20
1408.549658189282
 30
0.0
 11
281.7162205654288
 21
1408.549658189282
 31
0.0
  0
ARC
  5
283
330
2
100
AcDbEntity
  8
03-01
100
AcDbCircle
 10
281.7162160993063
 20
1407.549658189292
 30
0.0
 40
1.0
100
AcDbArc
 50
89.9997441100297
 51
177.9998629061295
  0
ARC
  5
284
330
2
100
AcDbEntity
  8
03-01
100
AcDbCircle
 10
280.215297741121
 20
1407.549657999302
 30
0.0
 40
0.4999999999999858
100
AcDbArc
 50
270.0
 51
358.0000000000746
  0
LINE
  5
285
330
2
100
AcDbEntity
  8
03-01
100
AcDbLine
 10
280.7168208951134
 20
1407.584560233057
 30
0.0
 11
280.7149925917376
 21
1407.53220829996
 31
0.0
  0
ARC
  5
286
330
2
100
AcDbEntity
  8
03-01
100
AcDbCircle
 10
340.2143793829355
 20
1407.549658189292
 30
0.0
 40
1.0
100
AcDbArc
 50
2.000137093870496
 51
90.00025588997026
  0
ARC
  5
287
330
2
100
AcDbEntity
  8
03-01
100
AcDbCircle
 10
341.715297741121
 20
1407.549657999302
 30
0.0
 40
0.4999999999999858
100
AcDbArc
 50
181.9999999999254
 51
270.0
  0
LINE
  5
288
330
2
100
AcDbEntity
  8
03-01
100
AcDbLine
 10
341.2137745871286
 20
1407.584560233057
 30
0.0
 11
341.2156028905044
 21
1407.53220829996
 31
0.0
  0
LINE
  5
289
330
2
100
AcDbEntity
  8
03-01
100
AcDbLine
 10
333.7634862145546
 20
1207.590386610732
 30
0.0
 11
333.7634862145546
 21
1214.590385895476
 31
0.0
  0
LINE
  5
28A
330
2
100
AcDbEntity
  8
03-01
100
AcDbLine
 10
334.6634865483406
 20
1207.590386610732
 30
0.0
 11
333.7634862145546
 21
1207.590386610732
 31
0.0
  0
LINE
  5
28B
330
2
100
AcDbEntity
  8
03-01
100
AcDbLine
 10
334.6634865483406
 20
1207.590386610732
 30
0.0
 11
334.6634865483406
 21
1214.590385895476
 31
0.0
  0
LINE
  5
28C
330
2
100
AcDbEntity
  8
03-01
100
AcDbLine
 10
348.2787148395488
 20
1404.549658055181
 30
0.0
 11
348.2525334219146
 21
1402.549658055181
 31
0.0
  0
LINE
  5
28D
330
2
100
AcDbEntity
  8
03-01
100
AcDbLine
 10
273.8688964714701
 20
1404.549658055181
 30
0.0
 11
272.8688964584318
 21
1405.54965806822
 31
0.0
  0
LINE
  5
28E
330
2
100
AcDbEntity
  8
03-01
100
AcDbLine
 10
275.8688964714703
 20
1402.549658055181
 30
0.0
 11
348.2525334219146
 21
1402.549658055181
 31
0.0
  0
LINE
  5
28F
330
2
100
AcDbEntity
  8
03-01
100
AcDbLine
 10
273.8688964714701
 20
1404.549658055181
 30
0.0
 11
275.8688964714703
 21
1402.549658055181
 31
0.0
  0
LINE
  5
290
330
2
100
AcDbEntity
  8
03-01
100
AcDbLine
 10
272.8688964584318
 20
1405.54965806822
 30
0.0
 11
271.66889651922
 21
1404.549658055181
 31
0.0
  0
LINE
  5
291
330
2
100
AcDbEntity
  8
03-01
100
AcDbLine
 10
272.8688964584318
 20
1406.04965806822
 30
0.0
 11
272.8688964584318
 21
1405.54965806822
 31
0.0
  0
LINE
  5
292
330
2
100
AcDbEntity
  8
03-01
100
AcDbLine
 10
287.1880215784671
 20
1260.090378862128
 30
0.0
 11
289.4309630525438
 21
1260.090378862128
 31
0.0
  0
ARC
  5
293
330
2
100
AcDbEntity
  8
03-01
100
AcDbCircle
 10
272.8688964584318
 20
1408.638759921415
 30
0.0
 40
2.589101853194733
100
AcDbArc
 50
217.8622888068002
 51
322.1377111931998
  0
LINE
  5
294
330
2
100
AcDbEntity
  8
03-01
100
AcDbLine
 10
272.8688964584318
 20
1405.54965806822
 30
0.0
 11
272.8688964584318
 21
1406.04965806822
 31
0.0
  0
ARC
  5
295
330
2
100
AcDbEntity
  8
03-01
100
AcDbCircle
 10
349.415906427831
 20
1406.049657999302
 30
0.0
 40
1.0
100
AcDbArc
 50
1.999909506936968
 51
90.0000247333155
  0
LINE
  5
296
330
2
100
AcDbEntity
  8
03-01
100
AcDbLine
 10
333.7634862145546
 20
1207.590386610732
 30
0.0
 11
333.4634848615291
 21
1206.090376120315
 31
0.0
  0
LINE
  5
297
330
2
100
AcDbEntity
  8
03-01
100
AcDbLine
 10
334.9634841760757
 20
1206.090376120315
 30
0.0
 11
334.6634865483406
 21
1207.590386610732
 31
0.0
  0
LINE
  5
298
330
2
100
AcDbEntity
  8
03-01
100
AcDbLine
 10
345.7186313377596
 20
1236.88644812654
 30
0.0
 11
299.6406895437915
 21
1236.88644812654
 31
0.0
  0
LINE
  5
299
330
2
100
AcDbEntity
  8
03-01
100
AcDbLine
 10
345.7644488186192
 20
1240.38644812654
 30
0.0
 11
301.9245098964272
 21
1240.38644812654
 31
0.0
  0
LINE
  5
29A
330
2
100
AcDbEntity
  8
03-01
100
AcDbLine
 10
299.6406895437915
 20
1236.88644812654
 30
0.0
 11
289.4309630525438
 21
1260.090378862128
 31
0.0
  0
LINE
  5
29B
330
2
100
AcDbEntity
  8
03-01
100
AcDbLine
 10
301.9245098964272
 20
1240.38644812654
 30
0.0
 11
290.2579486358283
 21
1266.901367957694
 31
0.0
  0
LINE
  5
29C
330
2
100
AcDbEntity
  8
02-01
100
AcDbLine
 10
329.3895781716468
 20
1206.916734915481
 30
0.0
 11
339.0373945912483
 21
1206.916734915481
 31
0.0
  0
ARC
  5
29D
330
2
100
AcDbEntity
  8
03-01
100
AcDbCircle
 10
251.629886045117
 20
1397.049658055182
 30
0.0
 40
0.5000000000001137
100
AcDbArc
 50
181.0000000000278
 51
270.0
  0
LINE
  5
29E
330
2
100
AcDbEntity
  8
03-01
100
AcDbLine
 10
254.5832646526867
 20
1396.549657675202
 30
0.0
 11
251.6298875888945
 21
1396.549657675202
 31
0.0
  0
LINE
  5
29F
330
2
100
AcDbEntity
  8
03-01
100
AcDbLine
 10
250.998897918141
 20
1404.549658055181
 30
0.0
 11
254.4788964769007
 21
1404.549658055181
 31
0.0
  0
LINE
  5
2A0
330
2
100
AcDbEntity
  8
03-01
100
AcDbLine
 10
251.1299610814215
 20
1397.040931730295
 30
0.0
 11
250.998897918141
 21
1404.549658055181
 31
0.0
  0
LINE
  5
2A1
330
2
100
AcDbEntity
  8
03-01
100
AcDbLine
 10
278.8425576618077
 20
1214.590385895476
 30
0.0
 11
278.253989734328
 21
1259.551108222709
 31
0.0
  0
ARC
  5
2A2
330
2
100
AcDbEntity
  8
03-01
100
AcDbCircle
 10
281.2537320246877
 20
1259.590379935012
 30
0.0
 40
3.000000000000047
100
AcDbArc
 50
90.0
 51
180.7499999999959
  0
LINE
  5
2A3
330
2
100
AcDbEntity
  8
03-01
100
AcDbLine
 10
281.2537313183906
 20
1262.590378862128
 30
0.0
 11
288.2142025891846
 21
1262.590378862128
 31
0.0
  0
LINE
  5
2A4
330
2
100
AcDbEntity
  8
03-01
100
AcDbLine
 10
290.2579486358283
 20
1266.901367957694
 30
0.0
 11
289.8050072828975
 21
1301.501597753686
 31
0.0
  0
LINE
  5
2A5
330
2
100
AcDbEntity
  8
03-01
100
AcDbLine
 10
288.2142025891846
 20
1262.590378862128
 30
0.0
 11
287.7051871946217
 21
1301.474109631286
 31
0.0
  0
LINE
  5
2A6
330
2
100
AcDbEntity
  8
03-01
100
AcDbLine
 10
348.3787148395488
 20
1404.549658055181
 30
0.0
 11
345.4336652728834
 21
1214.617874028818
 31
0.0
  0
LINE
  5
2A7
330
2
100
AcDbEntity
  8
03-01
100
AcDbLine
 10
350.478894766831
 20
1404.549658055181
 30
0.0
 11
347.533485361016
 21
1214.590385895476
 31
0.0
  0
LINE
  5
2A8
330
2
100
AcDbEntity
  8
03-01
100
AcDbLine
 10
347.533485361016
 20
1214.590385895476
 30
0.0
 11
278.8425576618079
 21
1214.590385895476
 31
0.0
  0
ARC
  5
2A9
330
2
100
AcDbEntity
  8
03-01
100
AcDbCircle
 10
282.7056152274096
 20
1301.408667135143
 30
0.0
 40
7.100000000000038
100
AcDbArc
 50
0.7499999999959118
 51
15.72008221837914
  0
ARC
  5
2AA
330
2
100
AcDbEntity
  8
03-01
100
AcDbCircle
 10
282.7056152274096
 20
1301.408667135143
 30
0.0
 40
5.000000000000039
100
AcDbArc
 50
0.7499999999959118
 51
15.72008221837914
  0
LINE
  5
2AB
330
2
100
AcDbEntity
  8
03-01
100
AcDbLine
 10
287.1880215784671
 20
1214.590385895476
 30
0.0
 11
287.1880215784671
 21
1260.090378862128
 31
0.0
  0
LINE
  5
2AC
330
2
100
AcDbEntity
  8
03-01
100
AcDbLine
 10
285.1880215784671
 20
1214.590385895476
 30
0.0
 11
285.1880215784671
 21
1260.590374809013
 31
0.0
  0
LINE
  5
2AD
330
2
100
AcDbEntity
  8
03-01
100
AcDbLine
 10
280.8177405891464
 20
1262.558529437334
 30
0.0
 11
280.0882527859468
 21
1214.620817191428
 31
0.0
  0
LINE
  5
2AE
330
2
100
AcDbEntity
  8
03-01
100
AcDbLine
 10
282.7880219301345
 20
1260.590374809013
 30
0.0
 11
282.088021256602
 21
1214.590385895476
 31
0.0
  0
LINE
  5
2AF
330
2
100
AcDbEntity
  8
03-01
100
AcDbLine
 10
285.1880215784671
 20
1260.590374809013
 30
0.0
 11
282.7880219301345
 21
1260.590374809013
 31
0.0
  0
LINE
  5
2B0
330
2
100
AcDbEntity
  8
03-01
100
AcDbLine
 10
348.6978583714129
 20
1303.536907177673
 30
0.0
 11
287.230077022383
 21
1303.536907177673
 31
0.0
  0
SPLINE
  5
2B1
330
2
100
AcDbEntity
  8
03-01
100
AcDbSpline
210
0.0
220
0.0
230
1.0
 70
     8
 71
     3
 72
    12
 73
     8
 74
     0
 42
0.0000000001
 43
0.0000000001
 40
0.0
 40
0.0
 40
0.0
 40
0.0
 40
0.4970186212892235
 40
0.4970186212892235
 40
0.9135240146987644
 40
0.9135240146987644
 40
1.0
 40
1.0
 40
1.0
 40
1.0
 10
289.5400528028641
 20
1303.332325895739
 30
0.0
 10
289.4156985606239
 20
1303.774135702781
 30
0.0
 10
289.2505990287605
 20
1304.196151059926
 30
0.0
 10
288.8849157050962
 20
1304.924973828995
 30
0.0
 10
288.690709166854
 20
1305.246049508993
 30
0.0
 10
288.4294579983043
 20
1305.610266922624
 30
0.0
 10
288.3835363271558
 20
1305.672133504033
 30
0.0
 10
288.3366184202018
 20
1305.733225267805
 30
0.0
  0
SPLINE
  5
2B2
330
2
100
AcDbEntity
  8
03-01
100
AcDbSpline
210
0.0
220
0.0
230
1.0
 70
     8
 71
     3
 72
    10
 73
     6
 74
     0
 42
0.0000000001
 43
0.0000000001
 40
0.0
 40
0.0
 40
0.0
 40
0.0
 40
0.5
 40
0.5
 40
1.0
 40
1.0
 40
1.0
 40
1.0
 10
287.5185994354762
 20
1302.763356403168
 30
0.0
 10
287.4301837725322
 20
1303.077482453724
 30
0.0
 10
287.3138746322661
 20
1303.374223027901
 30
0.0
 10
287.0303748131295
 20
1303.937682602816
 30
0.0
 10
286.861584740571
 20
1304.206114187797
 30
0.0
 10
286.6711104336011
 20
1304.454130608849
 30
0.0
  0
ARC
  5
2B3
330
2
100
AcDbEntity
  8
03-01
100
AcDbCircle
 10
282.7056152274096
 20
1301.408667135143
 30
0.0
 40
7.100000000000079
100
AcDbArc
 50
37.52392776271982
 51
64.62109967027005
  0
ARC
  5
2B4
330
2
100
AcDbEntity
  8
03-01
100
AcDbCircle
 10
282.7056152274096
 20
1301.408667135143
 30
0.0
 40
5.000000000000079
100
AcDbArc
 50
37.52392776271982
 51
64.62109967027005
  0
LINE
  5
2B5
330
2
100
AcDbEntity
  8
03-01
100
AcDbLine
 10
285.7486926787871
 20
1307.823465069618
 30
0.0
 11
259.7567356335066
 21
1320.153632631061
 31
0.0
  0
LINE
  5
2B6
330
2
100
AcDbEntity
  8
03-01
100
AcDbLine
 10
284.8486271431805
 20
1305.926129561172
 30
0.0
 11
262.5249498268725
 21
1316.516124051318
 31
0.0
  0
LWPOLYLINE
  5
2B7
330
2
100
AcDbEntity
  8
03-01
100
AcDbPolyline
 90
        4
 70
     0
 43
0.0
 10
262.5249498268725
 20
1316.516124051318
 10
261.5108773788573
 20
1316.997178238139
 10
260.4857966980101
 20
1317.483462732539
 10
259.4547220250727
 20
1317.972585898147
  0
LINE
  5
2B8
330
2
100
AcDbEntity
  8
03-01
100
AcDbLine
 10
348.8945611585727
 20
1318.563044410453
 30
0.0
 11
258.3043608793029
 21
1318.563044410453
 31
0.0
  0
LINE
  5
2B9
330
2
100
AcDbEntity
  8
03-01
100
AcDbLine
 10
259.4547220250727
 20
1317.972585898147
 30
0.0
 11
258.860325880921
 21
1318.254560571418
 31
0.0
  0
ARC
  5
2BA
330
2
100
AcDbEntity
  8
03-01
100
AcDbCircle
 10
261.0033369655643
 20
1322.772026245267
 30
0.0
 40
2.900000000000078
100
AcDbArc
 50
180.7474394900075
 51
244.6210996702776
  0
ARC
  5
2BB
330
2
100
AcDbEntity
  8
03-01
100
AcDbCircle
 10
261.0033369655643
 20
1322.772026245267
 30
0.0
 40
5.000000000000079
100
AcDbArc
 50
180.7474394900075
 51
244.6210996702776
  0
LINE
  5
2BC
330
2
100
AcDbEntity
  8
03-01
100
AcDbLine
 10
258.1035834183914
 20
1322.734198332426
 30
0.0
 11
256.579075177904
 21
1404.549658055181
 31
0.0
  0
LINE
  5
2BD
330
2
100
AcDbEntity
  8
03-01
100
AcDbLine
 10
256.0037621041896
 20
1322.706804018722
 30
0.0
 11
254.4788964769007
 21
1404.549658055181
 31
0.0
  0
LINE
  5
2BE
330
2
100
AcDbEntity
  8
03-01
100
AcDbLine
 10
254.4788964769006
 20
1404.549658055181
 30
0.0
 11
350.4788973113658
 21
1404.549658055181
 31
0.0
  0
LINE
  5
2BF
330
2
100
AcDbEntity
  8
03-01
100
AcDbLine
 10
252.8793723067404
 20
1393.693925569529
 30
0.0
 11
252.8793723067404
 21
1396.549657675202
 31
0.0
  0
ARC
  5
2C0
330
2
100
AcDbEntity
  8
03-01
100
AcDbCircle
 10
253.1793731249808
 20
1393.69392567583
 30
0.0
 40
0.3000000000000114
100
AcDbArc
 50
180.0
 51
268.0000000000087
  0
LINE
  5
2C1
330
2
100
AcDbEntity
  8
03-01
100
AcDbLine
 10
253.1689018687369
 20
1393.394108618374
 30
0.0
 11
254.6250954171832
 21
1393.343257550388
 31
0.0
  0
SPLINE
  5
2C2
330
2
100
AcDbEntity
  8
03-01
100
AcDbSpline
210
0.0
220
0.0
230
1.0
 70
    24
 71
     3
 72
     8
 73
     4
 74
     0
 42
0.0000000001
 43
0.0000000001
 40
0.0
 40
0.0
 40
0.0
 40
0.0
 40
0.4052512809765209
 40
0.4052512809765209
 40
0.4052512809765209
 40
0.4052512809765209
 10
348.9988879045607
 20
1407.049657999302
 30
0.0
 10
349.1519312495593
 20
1407.049657999302
 30
0.0
 10
349.3049745945575
 20
1407.049657999302
 30
0.0
 10
349.4159059961532
 20
1407.049657999302
 30
0.0
  0
SPLINE
  5
2C3
330
2
100
AcDbEntity
  8
03-01
100
AcDbSpline
210
0.0
220
0.0
230
1.0
 70
    24
 71
     3
 72
     9
 73
     5
 74
     0
 42
0.0000000001
 43
0.0000000001
 40
0.0
 40
0.0
 40
0.0
 40
0.0
 40
0.5000826474199004
 40
1.0
 40
1.0
 40
1.0
 40
1.0
 10
347.4086993118884
 20
1407.049657999302
 30
0.0
 10
347.7065257373746
 20
1407.049657999302
 30
0.0
 10
348.3020801462764
 20
1407.049657999302
 30
0.0
 10
348.7666442484822
 20
1407.049657999302
 30
0.0
 10
348.9988879045607
 20
1407.049657999302
 30
0.0
  0
LINE
  5
2C4
330
2
100
AcDbEntity
  8
03-01
100
AcDbLine
 10
274.912961889712
 20
1407.049657999302
 30
0.0
 11
347.4086993118884
 21
1407.049657999302
 31
0.0
  0
LINE
  5
2C5
330
2
100
AcDbEntity
  8
03-01
100
AcDbLine
 10
270.8248310271517
 20
1407.049657999302
 30
0.0
 11
253.9218879542318
 21
1407.049657999302
 31
0.0
  0
LINE
  5
2C6
330
2
100
AcDbEntity
  8
03-01
100
AcDbLine
 10
350.4152977411209
 20
1406.084555932621
 30
0.0
 11
350.4688951520667
 21
1404.549658055181
 31
0.0
  0
ARC
  5
2C7
330
2
100
AcDbEntity
  8
03-01
100
AcDbCircle
 10
253.9218879542318
 20
1406.049657999302
 30
0.0
 40
1.0
100
AcDbArc
 50
90.0
 51
177.9999452137483
  0
LINE
  5
2C8
330
2
100
AcDbEntity
  8
03-01
100
AcDbLine
 10
252.9224971605842
 20
1406.084558451623
 30
0.0
 11
252.8688957881854
 21
1404.549658055181
 31
0.0
  0
LINE
  5
2C9
330
2
100
AcDbEntity
  8
02-01
100
AcDbLine
 10
338.0525842985275
 20
1206.090376120315
 30
0.0
 11
330.3743866017225
 21
1206.090376120315
 31
0.0
  0
SPLINE
  5
2CA
330
2
100
AcDbEntity
  8
02-01
100
AcDbSpline
210
0.0
220
0.0
230
1.0
 70
     8
 71
     3
 72
    17
 73
    13
 74
     0
 42
0.0000000001
 43
0.0000000001
 40
0.0
 40
0.0
 40
0.0
 40
0.0
 40
0.0600543499638597
 40
0.1648234495280559
 40
0.2723661016691685
 40
0.3832407533501493
 40
0.4895330601902239
 40
0.5863420781005051
 40
0.6814648365672097
 40
0.7837911670314727
 40
0.8936449548470841
 40
1.0
 40
1.0
 40
1.0
 40
1.0
 10
339.4618131896617
 20
1209.767520766959
 30
0.0
 10
339.4723400689926
 20
1209.763698020654
 30
0.0
 10
339.5012318406149
 20
1209.75320622059
 30
0.0
 10
338.9079299071079
 20
1209.96969200955
 30
0.0
 10
337.7986102608679
 20
1210.312032484595
 30
0.0
 10
336.2294705327187
 20
1210.652723910578
 30
0.0
 10
334.4495904108905
 20
1210.805642504142
 30
0.0
 10
332.7351632297197
 20
1210.717211834354
 30
0.0
 10
331.2157456868285
 20
1210.455468853791
 30
0.0
 10
329.9582766513938
 20
1210.115430719025
 30
0.0
 10
329.0632426947713
 20
1209.805687958241
 30
0.0
 10
328.9544423740319
 20
1209.764164346898
 30
0.0
 10
328.9009225299718
 20
1209.743738513694
 30
0.0
  0
ARC
  5
2CB
330
2
100
AcDbEntity
  8
02-01
100
AcDbCircle
 10
338.0525851853105
 20
1207.090379935012
 30
0.0
 40
1.000000000000002
100
AcDbArc
 50
270.0
 51
349.9999999999949
  0
ARC
  5
2CC
330
2
100
AcDbEntity
  8
02-01
100
AcDbCircle
 10
330.3743859229559
 20
1207.090379935012
 30
0.0
 40
1.000000000000002
100
AcDbArc
 50
190.0000000000051
 51
270.0
  0
LINE
  5
2CD
330
2
100
AcDbEntity
  8
02-01
100
AcDbLine
 10
339.0373945912483
 20
1206.916734915481
 30
0.0
 11
339.537704803622
 21
1209.754139524207
 31
0.0
  0
LINE
  5
2CE
330
2
100
AcDbEntity
  8
02-01
100
AcDbLine
 10
328.8914044132593
 20
1209.742009978995
 30
0.0
 11
329.3895781716468
 21
1206.916734915481
 31
0.0
  0
ARC
  5
2CF
330
2
100
AcDbEntity
  8
02-01
100
AcDbCircle
 10
327.7834575360543
 20
1210.740385752425
 30
0.0
 40
1.0
100
AcDbArc
 50
181.0000015651618
 51
270.0
  0
LINE
  5
2D0
330
2
100
AcDbEntity
  8
02-01
100
AcDbLine
 10
326.716103099859
 20
1214.590385895476
 30
0.0
 11
326.7836098413747
 21
1210.722933318675
 31
0.0
  0
ARC
  5
2D1
330
2
100
AcDbEntity
  8
02-01
100
AcDbCircle
 10
340.6435133641955
 20
1210.740385752425
 30
0.0
 40
1.0
100
AcDbArc
 50
270.0
 51
358.9999984348382
  0
LINE
  5
2D2
330
2
100
AcDbEntity
  8
02-01
100
AcDbLine
 10
341.6433610588751
 20
1210.722933318675
 30
0.0
 11
341.710867800391
 21
1214.590385895476
 31
0.0
  0
LINE
  5
2D3
330
2
100
AcDbEntity
  8
02-01
100
AcDbLine
 10
327.7834575360543
 20
1209.740385752425
 30
0.0
 11
328.9009225299718
 21
1209.740385752425
 31
0.0
  0
LINE
  5
2D4
330
2
100
AcDbEntity
  8
02-01
100
AcDbLine
 10
339.4618131896617
 20
1209.740385752425
 30
0.0
 11
340.6435133641955
 21
1209.740385752425
 31
0.0
  0
LINE
  5
2D5
330
2
100
AcDbEntity
  8
03-01
100
AcDbLine
 10
106.8664116535105
 20
1132.404570955458
 30
0.0
 11
106.8664116535105
 21
1133.404570955458
 31
0.0
  0
LINE
  5
2D6
330
2
100
AcDbEntity
  8
03-01
100
AcDbLine
 10
100.8664116535105
 20
1132.404570955458
 30
0.0
 11
100.8664116535107
 21
1148.904570955457
 31
0.0
  0
LINE
  5
2D7
330
2
100
AcDbEntity
  8
03-01
100
AcDbLine
 10
123.8664116535107
 20
1132.404570955458
 30
0.0
 11
123.8664116535107
 21
1133.404570955458
 31
0.0
  0
LINE
  5
2D8
330
2
100
AcDbEntity
  8
03-01
100
AcDbLine
 10
100.8664116535105
 20
1132.404570955458
 30
0.0
 11
140.8664116535114
 21
1132.404570955458
 31
0.0
  0
LINE
  5
2D9
330
2
100
AcDbEntity
  8
03-01
100
AcDbLine
 10
100.8664116535105
 20
1133.404570955458
 30
0.0
 11
140.8664116535112
 21
1133.404570955458
 31
0.0
  0
LINE
  5
2DA
330
2
100
AcDbEntity
  8
03-01
100
AcDbLine
 10
134.8664116535114
 20
1132.404570955458
 30
0.0
 11
134.8664116535114
 21
1133.404570955458
 31
0.0
  0
LINE
  5
2DB
330
2
100
AcDbEntity
  8
03-01
100
AcDbLine
 10
140.8664116535114
 20
1132.404570955458
 30
0.0
 11
140.8664116535112
 21
1148.904570955457
 31
0.0
  0
LINE
  5
2DC
330
2
100
AcDbEntity
  8
03-01
100
AcDbLine
 10
117.8664116535112
 20
1132.404570955458
 30
0.0
 11
117.8664116535112
 21
1133.404570955458
 31
0.0
  0
ARC
  5
2DD
330
2
100
AcDbEntity
  8
03-01
100
AcDbCircle
 10
124.8664116535098
 20
1437.198570447699
 30
0.0
 40
1.0
100
AcDbArc
 50
180.0
 51
270.0
  0
LINE
  5
2DE
330
2
100
AcDbEntity
  8
03-01
100
AcDbLine
 10
123.8664116535098
 20
1437.198570447699
 30
0.0
 11
123.8664116535098
 21
1442.1985704477
 31
0.0
  0
LINE
  5
2DF
330
2
100
AcDbEntity
  8
03-01
100
AcDbLine
 10
134.8664116535106
 20
1437.198570447699
 30
0.0
 11
134.8664116535106
 21
1442.1985704477
 31
0.0
  0
ARC
  5
2E0
330
2
100
AcDbEntity
  8
03-01
100
AcDbCircle
 10
133.8664116535106
 20
1437.198570447699
 30
0.0
 40
1.0
100
AcDbArc
 50
270.0
 51
0.0
  0
LINE
  5
2E1
330
2
100
AcDbEntity
  8
03-01
100
AcDbLine
 10
133.8664116535106
 20
1436.198570447699
 30
0.0
 11
124.8664116535098
 21
1436.198570447699
 31
0.0
  0
ARC
  5
2E2
330
2
100
AcDbEntity
  8
03-01
100
AcDbCircle
 10
116.8664116535109
 20
1437.198570447699
 30
0.0
 40
1.0
100
AcDbArc
 50
270.0
 51
0.0
  0
LINE
  5
2E3
330
2
100
AcDbEntity
  8
03-01
100
AcDbLine
 10
117.8664116535109
 20
1437.198570447699
 30
0.0
 11
117.8664116535109
 21
1442.1985704477
 31
0.0
  0
LINE
  5
2E4
330
2
100
AcDbEntity
  8
03-01
100
AcDbLine
 10
106.8664116535101
 20
1437.198570447699
 30
0.0
 11
106.8664116535101
 21
1442.1985704477
 31
0.0
  0
ARC
  5
2E5
330
2
100
AcDbEntity
  8
03-01
100
AcDbCircle
 10
102.8664116535104
 20
1435.198570447699
 30
0.0
 40
2.0
100
AcDbArc
 50
180.0
 51
270.0
  0
LINE
  5
2E6
330
2
100
AcDbEntity
  8
03-01
100
AcDbLine
 10
100.8664116535104
 20
1443.1985704477
 30
0.0
 11
100.8664116535104
 21
1435.198570447699
 31
0.0
  0
ARC
  5
2E7
330
2
100
AcDbEntity
  8
03-01
100
AcDbCircle
 10
138.8664116535109
 20
1435.198570447699
 30
0.0
 40
2.0
100
AcDbArc
 50
270.0
 51
0.0
  0
LINE
  5
2E8
330
2
100
AcDbEntity
  8
03-01
100
AcDbLine
 10
140.8664116535109
 20
1443.198570447699
 30
0.0
 11
140.8664116535109
 21
1435.198570447699
 31
0.0
  0
ARC
  5
2E9
330
2
100
AcDbEntity
  8
03-01
100
AcDbCircle
 10
107.8664116535101
 20
1437.198570447699
 30
0.0
 40
1.0
100
AcDbArc
 50
180.0
 51
270.0
  0
LINE
  5
2EA
330
2
100
AcDbEntity
  8
03-01
100
AcDbLine
 10
107.8664116535101
 20
1436.198570447699
 30
0.0
 11
116.8664116535109
 21
1436.198570447699
 31
0.0
  0
LINE
  5
2EB
330
2
100
AcDbEntity
  8
03-01
100
AcDbLine
 10
102.8664116535104
 20
1433.198570447699
 30
0.0
 11
138.8664116535109
 21
1433.198570447699
 31
0.0
  0
LINE
  5
2EC
330
2
100
AcDbEntity
  8
03-01
100
AcDbLine
 10
100.8664116535104
 20
1443.1985704477
 30
0.0
 11
140.8664116535109
 21
1443.198570447699
 31
0.0
  0
LINE
  5
2ED
330
2
100
AcDbEntity
  8
03-01
100
AcDbLine
 10
100.8664116535106
 20
1442.1985704477
 30
0.0
 11
140.8664116535109
 21
1442.198570447699
 31
0.0
  0
LINE
  5
2EE
330
2
100
AcDbEntity
  8
03-01
100
AcDbLine
 10
163.0487197581214
 20
1198.594538325631
 30
0.0
 11
163.0487197581214
 21
1446.698570447701
 31
0.0
  0
LINE
  5
2EF
330
2
100
AcDbEntity
  8
0
100
AcDbLine
 10
162.8664116535109
 20
1187.6985704477
 30
0.0
 11
162.8664116535109
 21
1200.069858805054
 31
0.0
  0
LINE
  5
2F0
330
2
100
AcDbEntity
  8
0
100
AcDbLine
 10
78.86641165351097
 20
1187.6985704477
 30
0.0
 11
78.86641165351097
 21
1200.069858805054
 31
0.0
  0
LINE
  5
2F1
330
2
100
AcDbEntity
  8
04-01
100
AcDbLine
 10
162.2664116535103
 20
1445.898570447701
 30
0.0
 11
162.2664116535103
 21
1436.6985704477
 31
0.0
  0
LINE
  5
2F2
330
2
100
AcDbEntity
  8
04-01
100
AcDbLine
 10
163.0664116535103
 20
1446.698570447701
 30
0.0
 11
163.0664116535103
 21
1436.6985704477
 31
0.0
  0
LINE
  5
2F3
330
2
100
AcDbEntity
  8
04-01
100
AcDbLine
 10
162.2664116535103
 20
1436.6985704477
 30
0.0
 11
163.0664116535103
 21
1436.6985704477
 31
0.0
  0
LINE
  5
2F4
330
2
100
AcDbEntity
  8
04-01
100
AcDbLine
 10
162.2664116535103
 20
1445.898570447701
 30
0.0
 11
79.46641165351087
 21
1445.898570447701
 31
0.0
  0
LINE
  5
2F5
330
2
100
AcDbEntity
  8
04-01
100
AcDbLine
 10
79.46641165351087
 20
1445.898570447701
 30
0.0
 11
79.46641165351087
 21
1436.6985704477
 31
0.0
  0
LINE
  5
2F6
330
2
100
AcDbEntity
  8
04-01
100
AcDbLine
 10
78.66641165351092
 20
1446.698570447701
 30
0.0
 11
78.66641165351092
 21
1436.6985704477
 31
0.0
  0
LINE
  5
2F7
330
2
100
AcDbEntity
  8
04-01
100
AcDbLine
 10
163.0664116535103
 20
1446.698570447701
 30
0.0
 11
78.66641165351092
 21
1446.698570447701
 31
0.0
  0
LINE
  5
2F8
330
2
100
AcDbEntity
  8
04-01
100
AcDbLine
 10
79.46641165351087
 20
1436.6985704477
 30
0.0
 11
78.66641165351092
 21
1436.6985704477
 31
0.0
  0
INSERT
  5
2F9
330
2
100
AcDbEntity
  8
0
100
AcDbBlockReference
  2
schloss-024454-V
 10
120.8664116535109
 20
1117.404570955457
 30
0.0
  0
LINE
  5
31F
330
2
100
AcDbEntity
  8
03-01
100
AcDbLine
 10
234.2010104938331
 20
1443.198570447701
 30
0.0
 11
250.7010104938326
 21
1443.198570447701
 31
0.0
  0
LINE
  5
320
330
2
100
AcDbEntity
  8
03-01
100
AcDbLine
 10
249.7010104938326
 20
1433.198570447701
 30
0.0
 11
250.7010104938328
 21
1433.198570447701
 31
0.0
  0
LINE
  5
321
330
2
100
AcDbEntity
  8
03-01
100
AcDbLine
 10
235.201010493833
 20
1442.198570447701
 30
0.0
 11
249.7010104938326
 21
1442.198570447701
 31
0.0
  0
LINE
  5
322
330
2
100
AcDbEntity
  8
05-01
100
AcDbLine
 10
241.2010104938326
 20
1192.048570447701
 30
0.0
 11
241.2010104938326
 21
1197.348570447701
 31
0.0
  0
LINE
  5
323
330
2
100
AcDbEntity
  8
05-01
100
AcDbLine
 10
243.8510104938327
 20
1194.698570447701
 30
0.0
 11
238.5510104938325
 21
1194.698570447701
 31
0.0
  0
CIRCLE
  5
324
330
2
100
AcDbEntity
  8
03-01
100
AcDbCircle
 10
241.2010104938326
 20
1194.698570447701
 30
0.0
 40
1.649999999999999
  0
ARC
  5
325
330
2
100
AcDbEntity
  8
03-01
100
AcDbCircle
 10
235.257621168547
 20
1440.198570447701
 30
0.0
 40
2.0
100
AcDbArc
 50
65.00000000001856
 51
90.0
  0
ARC
  5
326
330
2
100
AcDbEntity
  8
03-01
100
AcDbCircle
 10
245.2010104938328
 20
1435.561891857304
 30
0.0
 40
2.0
100
AcDbArc
 50
0.0
 51
65.00000000001856
  0
LINE
  5
327
330
2
100
AcDbEntity
  8
03-01
100
AcDbLine
 10
236.1028576920284
 20
1442.011186021774
 30
0.0
 11
246.0462470173142
 21
1437.374507431377
 31
0.0
  0
LINE
  5
328
330
2
100
AcDbEntity
  8
0
100
AcDbLine
 10
235.2010104938326
 20
1188.191069945542
 30
0.0
 11
235.2010104938326
 21
1187.698570447701
 31
0.0
  0
LINE
  5
329
330
2
100
AcDbEntity
  8
0
100
AcDbLine
 10
234.2010104938328
 20
1187.698570447701
 30
0.0
 11
235.2010104938326
 21
1187.698570447701
 31
0.0
  0
LINE
  5
32A
330
2
100
AcDbEntity
  8
03-01
100
AcDbLine
 10
234.2010104938328
 20
1187.698570447701
 30
0.0
 11
245.8249081395579
 21
1191.515079616683
 31
0.0
  0
LINE
  5
32B
330
2
100
AcDbEntity
  8
03-01
100
AcDbLine
 10
250.7010104938326
 20
1443.198570447701
 30
0.0
 11
250.7010104938328
 21
1433.198570447701
 31
0.0
  0
LINE
  5
32C
330
2
100
AcDbEntity
  8
03-01
100
AcDbLine
 10
249.7010104938326
 20
1442.198570447701
 30
0.0
 11
249.7010104938326
 21
1433.198570447701
 31
0.0
  0
LINE
  5
32D
330
2
100
AcDbEntity
  8
03-01
100
AcDbLine
 10
235.201010493833
 20
1442.198570447701
 30
0.0
 11
235.2010104938326
 21
1188.191069945542
 31
0.0
  0
LINE
  5
32E
330
2
100
AcDbEntity
  8
03-01
100
AcDbLine
 10
234.2010104938328
 20
1442.198570447701
 30
0.0
 11
235.257621168547
 21
1442.198570447701
 31
0.0
  0
ARC
  5
32F
330
2
100
AcDbEntity
  8
03-01
100
AcDbCircle
 10
245.2010104938326
 20
1193.415277429454
 30
0.0
 40
2.0
100
AcDbArc
 50
288.1767149212869
 51
0.0
  0
LINE
  5
330
330
2
100
AcDbEntity
  8
03-01
100
AcDbLine
 10
234.2010104938331
 20
1443.198570447701
 30
0.0
 11
234.2010104938328
 21
1187.698570447701
 31
0.0
  0
LINE
  5
331
330
2
100
AcDbEntity
  8
03-01
100
AcDbLine
 10
247.2010104938328
 20
1218.983601669053
 30
0.0
 11
247.201010493833
 21
1435.561891857304
 31
0.0
  0
LINE
  5
332
330
2
100
AcDbEntity
  8
03-01
100
AcDbLine
 10
247.2010104938328
 20
1193.415277429454
 30
0.0
 11
247.2010104938328
 21
1198.077393643985
 31
0.0
  0
DIMENSION
  5
333
330
2
100
AcDbEntity
  8
09-01
100
AcDbDimension
280
     0
  2
*D11
 10
176.389699871993
 20
1029.604570955457
 30
0.0
 11
171.8896998719929
 21
1089.254570955457
 31
0.0
 71
     5
 42
119.3000000000002
 73
     0
 74
     0
 75
     0
  3
Wagner$0
100
AcDbAlignedDimension
 13
163.8664116535109
 23
1148.904570955457
 33
0.0
 14
154.566411653511
 24
1029.604570955457
 34
0.0
 50
90.0
100
AcDbRotatedDimension
1001
ACAD
1000
DSTYLE
1002
{
1070
    40
1040
2.0
1002
}
  0
DIMENSION
  5
340
330
2
100
AcDbEntity
  8
09-01
100
AcDbDimension
280
     0
  2
*D10
 10
163.8664116535109
 20
1158.868636420506
 30
0.0
 11
120.8664116535109
 21
1163.368636420506
 31
0.0
 71
     5
 42
86.0
 73
     0
 74
     0
 75
     0
  3
Wagner$0
100
AcDbAlignedDimension
 13
77.86641165351096
 23
1148.904570955457
 33
0.0
 14
163.8664116535109
 24
1148.904570955457
 34
0.0
100
AcDbRotatedDimension
1001
ACAD
1000
DSTYLE
1002
{
1070
    40
1040
2.0
1002
}
  0
INSERT
  5
34D
330
2
100
AcDbEntity
  8
09-01
100
AcDbBlockReference
 66
     1
  2
DIN A4
 10
-0.0000150244709971
 20
901.6806680985428
 30
0.0
 41
2.0
 42
2.0
 43
2.0
  0
ATTRIB
  5
3C0
330
34D
100
AcDbEntity
  8
06-99
100
AcDbText
 10
232.9908934783543
 20
954.0563414673124
 30
0.0
 40
8.0
  1
Desinfektionsmittelspender PP101e-7
 41
0.75
  7
ROMANS8
100
AcDbAttribute
280
     0
  2
TEILE
 70
     0
280
     0
  0
ATTRIB
  5
3C1
330
34D
100
AcDbEntity
  8
06-99
100
AcDbText
 10
232.9908934783543
 20
940.2716210707403
 30
0.0
 40
8.0
  1
abschließbar
 41
0.9
  7
ROMANS8
100
AcDbAttribute
280
     0
  2
TEILE2
 70
     0
280
     0
  0
ATTRIB
  5
3C2
330
34D
100
AcDbEntity
  8
06-99
100
AcDbText
 10
382.6947724234291
 20
992.3473307394161
 30
0.0
 40
6.75
  1
1:2
  7
ROMANS8
100
AcDbAttribute
280
     0
  2
:
 70
     0
280
     0
  0
ATTRIB
  5
3C3
330
34D
100
AcDbEntity
  8
06-99
100
AcDbText
 10
185.9941355987347
 20
956.5640350088106
 30
0.0
 40
5.0
  1
Häberle
 41
0.9
  7
ROMANS8
100
AcDbAttribute
280
     0
  2
NAME
 70
     0
280
     0
  0
ATTRIB
  5
3C4
330
34D
100
AcDbEntity
  8
06-99
100
AcDbText
 10
158.986292903788
 20
956.6031344209696
 30
0.0
 40
5.0
  1
02.11.2020
 50
359.9144597696136
 41
0.5691052222933153
  7
ROMANS8
 72
     5
 11
181.4794742408775
 21
956.5695530060802
 31
0.0
100
AcDbAttribute
280
     0
  2
DATUM
 70
     0
280
     0
  0
ATTRIB
  5
3C5
330
34D
100
AcDbEntity
  8
06-99
100
AcDbText
 10
357.0126879343165
 20
916.6664636733257
 30
0.0
 40
5.98752
  1
727817
  7
ROMANS8
100
AcDbAttribute
280
     0
  2
ID.NR
 70
     0
280
     0
  0
ATTRIB
  5
3C6
330
34D
100
AcDbEntity
  8
06-99
100
AcDbText
 10
233.4625325114211
 20
977.013997361637
 30
0.0
 40
6.0
  1

 41
0.9
  7
ROMANS8
100
AcDbAttribute
280
     0
  2
LÄNGE
 70
     0
280
     0
  0
ATTRIB
  5
3C7
330
34D
100
AcDbEntity
  8
06-99
100
AcDbText
 10
300.3616098235395
 20
977.0368718136378
 30
0.0
 40
6.0
  1

 41
0.9
  7
ROMANS8
100
AcDbAttribute
280
     0
  2
BREITE
 70
     0
280
     0
  0
ATTRIB
  5
3C8
330
34D
100
AcDbEntity
  8
06-99
100
AcDbText
 10
381.2181842534637
 20
977.0139974060803
 30
0.0
 40
6.187500000000001
  1

  7
ROMANS8
100
AcDbAttribute
280
     0
  2
1.0
 70
     0
280
     0
  0
ATTRIB
  5
3C9
330
34D
100
AcDbEntity
  8
06-99
100
AcDbText
 10
328.2555712028054
 20
992.3473307394161
 30
0.0
 40
6.0
  1

  7
ROMANS8
 72
     1
 11
328.2555712028054
 21
992.3473307394161
 31
0.0
100
AcDbAttribute
280
     0
  2
IV
 70
     0
280
     0
  0
ATTRIB
  5
3CA
330
34D
100
AcDbEntity
  8
06-99
100
AcDbText
 10
246.5494810722316
 20
992.3473307394161
 30
0.0
 40
6.75
  1
1.4404
  7
ROMANS8
100
AcDbAttribute
280
     0
  2
1.4301
 70
     0
280
     0
  0
ATTRIB
  5
3CB
330
34D
100
AcDbEntity
  8
06-99
100
AcDbText
 10
292.0012677737602
 20
916.6894572814562
 30
0.0
 40
6.336
  1

 41
0.9000000000000001
  7
ROMANS8
100
AcDbAttribute
280
     0
  2
AUFTRAGS.NR.
 70
     0
280
     0
  0
ATTRIB
  5
3CC
330
34D
100
AcDbEntity
  8
06-99
100
AcDbText
 10
233.0
 20
916.6806640727482
 30
0.0
 40
6.336
  1
WPS7000-1
 41
0.9000000000000001
  7
ROMANS8
100
AcDbAttribute
280
     0
  2
SONDER-NR
 70
     0
280
     0
  0
ATTRIB
  5
3CD
330
34D
100
AcDbEntity
  8
06-99
100
AcDbText
 10
92.99950199001655
 20
914.8842842112681
 30
0.0
 40
3.0
  1

 41
0.9
  7
ROMANS8
100
AcDbAttribute
280
     0
  2
ERSETZT.DURCH
 70
     0
280
     0
  0
ATTRIB
  5
3CE
330
34D
100
AcDbEntity
  8
06-99
100
AcDbText
 10
42.998935560397
 20
914.8755768684932
 30
0.0
 40
3.0
  1

 41
0.9
  7
ROMANS8
100
AcDbAttribute
280
     0
  2
ERSETZT.FÜR
 70
     0
280
     0
  0
ATTRIB
  5
3CF
330
34D
100
AcDbEntity
  8
06-99
100
AcDbText
 10
199.9461452928751
 20
997.0176863527631
 30
0.0
 40
2.574
  1
DIN A4
  7
ROMANS8
 72
     1
 11
206.5037167214466
 21
997.0176863527631
 31
0.0
100
AcDbAttribute
280
     0
  2
FORMAT
 70
     0
280
     0
  0
ATTRIB
  5
3D0
330
34D
100
AcDbEntity
  8
06-99
100
AcDbText
 10
191.9748779948125
 20
976.0745987404771
 30
0.0
 40
4.68
  1
DIN 2768
  7
ROMANS8
 72
     1
 11
208.0205922805268
 21
976.0745987404771
 31
0.0
100
AcDbAttribute
280
     0
  2
NORM2
 70
     0
280
     0
  0
ATTRIB
  5
3D1
330
34D
100
AcDbEntity
  8
06-99
100
AcDbText
 10
185.6234494233839
 20
983.7412654071449
 30
0.0
 40
4.68
  1
DIN 6930-M
  7
ROMANS8
 72
     1
 11
207.0177351376696
 21
983.7412654071449
 31
0.0
100
AcDbAttribute
280
     0
  2
NORM1
 70
     0
280
     0
  0
SEQEND
  5
3D2
330
34D
100
AcDbEntity
  8
09-01
  0
DIMENSION
  5
3D3
330
2
100
AcDbEntity
  8
09-01
100
AcDbDimension
280
     0
  2
*D9
 10
219.0166145665862
 20
1448.198570447701
 30
0.0
 11
214.5166145665859
 21
1317.948570447701
 31
0.0
 71
     5
 42
260.5
 73
     0
 74
     0
 75
     0
  3
Wagner$0
100
AcDbAlignedDimension
 13
239.2010104938326
 23
1187.698570447701
 33
0.0
 14
234.2010104937965
 24
1448.198570447701
 34
0.0
 50
90.0
100
AcDbRotatedDimension
1001
ACAD
1000
DSTYLE
1002
{
1070
    40
1040
2.0
1002
}
  0
LINE
  5
3E0
330
2
100
AcDbEntity
  8
09-01
100
AcDbLine
 10
234.201010493796
 20
1446.698570447701
 30
0.0
 11
234.2010104937965
 21
1448.198570447701
 31
0.0
  0
LINE
  5
3E1
330
2
100
AcDbEntity
  8
09-01
100
AcDbLine
 10
353.5010104937962
 20
1446.698570447701
 30
0.0
 11
353.5010104937962
 21
1448.198570447701
 31
0.0
  0
LINE
  5
3E2
330
2
100
AcDbEntity
  8
0
100
AcDbLine
 10
351.2010104938642
 20
1206.986552042438
 30
0.0
 11
242.416547737501
 21
1187.804916176615
 31
0.0
  0
LINE
  5
3E3
330
2
100
AcDbEntity
  8
05-01
100
AcDbLine
 10
238.5510104938325
 20
1194.698570447701
 30
0.0
 11
243.8510104938325
 21
1194.698570447701
 31
0.0
  0
LINE
  5
3E4
330
2
100
AcDbEntity
  8
05-01
100
AcDbLine
 10
241.2010104938326
 20
1192.048570447701
 30
0.0
 11
241.2010104938326
 21
1197.348570447701
 31
0.0
  0
CIRCLE
  5
3E5
330
2
100
AcDbEntity
  8
01-01
100
AcDbCircle
 10
241.2010104938326
 20
1194.698570447701
 30
0.0
 40
1.649999999999999
  0
ARC
  5
3E6
330
2
100
AcDbEntity
  8
0
100
AcDbCircle
 10
241.2010104938326
 20
1194.698570447701
 30
0.0
 40
7.0
100
AcDbArc
 50
180.0
 51
280.0000000000035
  0
LINE
  5
3E7
330
2
100
AcDbEntity
  8
03-01
100
AcDbLine
 10
352.7010104937962
 20
1446.698570447716
 30
0.0
 11
352.701010493831
 21
1206.986552042437
 31
0.0
  0
LINE
  5
3E8
330
2
100
AcDbEntity
  8
0
100
AcDbLine
 10
353.5010104937962
 20
1446.698570447701
 30
0.0
 11
353.501010493831
 21
1206.986552042437
 31
0.0
  0
LINE
  5
3E9
330
2
100
AcDbEntity
  8
0
100
AcDbLine
 10
234.2010104937962
 20
1446.698570447701
 30
0.0
 11
234.2010104938326
 21
1194.698570447701
 31
0.0
  0
LINE
  5
3EA
330
2
100
AcDbEntity
  8
0
100
AcDbLine
 10
353.501010493831
 20
1206.986552042437
 30
0.0
 11
351.2010104938644
 21
1206.986552042438
 31
0.0
  0
LINE
  5
3EB
330
2
100
AcDbEntity
  8
0
100
AcDbLine
 10
234.2010104937962
 20
1446.698570447701
 30
0.0
 11
353.5010104937962
 21
1446.698570447701
 31
0.0
  0
INSERT
  5
3EC
330
2
100
AcDbEntity
  8
0
100
AcDbBlockReference
  2
schloss-024454-S
 10
265.701010493796
 20
1448.198570447704
 30
0.0
 50
90.0
  0
LINE
  5
421
330
2
100
AcDbEntity
  8
04-01
100
AcDbLine
 10
258.2010104937967
 20
1446.698570447701
 30
0.0
 11
258.2010104937962
 21
1445.898570447702
 31
0.0
  0
LINE
  5
422
330
2
100
AcDbEntity
  8
04-01
100
AcDbLine
 10
332.2010104937962
 20
1446.698570447701
 30
0.0
 11
332.2010104937962
 21
1445.898570447702
 31
0.0
  0
ARC
  5
423
330
2
100
AcDbEntity
  8
04-01
100
AcDbCircle
 10
334.2010104937962
 20
1447.898570447702
 30
0.0
 40
2.0
100
AcDbArc
 50
216.86989764587
 51
270.0
  0
ARC
  5
424
330
2
100
AcDbEntity
  8
04-01
100
AcDbCircle
 10
342.2010104937962
 20
1443.898570447702
 30
0.0
 40
2.0
100
AcDbArc
 50
0.0
 51
90.0
  0
ARC
  5
425
330
2
100
AcDbEntity
  8
04-01
100
AcDbCircle
 10
342.2010104937962
 20
1438.698570447701
 30
0.0
 40
2.0
100
AcDbArc
 50
270.0
 51
0.0
  0
ARC
  5
426
330
2
100
AcDbEntity
  8
04-01
100
AcDbCircle
 10
248.2010104937962
 20
1438.698570447701
 30
0.0
 40
2.0
100
AcDbArc
 50
180.0
 51
270.0
  0
ARC
  5
427
330
2
100
AcDbEntity
  8
04-01
100
AcDbCircle
 10
248.2010104937962
 20
1443.898570447702
 30
0.0
 40
2.0
100
AcDbArc
 50
90.0
 51
180.0
  0
ARC
  5
428
330
2
100
AcDbEntity
  8
04-01
100
AcDbCircle
 10
256.2010104937962
 20
1447.898570447702
 30
0.0
 40
2.0
100
AcDbArc
 50
270.0
 51
323.1301023541299
  0
LINE
  5
429
330
2
100
AcDbEntity
  8
03-01
100
AcDbLine
 10
332.6010104937963
 20
1446.698570447701
 30
0.0
 11
257.8010104937961
 21
1446.698570447701
 31
0.0
  0
LINE
  5
42A
330
2
100
AcDbEntity
  8
04-01
100
AcDbLine
 10
332.2010104937962
 20
1445.898570447702
 30
0.0
 11
258.2010104937962
 21
1445.898570447702
 31
0.0
  0
LINE
  5
42B
330
2
100
AcDbEntity
  8
04-01
100
AcDbLine
 10
256.2010104937962
 20
1445.898570447702
 30
0.0
 11
248.2010104937962
 21
1445.898570447702
 31
0.0
  0
LINE
  5
42C
330
2
100
AcDbEntity
  8
04-01
100
AcDbLine
 10
344.2010104937962
 20
1443.898570447702
 30
0.0
 11
344.2010104937962
 21
1438.698570447701
 31
0.0
  0
LINE
  5
42D
330
2
100
AcDbEntity
  8
04-01
100
AcDbLine
 10
342.2010104937962
 20
1445.898570447702
 30
0.0
 11
334.2010104937962
 21
1445.898570447702
 31
0.0
  0
LINE
  5
42E
330
2
100
AcDbEntity
  8
04-01
100
AcDbLine
 10
246.2010104937962
 20
1438.698570447701
 30
0.0
 11
246.2010104937962
 21
1443.898570447702
 31
0.0
  0
LINE
  5
42F
330
2
100
AcDbEntity
  8
04-01
100
AcDbLine
 10
342.2010104937962
 20
1436.698570447701
 30
0.0
 11
248.2010104937962
 21
1436.698570447701
 31
0.0
  0
LINE
  5
430
330
2
100
AcDbEntity
  8
05-01
100
AcDbLine
 10
237.5510104938325
 20
1194.698570447701
 30
0.0
 11
244.8510104938327
 21
1194.698570447701
 31
0.0
  0
LINE
  5
431
330
2
100
AcDbEntity
  8
05-01
100
AcDbLine
 10
241.2010104938326
 20
1191.0485704477
 30
0.0
 11
241.2010104938326
 21
1198.3485704477
 31
0.0
  0
LINE
  5
432
330
2
100
AcDbEntity
  8
0
100
AcDbLine
 10
353.5010104937962
 20
1448.198570447701
 30
0.0
 11
234.2010104937965
 21
1448.198570447701
 31
0.0
  0
LINE
  5
433
330
2
100
AcDbEntity
  8
0
100
AcDbLine
 10
353.5010104937962
 20
1446.698570447701
 30
0.0
 11
234.201010493796
 21
1446.698570447701
 31
0.0
  0
CIRCLE
  5
434
330
2
100
AcDbEntity
  8
01-01
100
AcDbCircle
 10
241.2010104938326
 20
1194.698570447701
 30
0.0
 40
1.649999999999999
  0
LINE
  5
435
330
2
100
AcDbEntity
  8
05-01
100
AcDbLine
 10
243.8510104938327
 20
1194.698570447701
 30
0.0
 11
238.5510104938325
 21
1194.698570447701
 31
0.0
  0
LINE
  5
436
330
2
100
AcDbEntity
  8
05-01
100
AcDbLine
 10
241.2010104938326
 20
1192.048570447701
 30
0.0
 11
241.2010104938326
 21
1197.3485704477
 31
0.0
  0
CIRCLE
  5
437
330
2
100
AcDbEntity
  8
01-01
100
AcDbCircle
 10
241.2010104938326
 20
1194.698570447701
 30
0.0
 40
1.649999999999999
  0
DIMENSION
  5
438
330
2
100
AcDbEntity
  8
09-01
100
AcDbDimension
280
     0
  2
*D8
 10
353.501010493831
 20
1164.896518761325
 30
0.0
 11
293.8510104938318
 21
1169.396518761325
 31
0.0
 71
     5
 42
119.2999999999983
 73
     0
 74
     0
 75
     0
  3
Wagner$0
100
AcDbAlignedDimension
 13
234.2010104938326
 23
1187.698570447701
 33
0.0
 14
353.501010493831
 24
1206.986552042437
 34
0.0
 50
180.0
100
AcDbRotatedDimension
1001
ACAD
1000
DSTYLE
1002
{
1070
   271
1070
     1
1070
    40
1040
2.0
1002
}
  0
DIMENSION
  5
445
330
2
100
AcDbEntity
  8
09-01
100
AcDbDimension
280
     0
  2
*D7
 10
368.9427720743887
 20
1206.986552042437
 30
0.0
 11
364.4427720743885
 21
1327.592561245069
 31
0.0
 71
     5
 42
241.2120184052637
 73
     0
 74
     0
 75
     0
  3
Wagner$0
100
AcDbAlignedDimension
 13
353.5010104937962
 23
1448.198570447701
 33
0.0
 14
353.501010493831
 24
1206.986552042437
 34
0.0
 50
90.0
100
AcDbRotatedDimension
1001
ACAD
1000
DSTYLE
1002
{
1070
   271
1070
     1
1070
    40
1040
2.0
1002
}
  0
INSERT
  5
452
330
2
100
AcDbEntity
  8
0
100
AcDbBlockReference
  2
schloss-024454-D
 10
120.8664116535107
 20
1448.198570447701
 30
0.0
 50
180.0
  0
LINE
  5
46F
330
2
100
AcDbEntity
  8
04-01
100
AcDbLine
 10
132.1247419027086
 20
1110.904570955457
 30
0.0
 11
140.2076456713635
 21
1124.904570955457
 31
0.0
  0
LINE
  5
470
330
2
100
AcDbEntity
  8
04-01
100
AcDbLine
 10
109.608081404313
 20
1110.904570955457
 30
0.0
 11
101.5251776356583
 21
1124.904570955457
 31
0.0
  0
ARC
  5
471
330
2
100
AcDbEntity
  8
04-01
100
AcDbCircle
 10
120.8664116535107
 20
1117.404570955457
 30
0.0
 40
13.0
100
AcDbArc
 50
210.0
 51
330.0
  0
ARC
  5
472
330
2
100
AcDbEntity
  8
04-01
100
AcDbCircle
 10
160.2664116535108
 20
1048.904570955457
 30
0.0
 40
2.0
100
AcDbArc
 50
0.0
 51
90.0
  0
ARC
  5
473
330
2
100
AcDbEntity
  8
04-01
100
AcDbCircle
 10
160.266411653511
 20
1126.904570955457
 30
0.0
 40
2.0
100
AcDbArc
 50
270.0
 51
0.0
  0
LINE
  5
474
330
2
100
AcDbEntity
  8
04-01
100
AcDbLine
 10
162.2664116535108
 20
1048.904570955457
 30
0.0
 11
162.2664116535108
 21
1038.904570955457
 31
0.0
  0
LINE
  5
475
330
2
100
AcDbEntity
  8
04-01
100
AcDbLine
 10
163.066411653511
 20
1136.904570955457
 30
0.0
 11
163.066411653511
 21
1038.904570955457
 31
0.0
  0
LINE
  5
476
330
2
100
AcDbEntity
  8
04-01
100
AcDbLine
 10
162.266411653511
 20
1126.904570955457
 30
0.0
 11
162.2664116535108
 21
1048.904570955457
 31
0.0
  0
LINE
  5
477
330
2
100
AcDbEntity
  8
04-01
100
AcDbLine
 10
162.266411653511
 20
1136.904570955457
 30
0.0
 11
163.066411653511
 21
1136.904570955457
 31
0.0
  0
LINE
  5
478
330
2
100
AcDbEntity
  8
04-01
100
AcDbLine
 10
162.266411653511
 20
1136.904570955457
 30
0.0
 11
162.266411653511
 21
1126.904570955457
 31
0.0
  0
LINE
  5
479
330
2
100
AcDbEntity
  8
04-01
100
AcDbLine
 10
163.066411653511
 20
1038.904570955457
 30
0.0
 11
162.2664116535108
 21
1038.904570955457
 31
0.0
  0
ARC
  5
47A
330
2
100
AcDbEntity
  8
04-01
100
AcDbCircle
 10
81.46641165351098
 20
1048.904570955457
 30
0.0
 40
2.0
100
AcDbArc
 50
90.0
 51
180.0
  0
ARC
  5
47B
330
2
100
AcDbEntity
  8
04-01
100
AcDbCircle
 10
81.46641165351088
 20
1126.904570955457
 30
0.0
 40
2.0
100
AcDbArc
 50
180.0
 51
270.0
  0
LINE
  5
47C
330
2
100
AcDbEntity
  8
04-01
100
AcDbLine
 10
79.46641165351099
 20
1048.904570955457
 30
0.0
 11
79.46641165351099
 21
1038.904570955457
 31
0.0
  0
LINE
  5
47D
330
2
100
AcDbEntity
  8
04-01
100
AcDbLine
 10
78.66641165351092
 20
1136.904570955457
 30
0.0
 11
78.66641165351092
 21
1038.904570955457
 31
0.0
  0
LINE
  5
47E
330
2
100
AcDbEntity
  8
04-01
100
AcDbLine
 10
79.46641165351087
 20
1126.904570955457
 30
0.0
 11
79.46641165351099
 21
1048.904570955457
 31
0.0
  0
LINE
  5
47F
330
2
100
AcDbEntity
  8
04-01
100
AcDbLine
 10
79.46641165351076
 20
1136.904570955457
 30
0.0
 11
78.66641165351092
 21
1136.904570955457
 31
0.0
  0
LINE
  5
480
330
2
100
AcDbEntity
  8
04-01
100
AcDbLine
 10
81.46641165351098
 20
1050.904570955457
 30
0.0
 11
160.2664116535108
 21
1050.904570955457
 31
0.0
  0
LINE
  5
481
330
2
100
AcDbEntity
  8
04-01
100
AcDbLine
 10
101.5251776356584
 20
1124.904570955457
 30
0.0
 11
81.46641165351088
 21
1124.904570955457
 31
0.0
  0
LINE
  5
482
330
2
100
AcDbEntity
  8
04-01
100
AcDbLine
 10
160.2664116535108
 20
1124.904570955457
 30
0.0
 11
140.2076456713635
 21
1124.904570955457
 31
0.0
  0
LINE
  5
483
330
2
100
AcDbEntity
  8
04-01
100
AcDbLine
 10
79.46641165351076
 20
1136.904570955457
 30
0.0
 11
79.46641165351087
 21
1126.904570955457
 31
0.0
  0
LINE
  5
484
330
2
100
AcDbEntity
  8
04-01
100
AcDbLine
 10
78.66641165351092
 20
1038.904570955457
 30
0.0
 11
79.46641165351099
 21
1038.904570955457
 31
0.0
  0
LWPOLYLINE
  5
485
330
2
100
AcDbEntity
  8
EBENE_1
  6
Continuous
 62
     1
100
AcDbPolyline
 90
        9
 70
     1
 43
0.0135
 10
135.030714668506
 20
1407.556144387206
 10
135.2272431685059
 20
1407.556144387206
 10
135.4250586685061
 20
1407.513745387205
 10
135.527163668506
 20
1407.393829387205
 10
135.5334726685059
 20
1407.207326887206
 10
135.4547451685059
 20
1407.023362387206
 10
135.306294668506
 20
1406.908184887204
 10
135.094830668506
 20
1406.868337387206
 10
134.8983021685059
 20
1406.868337387206
  0
LWPOLYLINE
  5
489
330
2
100
AcDbEntity
  8
EBENE_1
  6
Continuous
 62
     1
100
AcDbPolyline
 90
       19
 70
     1
 43
0.0135
 10
133.9362201685059
 20
1414.108747387207
 10
134.3579466685059
 20
1414.108747387207
 10
134.615756168506
 20
1414.098244387205
 10
134.8352391685061
 20
1414.064849887207
 10
135.0176241685062
 20
1414.005755887207
 10
135.1641171685061
 20
1413.918149887206
 10
135.2759376685059
 20
1413.799219387205
 10
135.354300668506
 20
1413.646151887206
 10
135.400430168506
 20
1413.456125887205
 10
135.415536668506
 20
1413.226342387206
 10
135.399633668506
 20
1413.000644887206
 10
135.3515646685061
 20
1412.817377887206
 10
135.2708076685059
 20
1412.672734387206
 10
135.156818168506
 20
1412.562916387207
 10
135.0090741685059
 20
1412.484121387206
 10
134.8270356685061
 20
1412.432542387207
 10
134.6101671685059
 20
1412.404385887206
 10
134.3579466685059
 20
1412.395844887207
 10
133.9362201685059
 20
1412.395844887207
  0
LWPOLYLINE
  5
48A
330
2
100
AcDbEntity
  8
EBENE_1
  6
Continuous
 62
     1
100
AcDbPolyline
 90
       12
 70
     1
 43
0.0135
 10
129.0515961685061
 20
1409.839471387206
 10
131.348436668506
 20
1409.839471387206
 10
131.348436668506
 20
1410.235259887206
 10
129.4733361685061
 20
1410.235259887206
 10
129.4733361685061
 20
1412.233628887207
 10
131.348436668506
 20
1412.233628887207
 10
131.348436668506
 20
1412.629417387204
 10
129.4733361685061
 20
1412.629417387204
 10
129.4733361685061
 20
1414.082791387205
 10
131.348436668506
 20
1414.082791387205
 10
131.348436668506
 20
1414.478579887207
 10
129.0515961685061
 20
1414.478579887207
  0
LWPOLYLINE
  5
48B
330
2
100
AcDbEntity
  8
EBENE_1
  6
Continuous
 62
     1
100
AcDbPolyline
 90
       29
 70
     1
 43
0.0135
 10
136.3303821685062
 20
1409.839471387206
 10
134.6629026685061
 20
1412.051963887206
 10
134.900804168506
 20
1412.067871387206
 10
135.1161156685061
 20
1412.114801887206
 10
135.3074016685061
 20
1412.191580887207
 10
135.4732131685061
 20
1412.297042887207
 10
135.6121101685059
 20
1412.429999887204
 10
135.722648168506
 20
1412.589290887204
 10
135.803391668506
 20
1412.773732387206
 10
135.852896168506
 20
1412.982149887206
 10
135.8697171685059
 20
1413.213373387207
 10
135.8573241685061
 20
1413.434413387205
 10
135.820131668506
 20
1413.633988387206
 10
135.7581036685059
 20
1413.812183887207
 10
135.6712176685061
 20
1413.969085387205
 10
135.5594421685061
 20
1414.104782887207
 10
135.4227456685061
 20
1414.219366387206
 10
135.2611011685062
 20
1414.312916887205
 10
135.0744771685062
 20
1414.385524387206
 10
134.862846668506
 20
1414.437283387206
 10
134.626182668506
 20
1414.468270387206
 10
134.364449168506
 20
1414.478579887207
 10
134.364449168506
 20
1414.478579887207
 10
133.5144801685059
 20
1414.478579887207
 10
133.5144801685059
 20
1409.839471387206
 10
133.9362201685059
 20
1409.839471387206
 10
133.9362201685059
 20
1412.051963887206
 10
134.1892686685061
 20
1412.051963887206
 10
135.817805168506
 20
1409.839471387206
  0
LWPOLYLINE
  5
48C
330
2
100
AcDbEntity
  8
EBENE_1
  6
Continuous
 62
     1
100
AcDbPolyline
 90
       23
 70
     1
 43
0.0135
 10
133.2904026685061
 20
1404.947368387206
 10
134.5284516685059
 20
1404.947368387206
 10
134.7516786685059
 20
1406.106824887207
 10
135.1425756685061
 20
1404.947368387206
 10
136.557488168506
 20
1404.947368387206
 10
135.8943951685061
 20
1406.377040887206
 10
136.0956081685062
 20
1406.425897387206
 10
136.279032668506
 20
1406.520604387206
 10
136.440204668506
 20
1406.657075887206
 10
136.574651168506
 20
1406.831212387205
 10
136.6778946685062
 20
1407.038918887207
 10
136.745462168506
 20
1407.276100387205
 10
136.7725926685061
 20
1407.491911387205
 10
136.767165668506
 20
1407.687881887206
 10
136.729194668506
 20
1407.863336887207
 10
136.658693168506
 20
1408.017596887206
 10
136.5556836685059
 20
1408.149986887205
 10
136.4201841685059
 20
1408.259822887204
 10
136.252203668506
 20
1408.346434387205
 10
136.051769168506
 20
1408.409137387207
 10
135.818885168506
 20
1408.447256887206
 10
135.553583168506
 20
1408.460113387205
 10
133.966712168506
 20
1408.460113387205
  0
LWPOLYLINE
  5
48D
330
2
100
AcDbEntity
  8
EBENE_1
  6
Continuous
 62
     1
100
AcDbPolyline
 90
        8
 70
     1
 43
0.0135
 10
127.4104776685059
 20
1404.947368387206
 10
128.767263668506
 20
1404.947368387206
 10
128.960480168506
 20
1405.389538387206
 10
129.913593668506
 20
1405.389538387206
 10
129.9414621685061
 20
1404.947368387206
 10
131.297433668506
 20
1404.947368387206
 10
130.745508668506
 20
1408.460113387205
 10
129.3404106685061
 20
1408.460113387205
  0
LWPOLYLINE
  5
48E
330
2
100
AcDbEntity
  8
EBENE_1
  6
Continuous
 62
     1
100
AcDbPolyline
 90
       10
 70
     1
 43
0.0135
 10
129.332526668506
 20
1406.224729387206
 10
129.517238168506
 20
1406.622677887206
 10
129.6116211685061
 20
1406.830298887205
 10
129.7139466685061
 20
1407.084863887205
 10
129.8082351685061
 20
1407.394022887205
 10
129.8328051685061
 20
1407.394022887205
 10
129.808028168506
 20
1407.084863887205
 10
129.8123301685061
 20
1406.830298887205
 10
129.826766168506
 20
1406.622677887206
 10
129.858212168506
 20
1406.224729387206
  0
LWPOLYLINE
  5
48F
330
2
100
AcDbEntity
  8
EBENE_1
  6
Continuous
 62
     1
100
AcDbPolyline
 90
      133
 70
     1
 43
0.0135
 10
120.450255668506
 20
1413.310690387207
 10
120.7551891685061
 20
1413.576703387207
 10
120.646356668506
 20
1413.752221387207
 10
120.5218776685059
 20
1413.910742887205
 10
120.3821841685059
 20
1414.052326387205
 10
120.2277261685059
 20
1414.177039387207
 10
120.0589356685058
 20
1414.284931387206
 10
119.876249168506
 20
1414.376060887207
 10
119.6801121685061
 20
1414.450495387205
 10
119.4709566685059
 20
1414.508284387206
 10
119.2492236685061
 20
1414.549486387206
 10
119.015354168506
 20
1414.574168887206
 10
118.7697846685059
 20
1414.582381387205
 10
118.566596168506
 20
1414.574726887205
 10
118.3699551685062
 20
1414.552096387206
 10
118.1802801685059
 20
1414.514980387206
 10
117.9979941685059
 20
1414.463878387207
 10
117.8235156685059
 20
1414.399289887206
 10
117.6572541685061
 20
1414.321709887206
 10
117.4996416685059
 20
1414.231633387206
 10
117.351087668506
 20
1414.129555387206
 10
117.212010668506
 20
1414.015970887205
 10
117.0828381685059
 20
1413.891383887207
 10
116.963975168506
 20
1413.756280387206
 10
116.8558491685061
 20
1413.611168887206
 10
116.7588786685059
 20
1413.456535387206
 10
116.6734776685061
 20
1413.292879387205
 10
116.6000691685062
 20
1413.120695887206
 10
116.539067168506
 20
1412.940488887205
 10
116.4908901685059
 20
1412.752744387206
 10
116.4559656685059
 20
1412.557966387205
 10
116.4346986685058
 20
1412.356645387206
 10
116.4275211685059
 20
1412.149280887206
 10
116.4346086685061
 20
1411.935764887206
 10
116.455632668506
 20
1411.729534387206
 10
116.4902151685059
 20
1411.530989887205
 10
116.5379781685059
 20
1411.340527387205
 10
116.598548168506
 20
1411.158542887206
 10
116.671551668506
 20
1410.985432387206
 10
116.7566151685061
 20
1410.821587387207
 10
116.8533606685061
 20
1410.667408387206
 10
116.9614146685061
 20
1410.523286887206
 10
117.0804081685059
 20
1410.389623387206
 10
117.209954168506
 20
1410.266809387205
 10
117.3496926685061
 20
1410.155245387206
 10
117.4992366685059
 20
1410.055322887205
 10
117.658217168506
 20
1409.967437887206
 10
117.8262561685059
 20
1409.891990887205
 10
118.002984668506
 20
1409.829373387205
 10
118.1880201685062
 20
1409.779981387206
 10
118.380998168506
 20
1409.744210887205
 10
118.5815316685061
 20
1409.722457887206
 10
118.7892561685059
 20
1409.715118387205
 10
118.9963236685061
 20
1409.721751387206
 10
119.1949761685059
 20
1409.741497387205
 10
119.384975168506
 20
1409.774113387206
 10
119.5660821685059
 20
1409.819356387204
 10
119.7380631685061
 20
1409.876987887206
 10
119.9006751685059
 20
1409.946769387206
 10
120.0536841685061
 20
1410.028457887205
 10
120.1968426685061
 20
1410.121819387206
 10
120.329925668506
 20
1410.226610887206
 10
120.4526811685061
 20
1410.342584887206
 10
120.5648796685061
 20
1410.469516387206
 10
120.6662826685059
 20
1410.607148887206
 10
120.756647168506
 20
1410.755257387205
 10
120.835734668506
 20
1410.913589887206
 10
120.9033111685061
 20
1411.081912387206
 10
120.959138168506
 20
1411.259981887206
 10
121.0029681685059
 20
1411.447559887205
 10
121.0345761685061
 20
1411.644407887206
 10
121.0537146685062
 20
1411.850287387206
 10
121.060145168506
 20
1412.064950887207
 10
121.060145168506
 20
1412.064950887207
 10
121.060145168506
 20
1412.129827387205
 10
118.9968771685059
 20
1412.129827387205
 10
118.9968771685059
 20
1411.766479387206
 10
120.599480168506
 20
1411.766479387206
 10
120.5859216685061
 20
1411.561247887206
 10
120.551411168506
 20
1411.365988387206
 10
120.4968396685062
 20
1411.181537887205
 10
120.4230981685061
 20
1411.008737887205
 10
120.331086668506
 20
1410.848416387205
 10
120.2217006685059
 20
1410.701423887207
 10
120.0958221685061
 20
1410.568583887205
 10
119.9543556685061
 20
1410.450746887207
 10
119.7981921685061
 20
1410.348736387206
 10
119.6282226685061
 20
1410.263398387205
 10
119.445342668506
 20
1410.195565387206
 10
119.2504476685059
 20
1410.146078887206
 10
119.044428668506
 20
1410.115771387205
 10
118.8281811685059
 20
1410.105484387206
 10
118.6202766685061
 20
1410.115523887205
 10
118.4204091685059
 20
1410.145048387207
 10
118.2293256685061
 20
1410.193162387206
 10
118.0477686685059
 20
1410.258974887205
 10
117.8764716685058
 20
1410.341590387206
 10
117.716181668506
 20
1410.440113387205
 10
117.567636668506
 20
1410.553657387205
 10
117.4315836685061
 20
1410.681322387205
 10
117.3087606685059
 20
1410.822217387205
 10
117.1999056685062
 20
1410.975451387207
 10
117.1057656685061
 20
1411.140124387206
 10
117.0270786685061
 20
1411.315349887205
 10
116.964587168506
 20
1411.500232387207
 10
116.9190336685059
 20
1411.693871887206
 10
116.891156168506
 20
1411.895386387205
 10
116.8817016685061
 20
1412.103875887205
 10
116.8897656685062
 20
1412.316469387206
 10
116.9136336685059
 20
1412.521030387206
 10
116.9528016685059
 20
1412.716928887206
 10
117.0067701685061
 20
1412.903539387205
 10
117.075044168506
 20
1413.080236387206
 10
117.157119668506
 20
1413.246398887206
 10
117.252497168506
 20
1413.401392387206
 10
117.3606816685059
 20
1413.544600387206
 10
117.481169168506
 20
1413.675388387206
 10
117.613469168506
 20
1413.793135387206
 10
117.7570686685059
 20
1413.897211387206
 10
117.9114816685061
 20
1413.986995387206
 10
118.0761996685059
 20
1414.061857387205
 10
118.2507276685059
 20
1414.121171887205
 10
118.4345706685059
 20
1414.164313387206
 10
118.6272201685059
 20
1414.190660887205
 10
118.8281811685059
 20
1414.199579887205
 10
119.052555668506
 20
1414.188320887206
 10
119.2668906685061
 20
1414.154687887207
 10
119.470758668506
 20
1414.098892387206
 10
119.6637321685061
 20
1414.021145887207
 10
119.8453836685061
 20
1413.921668887206
 10
120.0152901685059
 20
1413.800668387206
 10
120.173024168506
 20
1413.658364887205
 10
120.318153668506
 20
1413.494965387206
  0
LWPOLYLINE
  5
490
330
2
100
AcDbEntity
  8
EBENE_1
  6
Continuous
 62
     1
100
AcDbPolyline
 90
        3
 70
     1
 43
0.0135
 10
112.3149981685059
 20
1411.772963887206
 10
113.1390111685061
 20
1413.790826887205
 10
113.930588168506
 20
1411.772963887206
  0
LWPOLYLINE
  5
491
330
2
100
AcDbEntity
  8
EBENE_1
  6
Continuous
 62
     1
100
AcDbPolyline
 90
        7
 70
     1
 43
0.0135
 10
111.1265706685062
 20
1409.839471387206
 10
111.555879668506
 20
1409.839471387206
 10
112.172253668506
 20
1411.409633887206
 10
114.0668256685059
 20
1411.409633887206
 10
114.657266168506
 20
1409.839471387206
 10
115.1179311685059
 20
1409.839471387206
 10
113.164967168506
 20
1414.660244887207
  0
LWPOLYLINE
  5
492
330
2
100
AcDbEntity
  8
EBENE_1
  6
Continuous
 62
     1
100
AcDbPolyline
 90
       12
 70
     1
 43
0.0135
 10
116.689758668506
 20
1404.947368387206
 10
119.0676216685059
 20
1404.947368387206
 10
119.2511271685061
 20
1405.900481887205
 10
118.1113176685059
 20
1405.900481887205
 10
118.182255668506
 20
1406.268950887206
 10
119.1894051685062
 20
1406.268950887206
 10
119.362493168506
 20
1407.168010387206
 10
118.355343668506
 20
1407.168010387206
 10
118.420629668506
 20
1407.507017887206
 10
119.530959668506
 20
1407.507017887206
 10
119.7144516685061
 20
1408.460113387205
 10
117.3660681685061
 20
1408.460113387205
  0
LWPOLYLINE
  5
493
330
2
100
AcDbEntity
  8
EBENE_1
  6
Continuous
 62
     1
100
AcDbPolyline
 90
        4
 70
     1
 43
0.0135
 10
100.4870316685059
 20
1405.739809387207
 10
114.9560031685061
 20
1405.739809387207
 10
114.7999701685061
 20
1404.946463887205
 10
100.3310031685061
 20
1404.946463887205
  0
SOLID
  5
494
330
2
100
AcDbEntity
  8
EBENE_1
 62
     1
100
AcDbTrace
 10
100.4870316685059
 20
1405.739809387207
 30
0.0
 11
114.9560031685061
 21
1405.739809387207
 31
0.0
 12
100.3310031685061
 22
1404.946463887205
 32
0.0
 13
114.7999701685061
 23
1404.946463887205
 33
0.0
  0
LWPOLYLINE
  5
495
330
2
100
AcDbEntity
  8
EBENE_1
  6
Continuous
 62
     1
100
AcDbPolyline
 90
       10
 70
     1
 43
0.0135
 10
106.0289211685059
 20
1409.715118387205
 10
107.261673668506
 20
1413.596174887207
 10
108.546351668506
 20
1409.715118387205
 10
110.0970471685059
 20
1414.478579887207
 10
109.662338168506
 20
1414.478579887207
 10
108.546351668506
 20
1410.806228887206
 10
107.261673668506
 20
1414.660244887207
 10
106.0289211685059
 20
1410.773788387207
 10
104.8675161685059
 20
1414.478579887207
 10
104.4263181685059
 20
1414.478579887207
  0
LWPOLYLINE
  5
496
330
2
100
AcDbEntity
  8
EBENE_1
  6
Continuous
 62
     1
100
AcDbPolyline
 90
       34
 70
     1
 43
0.0135
 10
123.7660986685059
 20
1406.725858387206
 10
123.8103201685061
 20
1406.725858387206
 10
123.7923201685061
 20
1406.505682387205
 10
123.7917846685058
 20
1406.313892387206
 10
123.7969596685061
 20
1406.146123387207
 10
123.8314701685059
 20
1404.947368387206
 10
124.931972168506
 20
1404.947368387206
 10
126.6350781685059
 20
1408.460113387205
 10
125.3675496685059
 20
1408.460113387205
 10
124.7944521685059
 20
1406.912540887206
 10
124.7311911685059
 20
1406.735137387206
 10
124.656734168506
 20
1406.505322387205
 10
124.582475168506
 20
1406.219824387206
 10
124.553013668506
 20
1406.219824387206
 10
124.5804456685061
 20
1406.469110887206
 10
124.5862011685059
 20
1406.668177387206
 10
124.5848871685061
 20
1406.819210887206
 10
124.566725168506
 20
1408.460113387205
 10
123.6774981685059
 20
1408.460113387205
 10
123.0274956685061
 20
1406.819210887206
 10
122.9680236685059
 20
1406.668177387206
 10
122.897121668506
 20
1406.469110887206
 10
122.8285551685061
 20
1406.219824387206
 10
122.7990936685059
 20
1406.219824387206
 10
122.8347696685061
 20
1406.505322387205
 10
122.8488096685059
 20
1406.735137387206
 10
122.853854168506
 20
1406.912540887206
 10
122.876673668506
 20
1408.460113387205
 10
121.6083306685061
 20
1408.460113387205
 10
121.9596321685062
 20
1404.947368387206
 10
123.060129668506
 20
1404.947368387206
 10
123.5562276685061
 20
1406.146123387207
 10
123.626018168506
 20
1406.313892387206
 10
123.699332168506
 20
1406.505682387205
  0
LWPOLYLINE
  5
497
330
2
100
AcDbEntity
  8
EBENE_1
  6
Continuous
 62
     1
100
AcDbPolyline
 90
        8
 70
     1
 43
0.0135
 10
123.083444168506
 20
1409.839471387206
 10
123.5051886685059
 20
1409.839471387206
 10
123.5051886685059
 20
1413.589690387205
 10
126.762284168506
 20
1409.702131387206
 10
126.762284168506
 20
1414.478579887207
 10
126.340557668506
 20
1414.478579887207
 10
126.340557668506
 20
1410.793241887206
 10
123.083444168506
 20
1414.673213887207
  0
ARC
  5
498
330
2
100
AcDbEntity
  8
09-01
100
AcDbCircle
 10
154.5487197581214
 20
1198.594538325631
 30
0.0
 40
8.5
100
AcDbArc
 50
0.0
 51
90.0
  0
ARC
  5
499
330
2
100
AcDbEntity
  8
09-01
100
AcDbCircle
 10
154.4429869688567
 20
1197.671706831616
 30
0.0
 40
9.423424684654264
100
AcDbArc
 50
0.0
 51
89.35711592102455
  0
ARC
  5
49A
330
2
100
AcDbEntity
  8
09-01
100
AcDbCircle
 10
87.18410354890039
 20
1198.594538325631
 30
0.0
 40
8.5
100
AcDbArc
 50
90.0
 51
180.0
  0
ARC
  5
49B
330
2
100
AcDbEntity
  8
09-01
100
AcDbCircle
 10
87.28983633816524
 20
1197.671706831616
 30
0.0
 40
9.42342468465425
100
AcDbArc
 50
90.64288407897532
 51
180.0
  0
LINE
  5
49C
330
2
100
AcDbEntity
  8
09-01
100
AcDbLine
 10
87.18410354890039
 20
1207.094538325631
 30
0.0
 11
154.5487197581887
 21
1207.094538325631
 31
0.0
  0
LINE
  5
49D
330
2
100
AcDbEntity
  8
09-01
100
AcDbLine
 10
77.86641165351096
 20
1446.698570447701
 30
0.0
 11
163.8664116535109
 21
1446.698570447701
 31
0.0
  0
LINE
  5
49E
330
2
100
AcDbEntity
  8
09-01
100
AcDbLine
 10
163.0487197581214
 20
1187.698570447701
 30
0.0
 11
163.0487197581214
 21
1198.594538325631
 31
0.0
  0
LINE
  5
49F
330
2
100
AcDbEntity
  8
03-01
100
AcDbLine
 10
78.66641165351092
 20
1202.362365202058
 30
0.0
 11
78.66641165351092
 21
1446.698570447701
 31
0.0
  0
LINE
  5
4A0
330
2
100
AcDbEntity
  8
09-01
100
AcDbLine
 10
78.68410354890039
 20
1187.698570447701
 30
0.0
 11
78.68410354890039
 21
1198.594538325631
 31
0.0
  0
LINE
  5
4A1
330
2
100
AcDbEntity
  8
09-01
100
AcDbLine
 10
163.8664116535109
 20
1187.698570447701
 30
0.0
 11
163.8664116535109
 21
1448.198570447701
 31
0.0
  0
LINE
  5
4A2
330
2
100
AcDbEntity
  8
09-01
100
AcDbLine
 10
77.86641165351096
 20
1187.6985704477
 30
0.0
 11
77.86641165351096
 21
1448.198570447701
 31
0.0
  0
LINE
  5
4A3
330
2
100
AcDbEntity
  8
09-01
100
AcDbLine
 10
77.86641165351096
 20
1448.198570447701
 30
0.0
 11
163.8664116535109
 21
1448.198570447701
 31
0.0
  0
LINE
  5
4A4
330
2
100
AcDbEntity
  8
0
100
AcDbLine
 10
163.8664116535109
 20
1148.904570955457
 30
0.0
 11
163.8664116535109
 21
1038.904570955457
 31
0.0
  0
LINE
  5
4A5
330
2
100
AcDbEntity
  8
03-01
100
AcDbLine
 10
163.066411653511
 20
1148.904570955457
 30
0.0
 11
163.066411653511
 21
1038.904570955457
 31
0.0
  0
ARC
  5
4A6
330
2
100
AcDbEntity
  8
03-01
100
AcDbCircle
 10
154.566411653511
 20
1038.904570955457
 30
0.0
 40
8.5
100
AcDbArc
 50
270.0
 51
0.0
  0
ARC
  5
4A7
330
2
100
AcDbEntity
  8
0
100
AcDbCircle
 10
154.566411653511
 20
1038.904570955457
 30
0.0
 40
9.3
100
AcDbArc
 50
270.0
 51
0.0
  0
LINE
  5
4A8
330
2
100
AcDbEntity
  8
03-01
100
AcDbLine
 10
78.66641165351092
 20
1148.904570955457
 30
0.0
 11
78.66641165351092
 21
1038.904570955457
 31
0.0
  0
LINE
  5
4A9
330
2
100
AcDbEntity
  8
0
100
AcDbLine
 10
77.86641165351096
 20
1148.904570955457
 30
0.0
 11
77.86641165351096
 21
1038.904570955457
 31
0.0
  0
ARC
  5
4AA
330
2
100
AcDbEntity
  8
0
100
AcDbCircle
 10
87.16641165351092
 20
1038.904570955457
 30
0.0
 40
9.3
100
AcDbArc
 50
180.0
 51
270.0
  0
ARC
  5
4AB
330
2
100
AcDbEntity
  8
03-01
100
AcDbCircle
 10
87.16641165351092
 20
1038.904570955457
 30
0.0
 40
8.5
100
AcDbArc
 50
180.0
 51
270.0
  0
LINE
  5
4AC
330
2
100
AcDbEntity
  8
0
100
AcDbLine
 10
87.16641165351092
 20
1029.604570955458
 30
0.0
 11
154.566411653511
 21
1029.604570955458
 31
0.0
  0
LINE
  5
4AD
330
2
100
AcDbEntity
  8
03-01
100
AcDbLine
 10
87.16641165351092
 20
1030.404570955457
 30
0.0
 11
154.566411653511
 21
1030.404570955457
 31
0.0
  0
LINE
  5
4AE
330
2
100
AcDbEntity
  8
0
100
AcDbLine
 10
163.8664116535109
 20
1148.904570955457
 30
0.0
 11
77.86641165351096
 21
1148.904570955457
 31
0.0
  0
LINE
  5
4AF
330
2
100
AcDbEntity
  8
03-01
100
AcDbLine
 10
162.363283656735
 20
1422.847390365448
 30
0.0
 11
162.3664115058511
 21
1422.847389617411
 31
0.0
  0
LINE
  5
4B0
330
2
100
AcDbEntity
  8
03-01
100
AcDbLine
 10
162.8664116535109
 20
1442.198570447701
 30
0.0
 11
162.8664116535109
 21
1187.698570447701
 31
0.0
  0
LINE
  5
4B1
330
2
100
AcDbEntity
  8
03-01
100
AcDbLine
 10
78.86641165351097
 20
1442.198570447701
 30
0.0
 11
78.86641165351097
 21
1200.069858805054
 31
0.0
  0
LINE
  5
4B2
330
2
100
AcDbEntity
  8
0
100
AcDbLine
 10
77.86641165351096
 20
1187.6985704477
 30
0.0
 11
163.8664116535109
 21
1187.698570447701
 31
0.0
  0
LINE
  5
4B3
330
2
100
AcDbEntity
  8
03-01
100
AcDbLine
 10
78.86641165351097
 20
1442.198570447701
 30
0.0
 11
162.8664116535109
 21
1442.198570447701
 31
0.0
  0
ENDSEC
  0
SECTION
  2
OBJECTS
  0
DICTIONARY
  5
B
330
0
100
AcDbDictionary
281
     1
  3
ACAD_COLOR
350
4D
  3
ACAD_GROUP
350
3A
  3
ACAD_LAYOUT
350
18
  3
ACAD_MATERIAL
350
D
  3
ACAD_MLEADERSTYLE
350
50
  3
ACAD_MLINESTYLE
350
3B
  3
ACAD_PLOTSETTINGS
350
3C
  3
ACAD_PLOTSTYLENAME
350
A
  3
ACAD_SCALELIST
350
4E
  3
ACAD_TABLESTYLE
350
4F
  3
ACAD_VISUALSTYLE
350
31
  3
ACDB_RECOMPOSE_DATA
350
4C1
  3
AcDbVariableDictionary
350
4B8
  0
DICTIONARY
  5
32
330
2E
100
AcDbDictionary
280
     1
281
     1
  0
DICTIONARY
  5
21
330
20
100
AcDbDictionary
280
     1
281
     1
  3
ACAD_LAYERFILTERS
360
22
  3
ACAD_LAYERSTATES
360
23
  3
ACLYDICTIONARY
360
24
  0
DICTIONARY
  5
7
330
6
100
AcDbDictionary
280
     1
281
     1
  3
ADSK_XREC_LAYER_RECONCILED
360
8
  0
DICTIONARY
  5
314
330
313
100
AcDbDictionary
280
     1
281
     1
  3
ADSK_XREC_LAYER_RECONCILED
360
315
  0
DICTIONARY
  5
52
330
51
100
AcDbDictionary
280
     1
281
     1
  3
ADSK_XREC_LAYER_RECONCILED
360
53
  0
DICTIONARY
  5
98
330
97
100
AcDbDictionary
280
     1
281
     1
  3
ADSK_XREC_LAYER_RECONCILED
360
99
  0
DICTIONARY
  5
9D
330
9C
100
AcDbDictionary
280
     1
281
     1
  3
ADSK_XREC_LAYER_RECONCILED
360
9E
  0
DICTIONARY
  5
354
330
353
100
AcDbDictionary
280
     1
281
     1
  3
ADSK_XREC_LAYER_RECONCILED
360
355
  0
DICTIONARY
  5
391
330
390
100
AcDbDictionary
280
     1
281
     1
  3
ADSK_XREC_LAYER_RECONCILED
360
392
  0
DICTIONARY
  5
35A
330
359
100
AcDbDictionary
280
     1
281
     1
  3
ADSK_XREC_LAYER_RECONCILED
360
35B
  0
DICTIONARY
  5
37B
330
37A
100
AcDbDictionary
280
     1
281
     1
  3
ADSK_XREC_LAYER_RECONCILED
360
37C
  0
DICTIONARY
  5
487
330
486
100
AcDbDictionary
280
     1
281
     1
  3
ADSK_XREC_LAYER_RECONCILED
360
488
  0
DICTIONARY
  5
279
330
278
100
AcDbDictionary
280
     1
281
     1
  0
DICTIONARY
  5
B8
330
B7
100
AcDbDictionary
280
     1
281
     1
  0
DICTIONARY
  5
E3
330
E2
100
AcDbDictionary
280
     1
281
     1
  0
DICTIONARY
  5
3
330
2
100
AcDbDictionary
280
     1
281
     1
  3
ACAD_SORTENTS
360
4B7
  0
DICTIONARY
  5
34F
330
34E
100
AcDbDictionary
280
     1
281
     1
  3
ACAD_SORTENTS
360
4B4
  0
DICTIONARY
  5
1B4
330
1B3
100
AcDbDictionary
280
     1
281
     1
  3
ACAD_SORTENTS
360
4B6
  0
DICTIONARY
  5
15C
330
15B
100
AcDbDictionary
280
     1
281
     1
  3
ACAD_SORTENTS
360
4B5
  0
DICTIONARY
  5
4D
102
{ACAD_REACTORS
330
B
102
}
330
B
100
AcDbDictionary
281
     1
  0
DICTIONARY
  5
3A
102
{ACAD_REACTORS
330
B
102
}
330
B
100
AcDbDictionary
281
     1
  0
DICTIONARY
  5
18
102
{ACAD_REACTORS
330
B
102
}
330
B
100
AcDbDictionary
281
     1
  3
Layout1
350
1F
  3
Model
350
17
  0
DICTIONARY
  5
D
102
{ACAD_REACTORS
330
B
102
}
330
B
100
AcDbDictionary
281
     1
  3
ByBlock
350
45
  3
ByLayer
350
3D
  3
Global
350
C
  0
DICTIONARY
  5
50
102
{ACAD_REACTORS
330
B
102
}
330
B
100
AcDbDictionary
281
     1
  0
DICTIONARY
  5
3B
102
{ACAD_REACTORS
330
B
102
}
330
B
100
AcDbDictionary
281
     1
  3
Standard
350
54
  0
DICTIONARY
  5
3C
102
{ACAD_REACTORS
330
B
102
}
330
B
100
AcDbDictionary
281
     1
  0
ACDBDICTIONARYWDFLT
  5
A
102
{ACAD_REACTORS
330
B
102
}
330
B
100
AcDbDictionary
281
     1
  3
Normal
350
9
100
AcDbDictionaryWithDefault
340
9
  0
DICTIONARY
  5
4E
102
{ACAD_REACTORS
330
B
102
}
330
B
100
AcDbDictionary
281
     1
  3
A0
350
59
  3
A1
350
5A
  3
A2
350
5B
  3
A3
350
5C
  3
A4
350
5D
  3
A5
350
5E
  3
A6
350
5F
  3
A7
350
60
  3
A8
350
61
  3
A9
350
62
  3
B0
350
63
  3
B1
350
64
  3
B2
350
65
  3
B3
350
66
  3
B4
350
67
  3
B5
350
68
  3
B6
350
69
  3
B7
350
6A
  3
B8
350
6B
  3
B9
350
6C
  3
C0
350
6D
  3
C1
350
6E
  3
C2
350
6F
  3
C3
350
70
  3
C4
350
71
  3
C5
350
72
  3
C6
350
73
  3
C7
350
74
  3
C8
350
75
  3
C9
350
76
  3
D0
350
77
  3
D1
350
78
  3
D2
350
79
  0
DICTIONARY
  5
4F
102
{ACAD_REACTORS
330
B
102
}
330
B
100
AcDbDictionary
281
     1
  3
Standard
350
55
  0
DICTIONARY
  5
31
102
{ACAD_REACTORS
330
B
102
}
330
B
100
AcDbDictionary
281
     1
  3
2dWireframe
350
30
  3
3dWireframe
350
58
  3
Realistic
350
57
  0
XRECORD
  5
4C1
102
{ACAD_REACTORS
330
B
102
}
330
B
100
AcDbXrecord
280
     1
 90
        1
330
55
  0
DICTIONARY
  5
4B8
102
{ACAD_REACTORS
330
B
102
}
330
B
100
AcDbDictionary
281
     1
  3
CANNOSCALE
350
4BB
  3
CMLEADERSTYLE
350
4BA
  3
CTABLESTYLE
350
4B9
  3
LAYEREVAL
350
4BD
  3
LAYERNOTIFY
350
4BE
  3
LIGHTINGUNITS
350
4BC
  0
DICTIONARY
  5
22
102
{ACAD_REACTORS
330
21
102
}
330
21
100
AcDbDictionary
281
     1
  0
DICTIONARY
  5
23
102
{ACAD_REACTORS
330
21
102
}
330
21
100
AcDbDictionary
281
     1
  0
DICTIONARY
  5
24
102
{ACAD_REACTORS
330
21
102
}
330
21
100
AcDbDictionary
281
     1
1001
ACAD
1000
<All
  0
XRECORD
  5
8
102
{ACAD_REACTORS
330
7
102
}
330
7
100
AcDbXrecord
280
     1
290
     1
  0
XRECORD
  5
315
102
{ACAD_REACTORS
330
314
102
}
330
314
100
AcDbXrecord
280
     1
290
     1
  0
XRECORD
  5
53
102
{ACAD_REACTORS
330
52
102
}
330
52
100
AcDbXrecord
280
     1
290
     1
  0
XRECORD
  5
99
102
{ACAD_REACTORS
330
98
102
}
330
98
100
AcDbXrecord
280
     1
290
     1
  0
XRECORD
  5
9E
102
{ACAD_REACTORS
330
9D
102
}
330
9D
100
AcDbXrecord
280
     1
290
     1
  0
XRECORD
  5
355
102
{ACAD_REACTORS
330
354
102
}
330
354
100
AcDbXrecord
280
     1
290
     1
  0
XRECORD
  5
392
102
{ACAD_REACTORS
330
391
102
}
330
391
100
AcDbXrecord
280
     1
290
     1
  0
XRECORD
  5
35B
102
{ACAD_REACTORS
330
35A
102
}
330
35A
100
AcDbXrecord
280
     1
290
     1
  0
XRECORD
  5
37C
102
{ACAD_REACTORS
330
37B
102
}
330
37B
100
AcDbXrecord
280
     1
290
     1
  0
XRECORD
  5
488
102
{ACAD_REACTORS
330
487
102
}
330
487
100
AcDbXrecord
280
     1
290
     1
  0
SORTENTSTABLE
  5
4B7
102
{ACAD_REACTORS
330
3
102
}
330
3
100
AcDbSortentsTable
330
2
331
1A7
  5
2A6
331
1A3
  5
2AA
331
297
  5
205
331
21D
  5
27F
331
19F
  5
2AE
331
293
  5
209
331
219
  5
283
331
215
  5
287
331
19B
  5
2B2
331
28F
  5
20D
331
2CE
  5
14D
331
2CA
  5
151
331
211
  5
28B
331
28B
  5
211
331
340
  5
10C
331
434
  5
E9
331
477
  5
D8
331
430
  5
ED
331
12E
  5
2ED
331
B4
  5
49B
331
473
  5
DC
331
4AE
  5
A1
331
EF
  5
42E
331
12A
  5
2F1
331
B0
  5
49F
331
46F
  5
E0
331
AC
  5
4A3
331
EB
  5
432
331
4AA
  5
A5
331
126
  5
2F5
331
A8
  5
4A7
331
122
  5
2F9
331
197
  5
2B6
331
193
  5
2BA
331
287
  5
215
331
2C6
  5
155
331
20D
  5
28F
331
18F
  5
2BE
331
283
  5
219
331
2C2
  5
159
331
209
  5
293
331
205
  5
297
331
27F
  5
21D
331
2BE
  5
18F
331
2F9
  5
122
331
2BA
  5
193
331
2F5
  5
126
331
27B
  5
221
331
42C
  5
F1
331
2F1
  5
12A
331
330
  5
110
331
3E9
  5
100
331
428
  5
F5
331
3E5
  5
104
331
424
  5
F9
331
3E1
  5
108
331
E7
  5
436
331
4A6
  5
A9
331
A4
  5
4AB
331
4A2
  5
AD
331
11E
  5
322
331
DF
  5
470
331
49E
  5
B1
331
11A
  5
326
331
159
  5
2C2
331
A0
  5
4AF
331
DB
  5
474
331
49A
  5
B5
331
116
  5
32A
331
155
  5
2C6
331
112
  5
32E
331
151
  5
2CA
331
2B6
  5
197
331
277
  5
223
331
17F
  5
2C0
331
2B2
  5
19B
331
2ED
  5
12E
331
32C
  5
114
331
328
  5
118
331
2AE
  5
19F
331
2E9
  5
132
331
2E5
  5
136
331
324
  5
11C
331
2AA
  5
1A3
331
2E1
  5
13A
331
320
  5
120
331
D7
  5
478
331
496
  5
BC
331
14D
  5
2CE
331
D3
  5
47C
331
10E
  5
332
331
492
  5
C0
331
CF
  5
480
331
48E
  5
C4
331
10A
  5
3D3
331
149
  5
2D2
331
CB
  5
484
331
48A
  5
C8
331
106
  5
3E3
331
145
  5
2D6
331
102
  5
3E7
331
141
  5
2DA
331
1B2
  5
29B
331
2A6
  5
1A7
331
22C
  5
227
331
228
  5
22B
331
2A2
  5
1AB
331
2DD
  5
13E
331
1AE
  5
29F
331
224
  5
276
331
29E
  5
1AF
331
2D9
  5
142
331
1AA
  5
2A3
331
220
  5
27C
331
2D5
  5
146
331
29A
  5
202
331
2D1
  5
14A
331
C7
  5
48B
331
13D
  5
2DE
331
C3
  5
48F
331
FE
  5
3EB
331
482
  5
CD
331
47E
  5
D1
331
FA
  5
423
331
139
  5
2E2
331
BF
  5
493
331
BB
  5
497
331
47A
  5
D5
331
F6
  5
427
331
135
  5
2E6
331
4B1
  5
96
331
F2
  5
42B
331
131
  5
2EA
331
1A6
  5
2A7
331
1A2
  5
2AB
331
296
  5
206
331
21C
  5
280
331
19E
  5
2AF
331
292
  5
20A
331
218
  5
284
331
214
  5
288
331
19A
  5
2B3
331
28E
  5
20E
331
2CD
  5
14E
331
2C9
  5
152
331
210
  5
28C
331
28A
  5
212
331
437
  5
E6
331
433
  5
EA
331
476
  5
D9
331
12D
  5
2EE
331
B3
  5
49C
331
472
  5
DD
331
EE
  5
42F
331
4AD
  5
A2
331
129
  5
2F2
331
AF
  5
4A0
331
AB
  5
4A4
331
EA
  5
433
331
125
  5
2F6
331
4A9
  5
A6
331
121
  5
31F
331
196
  5
2B7
331
192
  5
2BB
331
286
  5
216
331
2C5
  5
156
331
20C
  5
290
331
18E
  5
2BF
331
282
  5
21A
331
2C1
  5
15A
331
208
  5
294
331
204
  5
298
331
27E
  5
21E
331
2BD
  5
190
331
2F8
  5
123
331
2B9
  5
194
331
2F4
  5
127
331
333
  5
10D
331
27A
  5
222
331
42F
  5
EE
331
42B
  5
F2
331
2F0
  5
12B
331
3EC
  5
FD
331
3E8
  5
101
331
427
  5
F6
331
3E4
  5
105
331
423
  5
FA
331
3E0
  5
109
331
A7
  5
4A8
331
E6
  5
437
331
4A5
  5
AA
331
4A1
  5
AE
331
11D
  5
323
331
A3
  5
4AC
331
DE
  5
471
331
49D
  5
B2
331
119
  5
327
331
158
  5
2C3
331
9B
  5
4B0
331
DA
  5
475
331
499
  5
B6
331
115
  5
32B
331
154
  5
2C7
331
150
  5
2CB
331
111
  5
32F
331
276
  5
224
331
2B5
  5
198
331
32F
  5
111
331
2B1
  5
19C
331
2EC
  5
12F
331
32B
  5
115
331
327
  5
119
331
2AD
  5
1A0
331
2E8
  5
133
331
2A9
  5
1A4
331
2E4
  5
137
331
323
  5
11D
331
2E0
  5
13B
331
D6
  5
479
331
495
  5
BD
331
452
  5
E1
331
14C
  5
2CF
331
D2
  5
47D
331
10D
  5
333
331
491
  5
C1
331
CE
  5
481
331
48D
  5
C5
331
109
  5
3E0
331
148
  5
2D3
331
CA
  5
485
331
489
  5
C9
331
105
  5
3E4
331
144
  5
2D7
331
101
  5
3E8
331
140
  5
2DB
331
1B1
  5
29C
331
2A5
  5
1A8
331
31F
  5
121
331
22B
  5
228
331
227
  5
22C
331
2A1
  5
1AC
331
2DC
  5
13F
331
1AD
  5
2A0
331
223
  5
277
331
29D
  5
1B0
331
2D8
  5
143
331
1A9
  5
2A4
331
2D4
  5
147
331
299
  5
203
331
2D0
  5
14B
331
C6
  5
48C
331
485
  5
CA
331
13C
  5
2DF
331
C2
  5
490
331
FD
  5
3EC
331
481
  5
CE
331
BE
  5
494
331
47D
  5
D2
331
F9
  5
424
331
138
  5
2E3
331
BA
  5
498
331
479
  5
D6
331
F5
  5
428
331
134
  5
2E7
331
4B0
  5
9B
331
F1
  5
42C
331
130
  5
2EB
331
1A5
  5
2A8
331
21F
  5
27D
331
1A1
  5
2AC
331
295
  5
207
331
21B
  5
281
331
217
  5
285
331
291
  5
20B
331
19D
  5
2B0
331
213
  5
289
331
199
  5
2B4
331
28D
  5
20F
331
2CC
  5
14F
331
2C8
  5
153
331
289
  5
213
331
436
  5
E7
331
432
  5
EB
331
B6
  5
499
331
475
  5
DA
331
12C
  5
2EF
331
B2
  5
49D
331
471
  5
DE
331
ED
  5
430
331
4AC
  5
A3
331
128
  5
2F3
331
AE
  5
4A1
331
AA
  5
4A5
331
E9
  5
434
331
124
  5
2F7
331
4A8
  5
A7
331
120
  5
320
331
195
  5
2B8
331
20F
  5
28D
331
191
  5
2BC
331
285
  5
217
331
2C4
  5
157
331
20B
  5
291
331
281
  5
21B
331
2C0
  5
17F
331
207
  5
295
331
203
  5
299
331
2F7
  5
124
331
27D
  5
21F
331
2BC
  5
191
331
2B8
  5
195
331
42E
  5
EF
331
2F3
  5
128
331
332
  5
10E
331
42A
  5
F3
331
3EB
  5
FE
331
3E7
  5
102
331
426
  5
F7
331
3E3
  5
106
331
422
  5
FB
331
A6
  5
4A9
331
E5
  5
438
331
4A4
  5
AB
331
4A0
  5
AF
331
11C
  5
324
331
A2
  5
4AD
331
E1
  5
452
331
DD
  5
472
331
49C
  5
B3
331
118
  5
328
331
157
  5
2C4
331
D9
  5
476
331
498
  5
BA
331
114
  5
32C
331
153
  5
2C8
331
110
  5
330
331
275
  5
225
331
2B4
  5
199
331
2EF
  5
12C
331
32E
  5
112
331
32A
  5
116
331
2B0
  5
19D
331
2EB
  5
130
331
326
  5
11A
331
2AC
  5
1A1
331
2E7
  5
134
331
2A8
  5
1A5
331
2E3
  5
138
331
322
  5
11E
331
3D3
  5
10A
331
14F
  5
2CC
331
96
  5
4B1
331
D5
  5
47A
331
494
  5
BE
331
490
  5
C2
331
10C
  5
340
331
14B
  5
2D0
331
D1
  5
47E
331
CD
  5
482
331
48C
  5
C6
331
108
  5
3E1
331
147
  5
2D4
331
C9
  5
489
331
104
  5
3E5
331
143
  5
2D8
331
100
  5
3E9
331
1B0
  5
29D
331
2A4
  5
1A9
331
2DF
  5
13C
331
22A
  5
229
331
226
  5
22D
331
2A0
  5
1AD
331
2DB
  5
140
331
1AC
  5
2A1
331
222
  5
27A
331
29C
  5
1B1
331
2D7
  5
144
331
1A8
  5
2A5
331
298
  5
204
331
2D3
  5
148
331
34D
  5
10B
331
445
  5
E4
331
13F
  5
2DC
331
C5
  5
48D
331
484
  5
CB
331
13B
  5
2E0
331
C1
  5
491
331
FC
  5
421
331
480
  5
CF
331
BD
  5
495
331
47C
  5
D3
331
F8
  5
425
331
137
  5
2E4
331
7A
  5
4B3
331
478
  5
D7
331
4B3
  5
7A
331
F4
  5
429
331
133
  5
2E8
331
F0
  5
42D
331
1A4
  5
2A9
331
21E
  5
27E
331
1A0
  5
2AD
331
294
  5
208
331
21A
  5
282
331
216
  5
286
331
19C
  5
2B1
331
290
  5
20C
331
2CF
  5
14C
331
2CB
  5
150
331
212
  5
28A
331
28C
  5
210
331
198
  5
2B5
331
288
  5
214
331
435
  5
E8
331
431
  5
EC
331
B5
  5
49A
331
474
  5
DB
331
12F
  5
2EC
331
4AF
  5
A0
331
12B
  5
2F0
331
B1
  5
49E
331
470
  5
DF
331
AD
  5
4A2
331
EC
  5
431
331
4AB
  5
A4
331
127
  5
2F4
331
A9
  5
4A6
331
E8
  5
435
331
123
  5
2F8
331
194
  5
2B9
331
2C7
  5
154
331
20E
  5
28E
331
190
  5
2BD
331
284
  5
218
331
2C3
  5
158
331
20A
  5
292
331
206
  5
296
331
280
  5
21C
331
2BF
  5
18E
331
202
  5
29A
331
2F6
  5
125
331
27C
  5
220
331
2BB
  5
192
331
42D
  5
F0
331
2F2
  5
129
331
331
  5
10F
331
3EA
  5
FF
331
429
  5
F4
331
3E6
  5
103
331
425
  5
F8
331
3E2
  5
107
331
4A7
  5
A8
331
421
  5
FC
331
A5
  5
4AA
331
E4
  5
445
331
4A3
  5
AC
331
11F
  5
321
331
E0
  5
46F
331
49F
  5
B0
331
11B
  5
325
331
15A
  5
2C1
331
A1
  5
4AE
331
DC
  5
473
331
49B
  5
B4
331
117
  5
329
331
156
  5
2C5
331
D8
  5
477
331
113
  5
32D
331
152
  5
2C9
331
2B7
  5
196
331
2B3
  5
19A
331
2EE
  5
12D
331
32D
  5
113
331
329
  5
117
331
2AF
  5
19E
331
2EA
  5
131
331
2E6
  5
135
331
325
  5
11B
331
2AB
  5
1A2
331
2E2
  5
139
331
321
  5
11F
331
497
  5
BB
331
14E
  5
2CD
331
D4
  5
47B
331
10F
  5
331
331
493
  5
BF
331
48F
  5
C3
331
10B
  5
34D
331
14A
  5
2D1
331
D0
  5
47F
331
CC
  5
483
331
48B
  5
C7
331
107
  5
3E2
331
146
  5
2D5
331
89
  5
4B2
331
C8
  5
48A
331
103
  5
3E6
331
142
  5
2D9
331
2A7
  5
1A6
331
22D
  5
226
331
1AF
  5
29E
331
2A3
  5
1AA
331
2DE
  5
13D
331
229
  5
22A
331
225
  5
275
331
29F
  5
1AE
331
2DA
  5
141
331
1AB
  5
2A2
331
221
  5
27B
331
29B
  5
1B2
331
2D6
  5
145
331
2D2
  5
149
331
13E
  5
2DD
331
C4
  5
48E
331
FF
  5
3EA
331
483
  5
CC
331
47F
  5
D0
331
FB
  5
422
331
13A
  5
2E1
331
C0
  5
492
331
BC
  5
496
331
47B
  5
D4
331
F7
  5
426
331
136
  5
2E5
331
438
  5
E5
331
4B2
  5
89
331
F3
  5
42A
331
132
  5
2E9
  0
SORTENTSTABLE
  5
4B4
102
{ACAD_REACTORS
330
34F
102
}
330
34F
100
AcDbSortentsTable
330
34E
  0
SORTENTSTABLE
  5
4B6
102
{ACAD_REACTORS
330
1B4
102
}
330
1B4
100
AcDbSortentsTable
330
1B3
  0
SORTENTSTABLE
  5
4B5
102
{ACAD_REACTORS
330
15C
102
}
330
15C
100
AcDbSortentsTable
330
15B
  0
LAYOUT
  5
1F
102
{ACAD_REACTORS
330
18
102
}
330
18
100
AcDbPlotSettings
  1

  2

  4

  6

 40
0.0
 41
0.0
 42
0.0
 43
0.0
 44
0.0
 45
0.0
 46
0.0
 47
0.0
 48
0.0
 49
0.0
140
0.0
141
0.0
142
1.0
143
1.0
 70
   688
 72
     0
 73
     0
 74
     5
  7

 75
    16
147
1.0
 76
     0
 77
     2
 78
   300
148
0.0
149
0.0
100
AcDbLayout
  1
Layout1
 70
     1
 71
     1
 10
0.0
 20
0.0
 11
420.0
 21
297.0
 12
0.0
 22
0.0
 32
0.0
 14
1.000000000000000E+20
 24
1.000000000000000E+20
 34
1.000000000000000E+20
 15
-1.000000000000000E+20
 25
-1.000000000000000E+20
 35
-1.000000000000000E+20
146
0.0
 13
0.0
 23
0.0
 33
0.0
 16
1.0
 26
0.0
 36
0.0
 17
0.0
 27
1.0
 37
0.0
 76
     0
330
1C
  0
LAYOUT
  5
17
102
{ACAD_XDICTIONARY
360
19
102
}
102
{ACAD_REACTORS
330
18
102
}
330
18
100
AcDbPlotSettings
  1

  2
FreePDF
  4
A4
  6

 40
3.174999952316284
 41
3.174999952316284
 42
3.175003051757812
 43
3.17498779296875
 44
209.8886566162109
 45
297.0530090332031
 46
0.0
 47
0.0
 48
0.0
 49
901.6806640727478
140
420.0
141
1495.680664072748
142
1.0
143
2.063490116232918
 70
  3760
 72
     1
 73
     0
 74
     4
  7
monochrome.ctb
 75
     0
147
0.4846158419336592
 76
     1
 77
     2
 78
   300
148
0.0
149
-901.6806640727478
100
AcDbLayout
  1
Model
 70
     1
 71
     0
 10
0.0
 20
0.0
 11
12.0
 21
9.0
 12
0.0
 22
0.0
 32
0.0
 14
0.0
 24
0.0
 34
0.0
 15
0.0
 25
0.0
 35
0.0
146
0.0
 13
0.0
 23
0.0
 33
0.0
 16
1.0
 26
0.0
 36
0.0
 17
0.0
 27
1.0
 37
0.0
 76
     0
330
2
331
2F
1001
ACAD_PSEXT
1000
FreePDF
1000
MS Publisher Color Printer
1000
FreePDFXP1:
1000

1070
     0
  0
MATERIAL
  5
45
102
{ACAD_XDICTIONARY
360
46
102
}
102
{ACAD_REACTORS
330
D
102
}
330
D
100
AcDbMaterial
  1
ByBlock
 72
     0
 43
0.0008202099737533
 43
0.0
 43
0.0
 43
0.0
 43
0.0
 43
0.0008202099737533
 43
0.0
 43
0.0
 43
0.0
 43
0.0
 43
1.0
 43
0.0
 43
0.0
 43
0.0
 43
0.0
 43
1.0
 77
     0
 47
0.0008202099737533
 47
0.0
 47
0.0
 47
0.0
 47
0.0
 47
0.0008202099737533
 47
0.0
 47
0.0
 47
0.0
 47
0.0
 47
1.0
 47
0.0
 47
0.0
 47
0.0
 47
0.0
 47
1.0
171
     0
 49
0.0008202099737533
 49
0.0
 49
0.0
 49
0.0
 49
0.0
 49
0.0008202099737533
 49
0.0
 49
0.0
 49
0.0
 49
0.0
 49
1.0
 49
0.0
 49
0.0
 49
0.0
 49
0.0
 49
1.0
175
     0
142
0.0008202099737533
142
0.0
142
0.0
142
0.0
142
0.0
142
0.0008202099737533
142
0.0
142
0.0
142
0.0
142
0.0
142
1.0
142
0.0
142
0.0
142
0.0
142
0.0
142
1.0
179
     0
144
0.0008202099737533
144
0.0
144
0.0
144
0.0
144
0.0
144
0.0008202099737533
144
0.0
144
0.0
144
0.0
144
0.0
144
1.0
144
0.0
144
0.0
144
0.0
144
0.0
144
1.0
147
0.0008202099737533
147
0.0
147
0.0
147
0.0
147
0.0
147
0.0008202099737533
147
0.0
147
0.0
147
0.0
147
0.0
147
1.0
147
0.0
147
0.0
147
0.0
147
0.0
147
1.0
  0
MATERIAL
  5
3D
102
{ACAD_XDICTIONARY
360
3E
102
}
102
{ACAD_REACTORS
330
D
102
}
330
D
100
AcDbMaterial
  1
ByLayer
 72
     0
 43
0.0008202099737533
 43
0.0
 43
0.0
 43
0.0
 43
0.0
 43
0.0008202099737533
 43
0.0
 43
0.0
 43
0.0
 43
0.0
 43
1.0
 43
0.0
 43
0.0
 43
0.0
 43
0.0
 43
1.0
 77
     0
 47
0.0008202099737533
 47
0.0
 47
0.0
 47
0.0
 47
0.0
 47
0.0008202099737533
 47
0.0
 47
0.0
 47
0.0
 47
0.0
 47
1.0
 47
0.0
 47
0.0
 47
0.0
 47
0.0
 47
1.0
171
     0
 49
0.0008202099737533
 49
0.0
 49
0.0
 49
0.0
 49
0.0
 49
0.0008202099737533
 49
0.0
 49
0.0
 49
0.0
 49
0.0
 49
1.0
 49
0.0
 49
0.0
 49
0.0
 49
0.0
 49
1.0
175
     0
142
0.0008202099737533
142
0.0
142
0.0
142
0.0
142
0.0
142
0.0008202099737533
142
0.0
142
0.0
142
0.0
142
0.0
142
1.0
142
0.0
142
0.0
142
0.0
142
0.0
142
1.0
179
     0
144
0.0008202099737533
144
0.0
144
0.0
144
0.0
144
0.0
144
0.0008202099737533
144
0.0
144
0.0
144
0.0
144
0.0
144
1.0
144
0.0
144
0.0
144
0.0
144
0.0
144
1.0
147
0.0008202099737533
147
0.0
147
0.0
147
0.0
147
0.0
147
0.0008202099737533
147
0.0
147
0.0
147
0.0
147
0.0
147
1.0
147
0.0
147
0.0
147
0.0
147
0.0
147
1.0
  0
MATERIAL
  5
C
102
{ACAD_XDICTIONARY
360
E
102
}
102
{ACAD_REACTORS
330
D
102
}
330
D
100
AcDbMaterial
  1
Global
 72
     0
 43
0.0008202099737533
 43
0.0
 43
0.0
 43
0.0
 43
0.0
 43
0.0008202099737533
 43
0.0
 43
0.0
 43
0.0
 43
0.0
 43
1.0
 43
0.0
 43
0.0
 43
0.0
 43
0.0
 43
1.0
 77
     0
 47
0.0008202099737533
 47
0.0
 47
0.0
 47
0.0
 47
0.0
 47
0.0008202099737533
 47
0.0
 47
0.0
 47
0.0
 47
0.0
 47
1.0
 47
0.0
 47
0.0
 47
0.0
 47
0.0
 47
1.0
171
     0
 49
0.0008202099737533
 49
0.0
 49
0.0
 49
0.0
 49
0.0
 49
0.0008202099737533
 49
0.0
 49
0.0
 49
0.0
 49
0.0
 49
1.0
 49
0.0
 49
0.0
 49
0.0
 49
0.0
 49
1.0
175
     0
142
0.0008202099737533
142
0.0
142
0.0
142
0.0
142
0.0
142
0.0008202099737533
142
0.0
142
0.0
142
0.0
142
0.0
142
1.0
142
0.0
142
0.0
142
0.0
142
0.0
142
1.0
179
     0
144
0.0008202099737533
144
0.0
144
0.0
144
0.0
144
0.0
144
0.0008202099737533
144
0.0
144
0.0
144
0.0
144
0.0
144
1.0
144
0.0
144
0.0
144
0.0
144
0.0
144
1.0
147
0.0008202099737533
147
0.0
147
0.0
147
0.0
147
0.0
147
0.0008202099737533
147
0.0
147
0.0
147
0.0
147
0.0
147
1.0
147
0.0
147
0.0
147
0.0
147
0.0
147
1.0
  0
MLINESTYLE
  5
54
102
{ACAD_REACTORS
330
3B
102
}
330
3B
100
AcDbMlineStyle
  2
STANDARD
 70
     0
  3

 62
   256
 51
90.0
 52
90.0
 71
     2
 49
0.5
 62
   256
  6
BYLAYER
 49
-0.5
 62
   256
  6
BYLAYER
  0
ACDBPLACEHOLDER
  5
9
102
{ACAD_REACTORS
330
A
102
}
330
A
  0
SCALE
  5
59
102
{ACAD_REACTORS
330
4E
102
}
330
4E
100
AcDbScale
 70
     0
300
1:1
140
1.0
141
1.0
290
     1
  0
SCALE
  5
5A
102
{ACAD_REACTORS
330
4E
102
}
330
4E
100
AcDbScale
 70
     0
300
1:2
140
1.0
141
2.0
290
     0
  0
SCALE
  5
5B
102
{ACAD_REACTORS
330
4E
102
}
330
4E
100
AcDbScale
 70
     0
300
1:4
140
1.0
141
4.0
290
     0
  0
SCALE
  5
5C
102
{ACAD_REACTORS
330
4E
102
}
330
4E
100
AcDbScale
 70
     0
300
1:5
140
1.0
141
5.0
290
     0
  0
SCALE
  5
5D
102
{ACAD_REACTORS
330
4E
102
}
330
4E
100
AcDbScale
 70
     0
300
1:8
140
1.0
141
8.0
290
     0
  0
SCALE
  5
5E
102
{ACAD_REACTORS
330
4E
102
}
330
4E
100
AcDbScale
 70
     0
300
1:10
140
1.0
141
10.0
290
     0
  0
SCALE
  5
5F
102
{ACAD_REACTORS
330
4E
102
}
330
4E
100
AcDbScale
 70
     0
300
1:16
140
1.0
141
16.0
290
     0
  0
SCALE
  5
60
102
{ACAD_REACTORS
330
4E
102
}
330
4E
100
AcDbScale
 70
     0
300
1:20
140
1.0
141
20.0
290
     0
  0
SCALE
  5
61
102
{ACAD_REACTORS
330
4E
102
}
330
4E
100
AcDbScale
 70
     0
300
1:30
140
1.0
141
30.0
290
     0
  0
SCALE
  5
62
102
{ACAD_REACTORS
330
4E
102
}
330
4E
100
AcDbScale
 70
     0
300
1:40
140
1.0
141
40.0
290
     0
  0
SCALE
  5
63
102
{ACAD_REACTORS
330
4E
102
}
330
4E
100
AcDbScale
 70
     0
300
1:50
140
1.0
141
50.0
290
     0
  0
SCALE
  5
64
102
{ACAD_REACTORS
330
4E
102
}
330
4E
100
AcDbScale
 70
     0
300
1:100
140
1.0
141
100.0
290
     0
  0
SCALE
  5
65
102
{ACAD_REACTORS
330
4E
102
}
330
4E
100
AcDbScale
 70
     0
300
2:1
140
2.0
141
1.0
290
     0
  0
SCALE
  5
66
102
{ACAD_REACTORS
330
4E
102
}
330
4E
100
AcDbScale
 70
     0
300
4:1
140
4.0
141
1.0
290
     0
  0
SCALE
  5
67
102
{ACAD_REACTORS
330
4E
102
}
330
4E
100
AcDbScale
 70
     0
300
8:1
140
8.0
141
1.0
290
     0
  0
SCALE
  5
68
102
{ACAD_REACTORS
330
4E
102
}
330
4E
100
AcDbScale
 70
     0
300
10:1
140
10.0
141
1.0
290
     0
  0
SCALE
  5
69
102
{ACAD_REACTORS
330
4E
102
}
330
4E
100
AcDbScale
 70
     0
300
100:1
140
100.0
141
1.0
290
     0
  0
SCALE
  5
6A
102
{ACAD_REACTORS
330
4E
102
}
330
4E
100
AcDbScale
 70
     0
300
1/128" = 1'-0"
140
0.0078125
141
12.0
290
     0
  0
SCALE
  5
6B
102
{ACAD_REACTORS
330
4E
102
}
330
4E
100
AcDbScale
 70
     0
300
1/64" = 1'-0"
140
0.015625
141
12.0
290
     0
  0
SCALE
  5
6C
102
{ACAD_REACTORS
330
4E
102
}
330
4E
100
AcDbScale
 70
     0
300
1/32" = 1'-0"
140
0.03125
141
12.0
290
     0
  0
SCALE
  5
6D
102
{ACAD_REACTORS
330
4E
102
}
330
4E
100
AcDbScale
 70
     0
300
1/16" = 1'-0"
140
0.0625
141
12.0
290
     0
  0
SCALE
  5
6E
102
{ACAD_REACTORS
330
4E
102
}
330
4E
100
AcDbScale
 70
     0
300
3/32" = 1'-0"
140
0.09375
141
12.0
290
     0
  0
SCALE
  5
6F
102
{ACAD_REACTORS
330
4E
102
}
330
4E
100
AcDbScale
 70
     0
300
1/8" = 1'-0"
140
0.125
141
12.0
290
     0
  0
SCALE
  5
70
102
{ACAD_REACTORS
330
4E
102
}
330
4E
100
AcDbScale
 70
     0
300
3/16" = 1'-0"
140
0.1875
141
12.0
290
     0
  0
SCALE
  5
71
102
{ACAD_REACTORS
330
4E
102
}
330
4E
100
AcDbScale
 70
     0
300
1/4" = 1'-0"
140
0.25
141
12.0
290
     0
  0
SCALE
  5
72
102
{ACAD_REACTORS
330
4E
102
}
330
4E
100
AcDbScale
 70
     0
300
3/8" = 1'-0"
140
0.375
141
12.0
290
     0
  0
SCALE
  5
73
102
{ACAD_REACTORS
330
4E
102
}
330
4E
100
AcDbScale
 70
     0
300
1/2" = 1'-0"
140
0.5
141
12.0
290
     0
  0
SCALE
  5
74
102
{ACAD_REACTORS
330
4E
102
}
330
4E
100
AcDbScale
 70
     0
300
3/4" = 1'-0"
140
0.75
141
12.0
290
     0
  0
SCALE
  5
75
102
{ACAD_REACTORS
330
4E
102
}
330
4E
100
AcDbScale
 70
     0
300
1" = 1'-0"
140
1.0
141
12.0
290
     0
  0
SCALE
  5
76
102
{ACAD_REACTORS
330
4E
102
}
330
4E
100
AcDbScale
 70
     0
300
1-1/2" = 1'-0"
140
1.5
141
12.0
290
     0
  0
SCALE
  5
77
102
{ACAD_REACTORS
330
4E
102
}
330
4E
100
AcDbScale
 70
     0
300
3" = 1'-0"
140
3.0
141
12.0
290
     0
  0
SCALE
  5
78
102
{ACAD_REACTORS
330
4E
102
}
330
4E
100
AcDbScale
 70
     0
300
6" = 1'-0"
140
6.0
141
12.0
290
     0
  0
SCALE
  5
79
102
{ACAD_REACTORS
330
4E
102
}
330
4E
100
AcDbScale
 70
     0
300
1'-0" = 1'-0"
140
12.0
141
12.0
290
     0
  0
TABLESTYLE
  5
55
102
{ACAD_XDICTIONARY
360
56
102
}
102
{ACAD_REACTORS
330
4F
102
}
330
4F
100
AcDbTableStyle
280
     0
  3
Standard
 70
     0
 71
     0
 40
1.5
 41
1.5
280
     0
281
     0
  7
Standard
140
4.5
170
     2
 62
     0
 63
     7
283
     0
 90
      512
 91
        0
  1

274
    -2
284
     1
 64
     0
275
    -2
285
     1
 65
     0
276
    -2
286
     1
 66
     0
277
    -2
287
     1
 67
     0
278
    -2
288
     1
 68
     0
279
    -2
289
     1
 69
     0
  7
Standard
140
6.0
170
     5
 62
     0
 63
     7
283
     0
 90
      512
 91
        0
  1

274
    -2
284
     1
 64
     0
275
    -2
285
     1
 65
     0
276
    -2
286
     1
 66
     0
277
    -2
287
     1
 67
     0
278
    -2
288
     1
 68
     0
279
    -2
289
     1
 69
     0
  7
Standard
140
4.5
170
     5
 62
     0
 63
     7
283
     0
 90
      512
 91
        0
  1

274
    -2
284
     1
 64
     0
275
    -2
285
     1
 65
     0
276
    -2
286
     1
 66
     0
277
    -2
287
     1
 67
     0
278
    -2
288
     1
 68
     0
279
    -2
289
     1
 69
     0
  0
VISUALSTYLE
  5
30
102
{ACAD_REACTORS
330
31
102
}
330
31
100
AcDbVisualStyle
  2
2dWireframe
 70
     4
177
     2
291
     0
 71
     0
176
     1
 72
     2
176
     1
 73
     0
176
     1
 90
        0
176
     1
 40
0.6
176
     1
 41
30.0
176
     1
 63
     7
176
     1
 74
     1
176
     1
 91
        4
176
     1
 64
     7
176
     1
 65
   257
176
     1
 75
     1
176
     1
175
     1
176
     1
 42
1.0
176
     1
 92
        0
176
     1
 66
   257
176
     1
 43
1.0
176
     1
 76
     1
176
     1
 77
     6
176
     1
 78
     2
176
     1
 67
     7
176
     1
 79
     5
176
     1
170
     0
176
     1
171
     0
176
     1
290
     0
176
     1
 93
        1
176
     1
 44
0.0
176
     1
173
     0
176
     1
  0
VISUALSTYLE
  5
58
102
{ACAD_REACTORS
330
31
102
}
330
31
100
AcDbVisualStyle
  2
3dWireframe
 70
     5
177
     2
291
     0
 71
     0
176
     1
 72
     2
176
     1
 73
     0
176
     1
 90
        0
176
     1
 40
0.6
176
     1
 41
30.0
176
     1
 63
     7
176
     1
 74
     1
176
     1
 91
        4
176
     1
 64
     7
176
     1
 65
   257
176
     1
 75
     1
176
     1
175
     1
176
     1
 42
1.0
176
     1
 92
        0
176
     1
 66
   257
176
     1
 43
1.0
176
     1
 76
     1
176
     1
 77
     6
176
     1
 78
     2
176
     1
 67
     7
176
     1
 79
     5
176
     1
170
     0
176
     1
171
     0
176
     1
290
     0
176
     1
 93
        1
176
     1
 44
0.0
176
     1
173
     0
176
     1
  0
VISUALSTYLE
  5
57
102
{ACAD_REACTORS
330
31
102
}
330
31
100
AcDbVisualStyle
  2
Realistic
 70
     8
177
     2
291
     0
 71
     2
176
     1
 72
     2
176
     1
 73
     0
176
     1
 90
        0
176
     1
 40
0.6
176
     1
 41
30.0
176
     1
 63
     7
176
     1
 74
     1
176
     1
 91
        0
176
     1
 64
     7
176
     1
 65
   257
176
     1
 75
     1
176
     1
175
     1
176
     1
 42
1.0
176
     1
 92
        8
176
     1
 66
     8
176
     1
 43
1.0
176
     1
 76
     1
176
     1
 77
     6
176
     1
 78
     2
176
     1
 67
     7
176
     1
 79
     5
176
     1
170
     0
176
     1
171
     0
176
     1
290
     0
176
     1
 93
       13
176
     1
 44
0.0
176
     1
173
     0
176
     1
  0
DICTIONARYVAR
  5
4BB
102
{ACAD_REACTORS
330
4B8
102
}
330
4B8
100
DictionaryVariables
280
     0
  1
1:1
  0
DICTIONARYVAR
  5
4BA
102
{ACAD_REACTORS
330
4B8
102
}
330
4B8
100
DictionaryVariables
280
     0
  1
STANDARD
  0
DICTIONARYVAR
  5
4B9
102
{ACAD_REACTORS
330
4B8
102
}
330
4B8
100
DictionaryVariables
280
     0
  1
STANDARD
  0
DICTIONARYVAR
  5
4BD
102
{ACAD_REACTORS
330
4B8
102
}
330
4B8
100
DictionaryVariables
280
     0
  1
1
  0
DICTIONARYVAR
  5
4BE
102
{ACAD_REACTORS
330
4B8
102
}
330
4B8
100
DictionaryVariables
280
     0
  1
15
  0
DICTIONARYVAR
  5
4BC
102
{ACAD_REACTORS
330
4B8
102
}
330
4B8
100
DictionaryVariables
280
     0
  1
0
  0
DICTIONARY
  5
19
330
17
100
AcDbDictionary
280
     1
281
     1
  3
ADSK_XREC_LAYOUTTHUMBNAIL
360
1A
  0
DICTIONARY
  5
46
330
45
100
AcDbDictionary
280
     1
281
     1
  3
BUMPTILE
360
47
  3
DIFFUSETILE
360
48
  3
OPACITYTILE
360
49
  3
REFLECTIONTILE
360
4A
  3
REFRACTIONTILE
360
4B
  3
SPECULARTILE
360
4C
  0
DICTIONARY
  5
3E
330
3D
100
AcDbDictionary
280
     1
281
     1
  3
BUMPTILE
360
3F
  3
DIFFUSETILE
360
40
  3
OPACITYTILE
360
41
  3
REFLECTIONTILE
360
42
  3
REFRACTIONTILE
360
43
  3
SPECULARTILE
360
44
  0
DICTIONARY
  5
E
330
C
100
AcDbDictionary
280
     1
281
     1
  3
BUMPTILE
360
F
  3
DIFFUSETILE
360
10
  3
OPACITYTILE
360
11
  3
REFLECTIONTILE
360
12
  3
REFRACTIONTILE
360
13
  3
SPECULARTILE
360
14
  0
DICTIONARY
  5
56
330
55
100
AcDbDictionary
280
     1
281
     1
  3
ACAD_ROUNDTRIP_2008_TABLESTYLE_CELLSTYLEMAP
360
4BF
  0
XRECORD
  5
1A
102
{ACAD_REACTORS
330
19
102
}
330
19
100
AcDbXrecord
280
     1
310
280000000001000074000000010008000000000000740000000000000000000000010000000000000000000000000000FFFFFF000000000000000000000000000000000000000000000000000000000000000000330000006600000099000000CC000000FF00000000330000333300006633000099330000CC330000FF3300
310
0000660000336600006666000099660000CC660000FF66000000990000339900006699000099990000CC990000FF99000000CC000033CC000066CC000099CC0000CCCC0000FFCC000000FF000033FF000066FF000099FF0000CCFF0000FFFF000000003300330033006600330099003300CC003300FF003300003333003333
310
33006633330099333300CC333300FF33330000663300336633006666330099663300CC663300FF66330000993300339933006699330099993300CC993300FF99330000CC330033CC330066CC330099CC3300CCCC3300FFCC330000FF330033FF330066FF330099FF3300CCFF3300FFFF330000006600330066006600660099
310
006600CC006600FF00660000336600333366006633660099336600CC336600FF33660000666600336666006666660099666600CC666600FF66660000996600339966006699660099996600CC996600FF99660000CC660033CC660066CC660099CC6600CCCC6600FFCC660000FF660033FF660066FF660099FF6600CCFF6600
310
FFFF660000009900330099006600990099009900CC009900FF00990000339900333399006633990099339900CC339900FF33990000669900336699006666990099669900CC669900FF66990000999900339999006699990099999900CC999900FF99990000CC990033CC990066CC990099CC9900CCCC9900FFCC990000FF99
310
0033FF990066FF990099FF9900CCFF9900FFFF99000000CC003300CC006600CC009900CC00CC00CC00FF00CC000033CC003333CC006633CC009933CC00CC33CC00FF33CC000066CC003366CC006666CC009966CC00CC66CC00FF66CC000099CC003399CC006699CC009999CC00CC99CC00FF99CC0000CCCC0033CCCC0066CC
310
CC0099CCCC00CCCCCC00FFCCCC0000FFCC0033FFCC0066FFCC0099FFCC00CCFFCC00FFFFCC000000FF003300FF006600FF009900FF00CC00FF00FF00FF000033FF003333FF006633FF009933FF00CC33FF00FF33FF000066FF003366FF006666FF009966FF00CC66FF00FF66FF000099FF003399FF006699FF009999FF00CC
310
99FF00FF99FF0000CCFF0033CCFF0066CCFF0099CCFF00CCCCFF00FFCCFF0000FFFF0033FFFF0066FFFF0099FFFF00CCFFFF00FFFFFF00000000000D0D0D001A1A1A00282828003535350043434300505050005D5D5D006B6B6B00787878008686860093939300A1A1A100AEAEAE00BBBBBB00C9C9C900D6D6D600E4E4E400
310
F1F1F100FFFFFF0000000000000000000000000000000000000000000000000000000000000000000000000000000000E2E2E2E2E2E2E2E2E2E2E2E2E2E2E2E2E2E2E2E2E2E2E2E2E2E2E2E2E2E2E2E2E2E2E2E2E2E2E2E2E2E2E2E2E2E2E2E2E2E2E2E2E2E2E2E2E2E2E2E2E2E2E2E2E2E2E2E2E2E2E2E2E2E2E2E2E2E2E2
310
E2E2E2E2E2E2E2E2E2E2E2E2E2E2E2E2E2E2E2E2E2E2E2E2E2E2E2E2E2E2E2E2E2E2E2E2E2E2E2E2E2E2E2E2E2E2E2E2E2E2E2E2E2E2E2E2E2E2E2E2E2E2E2E2E2E2E2E2E2E2E2E2E2E2E2E2E2E2E2E2E2E2E2E2E2E2E2E2E2E2E2E2E2E2E2E2E2E2E2E2E2E2E2E2E2E2E2E2E2E2E2E2E2E2E2E2E2E2E2E2E2E2E2E2E2E2E2
310
E2E2E2E2E2E2E2E2E2E2E2E2E2E2E2E2E2E2E2E2E2E2E2E2E2E2E2E2E2E2E2E2E2E2E2E2E2E2E2E2E2E2E2E2E2E2E2E2E2E2E2E2E2E2E2E2E2E2E2E2E2E2E2E2E2E2E2E2E2E2E2E2E2E2E2E2E2E2E2E2E2E2E2E2E2E2E2E2E2E2E2E2E2E2E2E2E2E2E2E2E2E2E2E2E2E2E2E2E2E2E2E2E2E2E2E2E2E2E2E2E2E2E2E2E2E2E2
310
E2E2E2E2E2E2E2E2E2E2E2E2E2E2E2E2E2E2E2E2E2E2E2E2E2E2E2E2E2E2E2E2E2E2E2E2E2E2E2E2E2E2E2E2E2E2E2E2E2E2E2E2E2E2E2E2E2E2E2E2E2E2E2E2E2E2E2E2E2E2E2E2E2E2E2E2E2E2E2E2E2E2E2E2E2E2E2E2E2E2E2E2E2E2E2E2E2E2E2E2E2E2E2E2E2E2E2E2E2E2E2E2E2E2E2E2E2E2E2E2E2E2E2E2E2E2E2
310
E2E2E2E2E2E2E2E2E2E2E2E2E2E2E2E2E2E2E2E2E2E2E2E2E2E2E2E2E2E2E2E2E2E2E2E2E2E2E2E2E2E2E2E2E2E2E2E2E2E2E2E2E2E2E2E2E2E2E2E2E2E2E2E2E2E2E2E2E2E2E2E2E2E2E2E2E2E2E2E2E2E2E2E2E2E2E2E2E2E2E2E2E2E2E2E2E2E2E2E2E2E2E2E2E2E2E2E2E2E2E2E2E2E2E2E2E2E2E2E2E2E2E2E2E2E2E2
310
E2E2E2E2E2E2E2E2E2E2E2E2E2E2E2E2E2E2E2E2E2E2E2E2E2E2E2E2E2E2E2E2E2E2E2E2E2E2E2E2E2E2E2E2E2E2E2E2E2E2E2E2E2E2E2E2E2E2E2E2E2E2E2E2E2E2E2E2E2E2E2E2E2E2E2E2E2E2E2E2E2E2E2E2E2E2E2E2E2E2E2E2E2E2E2E2E2E2E2E2E2E2E2E2E2E2E2E2E2E2E2E2E2E2E2E2E2E2E2E2E2E2E2E2E2E2E2
310
E2E2E2E2E2E2E2E2E2E2E2E2E2E2E2E2E2E2E2E2E2E2E2E2E2E2E2E2E2E2E2E2E2E2E2E2E2E2E2E2E2E2E2E2E2E2E2E2E2E2E2E2E2E2E2E2E2E2E2E2E2E2E2E2E2E2E2E2E2E2E2E2E2E2E2E2E2E2E2E2E2E2E2E2E2E2E2E2E2E2E2E2E2E2E2E2E2E2E2E2E2E2E2E2E2E2E2E2E2E2E2E2E2E2E2E2E2E2E2E2E2E2E2E2E2E2E2
310
E2E2E2E2E2E2E2E2E2E2E2E2E2E2E2E2E2E2E2E2E2E2E2E2E2E2E2E2E2E2E2E2E2E2E2E2E2E2E2E2E2E2E2E2E2E2E2E2E2E2E2E2E2E2E2E2E2E2E2E2E2E2E2E2E2E2E2E2E2E2E2E2E2E2E2E2E2E2E2E2E2E2E2E2E2E2E2E2E2E2E2E2E2E2E2E2E2E2E2E2E2E2E2E2E2E2E2E2E2E2E2E2E2E2E2E2E2E2E2E2E2E2E2E2E2E2E2
310
E2E2E2E2E2E2E2E2E2E2E2E2E2E2E2E2E2E2E2E2E2E2E2E2E2E2E2E2E2E2E2E2E2E2E2E2E2E2E2E2E2E2E2E2E2E2E2E2E2E2E2E2E2E2E2E2E2E2E2E2E2E2E2E2E2E2E2E2E2E2E2E2E2E2E2E2E2E2E2E2E2E2E2E2E2E2E2E2E2E2E2E2E2E2E2E2E2E2E2E2E2E2E2E2BEBEBEBEBEBEBEBEBEBEBEBEBEBEBEBEBEBEBEBEBEBEBE
310
BEBEBEBEBEBEBEBEBEBEBEBEBEBEBEBEBEBEBEBEBEBEBEBEBEBEBEBEBEBEBEBEBEBEBEBEBEBEBEBEBEBEBEBEBEBEBEBEBEBEBEBEBEBEE2E2E2E2E2E2E2E2E2E2E2E2E2E2E2E2E2E2E2E2E2E2E2E2E2E2E2E2E2E2E2E2E2E2E2E2E2E2E2E2E2E2E2E2E2E2E2E2E2E2E2E2E2E2E2E2E2E2E2E2E2E2E2E2E2E2E2E2E2E2E2E2E2
310
E2E2E2E2E2E2E2E2E2E2E2E2E2E2E2E2E2E2E2E2E2E2E2E2E2E2E2E2E2E2E2E2E2E2E2E2E2E2E2E2E2E2E2E2E2E2E2E2E2E2E2E2E2E2E2E2E2E2E2E2E2E2E2E2E2E2E2E2E2E2E2E2E2E2E2E2E2E2E2E2E2E2E2E2E2E2E2E2E2E2E2E2E2E2E2E2E2E2E2E2E2E2E2E2E2E2BEE2E2E2E2E2E2E2E2E2E2E2E2E2E2E2E2E2E2E2E2
310
E2E2E2E2E2E2E2E2E2E2E2E2E2E2E2E2E2E2E2E2E2E2E2E2E2E2E2E2E2E2E2E2E2E2E2E2E2E2E2E2E2E2E2E2E2E2E2E2E2E2E2E2E2E2E2BEE2E2E2E2E2E2E2E2E2E2E2E2E2E2E2E2E2E2E2E2E2E2E2E2E2E2E2E2E2E2E2E2E2E2E2E2E2E2E2E2E2E2E2E2E2E2E2E2E2E2E2E2E2E2E2E2E2E2E2E2E2E2E2E2E2E2E2E2E2E2E2
310
E2E2E2E2E2E2E2E2E2E2E2E2E2E2E2E2E2E2E2E2E2E2E2E2E2E2E2E2E2E2E2E2E2E2E2E2E2E2E2E2E2E2E2E2E2E2E2E2E2E2E2E2E2E2E2E2E2E2E2E2E2E2E2E2E2E2E2E2E2E2E2E2E2E2E2E2E2E2E2E2E2E2E2E2E2E2E2E2E2E2E2E2E2E2E2E2E2E2E2E2E2E2E2E2E2E2E2E2BEE2E2E2E2E2E2DCDCDCDCDCDCDCDCDCDCDCDC
310
DCDCDCDCDCDCDCDCDCDCDCDCDCDCDCDCDCDCDCDCDCDCDCDCDCDCDCDCDCDCDCDCDCDCDCDCDCDCDCDCDCDCDCDCDCDCDCDCDCDCDCDCDCDCDCDCE2BEE2E2E2E2E2E2E2E2E2E2E2E2E2E2E2E2E2E2E2E2E2E2E2E2E2E2E2E2E2E2E2E2E2E2E2E2E2E2E2E2E2E2E2E2E2E2E2E2E2E2E2E2E2E2E2E2E2E2E2E2E2E2E2E2E2E2E2E2E2
310
E2E2E2E2E2E2E2E2E2E2E2E2E2E2E2E2E2E2E2E2E2E2E2E2E2E2E2E2E2E2E2E2E2E2E2E2E2E2E2E2E2E2E2E2E2E2E2E2E2E2E2E2E2E2E2E2E2E2E2E2E2E2E2E2E2E2E2E2E2E2E2E2E2E2E2E2E2E2E2E2E2E2E2E2E2E2E2E2E2E2E2E2E2E2E2E2E2E2E2E2E2E2E2E2E2E2E2E2E2E2BEE2E2E2E2E2E2DCE2E2E2E2E2E2E2E2DC
310
E2E2E2E2E2E2E2E2DCE2E2E2E2E2BEBEBEBEBEBEBEBEE2E2E2BEBEBEBEBEBEBEBEBEBEDCE2E2E2E2E2E2E2E2E2E2E2DCBEBEBEBEBEBEE2E2E2DCE2BEE2E2E2E2E2E2E2E2E2E2E2E2E2E2E2E2E2E2E2E2E2E2E2E2E2E2E2E2E2E2E2E2E2E2E2E2E2E2E2E2E2E2E2E2E2E2E2E2E2E2E2E2E2E2E2E2E2E2E2E2E2E2E2E2E2E2E2
310
E2E2E2E2E2E2E2E2E2E2E2E2E2E2E2E2E2E2E2E2E2E2E2E2E2E2E2E2E2E2E2E2E2E2E2E2E2E2E2E2E2E2E2E2E2E2E2E2E2E2E2E2E2E2E2E2E2E2E2E2E2E2E2E2E2E2E2E2E2E2E2E2E2E2E2E2E2E2E2E2E2E2E2E2E2E2E2E2E2E2E2E2E2E2E2E2E2E2E2E2E2E2E2E2E2E2E2E2E2E2E2E2BEE2E2E2E2E2E2DCF5F5F5F5F5DCDC
310
DCDCF5F5F5F5F5DCDCDCDCE2E2E2E2E2BEBEBEBEBEBEBEBEBEE2E2BEBEBEBEBEBEBEBEE2BEDCE2E2E2E2E2E2E2E2E2E2E2DCBEBEBEBEBEBEE2E2E2DCE2BEE2E2E2E2E2E2E2E2E2E2E2E2E2E2E2E2E2E2E2E2E2E2E2E2E2E2E2E2E2E2E2E2E2E2E2E2E2E2E2E2E2E2E2E2E2E2E2E2E2E2E2E2E2E2E2E2E2E2E2E2E2E2E2E2E2
310
E2E2E2E2E2E2E2E2E2E2E2E2E2E2E2E2E2E2E2E2E2E2E2E2E2E2E2E2E2E2E2E2E2E2E2E2E2E2E2E2E2E2E2E2E2E2E2E2E2E2E2E2E2E2E2E2E2E2E2E2E2E2E2E2E2E2E2E2E2E2E2E2E2E2E2E2E2E2E2E2E2E2E2E2E2E2E2E2E2E2E2E2E2E2E2E2E2E2E2E2E2E2E2E2E2E2E2E2E2E2E2E2E2E2BEE2E2E2E2E2E2DCE2E2DCE2E2
310
E2E2E2E2DCE2E2E2E2DCE2E2DCE2E2BEBEBEBEBEBEBEBEBEBEBEBEE2E2F5F5F5F5F5F5F5F5E2E2DCF5F5F5F5F5F5F5F5F5E2E2DCF5F5F5F5F5F5F5E2E2DCE2BEE2E2E2E2E2E2E2E2E2E2E2E2E2E2E2E2E2E2E2E2E2E2E2E2E2E2E2E2E2E2E2E2E2E2E2E2E2E2E2E2E2E2E2E2E2E2E2E2E2E2E2E2E2E2E2E2E2E2E2E2E2E2E2
310
E2E2E2E2E2E2E2E2E2E2E2E2E2E2E2E2E2E2E2E2E2E2E2E2E2E2E2E2E2E2E2E2E2E2E2E2E2E2E2E2E2E2E2E2E2E2E2E2E2E2E2E2E2E2E2E2E2E2E2E2E2E2E2E2E2E2E2E2E2E2E2E2E2E2E2E2E2E2E2E2E2E2E2E2E2E2E2E2E2E2E2E2E2E2E2E2E2E2E2E2E2E2E2E2E2E2E2E2E2E2E2E2E2E2E2E2BEE2E2E2E2E2E2DCDCDCDC
310
DCDCDCDCDCDCDCDCDCDCDCDCDCDCDCE2E2E2E2BEBEBEBEBEBEBEBEBEBEE2E2DCF5DCF5DCF5F5DCDCDCDCF5F5F5F5F5F5F5F5F5DCDCDCF5F5DCF5DCF5DCDCDCDCE2BEE2E2E2E2E2E2E2E2E2E2E2E2E2E2E2E2E2E2E2E2E2E2E2E2E2E2E2E2E2E2E2E2E2E2E2E2E2E2E2E2E2E2E2E2E2E2E2E2E2E2E2E2E2E2E2E2E2E2E2E2E2
310
E2E2E2E2E2E2E2E2E2E2E2E2E2E2E2E2E2E2E2E2E2E2E2E2E2E2E2E2E2E2E2E2E2E2E2E2E2E2E2E2E2E2E2E2E2E2E2E2E2E2E2E2E2E2E2E2E2E2E2E2E2E2E2E2E2E2E2E2E2E2E2E2E2E2E2E2E2E2E2E2E2E2E2E2E2E2E2E2E2E2E2E2E2E2E2E2E2E2E2E2E2E2E2E2E2E2E2E2E2E2E2E2E2E2E2E2E2E2BEE2E2E2E2E2E2DCE2
310
E2DCE2E2E2E2E2E2DCE2E2E2E2DCE2E2DCE2E2E2BEBEBEBEBEBEBEBEBEBEE2E2E2BEBEBEBEBEBEBEBEBEBEBEBEBEE2E2E2E2E2E2E2E2E2E2E2E2E2E2E2E2E2E2E2DCE2BEE2E2E2E2E2E2E2E2E2E2E2E2E2E2E2E2E2E2E2E2E2E2E2E2E2E2E2E2E2E2E2E2E2E2E2E2E2E2E2E2E2E2E2E2E2E2E2E2E2E2E2E2E2E2E2E2E2E2E2
310
E2E2E2E2E2E2E2E2E2E2E2E2E2E2E2E2E2E2E2E2E2E2E2E2E2E2E2E2E2E2E2E2E2E2E2E2E2E2E2E2E2E2E2E2E2E2E2E2E2E2E2E2E2E2E2E2E2E2E2E2E2E2E2E2E2E2E2E2E2E2E2E2E2E2E2E2E2E2E2E2E2E2E2E2E2E2E2E2E2E2E2E2E2E2E2E2E2E2E2E2E2E2E2E2E2E2E2E2E2E2E2E2E2E2E2E2E2E2E2E2BEE2E2E2E2E2E2
310
DCDCDCDCDCDCDCDCDCDCDCDCDCDCDCDCDCDCDCDCDCDCDCDCDCDCDCDCDCDCDCDCDCDCDCBEBEBEBEBEBEBEBEBEBEBEBEBEE2E2E2E2E2E2E2E2E2E2E2E2E2E2E2E2E2E2E2DCE2BEE2E2E2E2E2E2E2E2E2E2E2E2E2E2E2E2E2E2E2E2E2E2E2E2E2E2E2E2E2E2E2E2E2E2E2E2E2E2E2E2E2E2E2E2E2E2E2E2E2E2E2E2E2E2E2E2E2
310
E2E2E2E2E2E2E2E2E2E2E2E2E2E2E2E2E2E2E2E2E2E2E2E2E2E2E2E2E2E2E2E2E2E2E2E2E2E2E2E2E2E2E2E2E2E2E2E2E2E2E2E2E2E2E2E2E2E2E2E2E2E2E2E2E2E2E2E2E2E2E2E2E2E2E2E2E2E2E2E2E2E2E2E2E2E2E2E2E2E2E2E2E2E2E2E2E2E2E2E2E2E2E2E2E2E2E2E2E2E2E2E2E2E2E2E2E2E2E2E2E2E2BEE2E2E2E2
310
E2E2DCE2E2DCE2E2E2E2E2E2DCE2E2E2E2DCE2E2DCF5F5F5E2E2E2E2DCE2E2E2E2E2E2E2E2DCBEE2E2E2BEBEBEBEBEE2E2E2E2E2E2E2BEE2E2E2E2E2E2E2E2E2E2E2E2E2E2DCE2BEE2E2E2E2E2E2E2E2E2E2E2E2E2E2E2E2E2E2E2E2E2E2E2E2E2E2E2E2E2E2E2E2E2E2E2E2E2E2E2E2E2E2E2E2E2E2E2E2E2E2E2E2E2E2E2
310
E2E2E2E2E2E2E2E2E2E2E2E2E2E2E2E2E2E2E2E2E2E2E2E2E2E2E2E2E2E2E2E2E2E2E2E2E2E2E2E2E2E2E2E2E2E2E2E2E2E2E2E2E2E2E2E2E2E2E2E2E2E2E2E2E2E2E2E2E2E2E2E2E2E2E2E2E2E2E2E2E2E2E2E2E2E2E2E2E2E2E2E2E2E2E2E2E2E2E2E2E2E2E2E2E2E2E2E2E2E2E2E2E2E2E2E2E2E2E2E2E2E2E2E2BEE2E2
310
E2E2E2E2DCDCDCDCDCDCDCDCDCDCDCDCDCDCDCDCDCDCDCF5F5F5BEBEBEBEBEBEBEBEBEBEDCDCDCBEBEBEBEBEBEBEBEBEBEBEBEBEBEBEBEBEBEBEBEBEBEE2BEBEBEBEBEBEBEBEE2DCE2BEE2E2E2E2E2E2E2E2E2E2E2E2E2E2E2E2E2E2E2E2E2E2E2E2E2E2E2E2E2E2E2E2E2E2E2E2E2E2E2E2E2E2E2E2E2E2E2E2E2E2E2E2E2
310
E2E2E2E2E2E2E2E2E2E2E2E2E2E2E2E2E2E2E2E2E2E2E2E2E2E2E2E2E2E2E2E2E2E2E2E2E2E2E2E2E2E2E2E2E2E2E2E2E2E2E2E2E2E2E2E2E2E2E2E2E2E2E2E2E2E2E2E2E2E2E2E2E2E2E2E2E2E2E2E2E2E2E2E2E2E2E2E2E2E2E2E2E2E2E2E2E2E2E2E2E2E2E2E2E2E2E2E2E2E2E2E2E2E2E2E2E2E2E2E2E2E2E2E2E2E2BE
310
E2E2E2E2E2E2DCE2E2DCE2E2E2E2E2E2DCE2E2E2E2DCE2E2DCF5F5DCBEBEBEBEBEBEBEBEBEBEE2E2E2BEBEBEBEBEBEBEBEBEBEBEBEBEBEBEBEBEBEBEBEBEBEBEBEBEBEBEBEBEE2BEBEDCE2BEE2E2E2E2E2E2E2E2E2E2E2E2E2E2E2E2E2E2E2E2E2E2E2E2E2E2E2E2E2E2E2E2E2E2E2E2E2E2E2E2E2E2E2E2E2E2E2E2E2E2E2
310
E2E2E2E2E2E2E2E2E2E2E2E2E2E2E2E2E2E2E2E2E2E2E2E2E2E2E2E2E2E2E2E2E2E2E2E2E2E2E2E2E2E2E2E2E2E2E2E2E2E2E2E2E2E2E2E2E2E2E2E2E2E2E2E2E2E2E2E2E2E2E2E2E2E2E2E2E2E2E2E2E2E2E2E2E2E2E2E2E2E2E2E2E2E2E2E2E2E2E2E2E2E2E2E2E2E2E2E2E2E2E2E2E2E2E2E2E2E2E2E2E2E2E2E2E2E2E2
310
E2BEE2E2E2E2E2E2DCF5F5F5F5F5F5F5F5DCDCF5F5F5F5F5F5F5F5DCDCDCF5F5F5F5F5F5F5F5F5F5DCDCDCF5F5F5F5F5F5F5F5F5F5F5F5E2E2E2E2E2E2E2E2E2E2E2E2E2E2E2E2E2E2E2E2DCE2BEE2E2E2E2E2E2E2E2E2E2E2E2E2E2E2E2E2E2E2E2E2E2E2E2E2E2E2E2E2E2E2E2E2E2E2E2E2E2E2E2E2E2E2E2E2E2E2E2E2
310
E2E2E2E2E2E2E2E2E2E2E2E2E2E2E2E2E2E2E2E2E2E2E2E2E2E2E2E2E2E2E2E2E2E2E2E2E2E2E2E2E2E2E2E2E2E2E2E2E2E2E2E2E2E2E2E2E2E2E2E2E2E2E2E2E2E2E2E2E2E2E2E2E2E2E2E2E2E2E2E2E2E2E2E2E2E2E2E2E2E2E2E2E2E2E2E2E2E2E2E2E2E2E2E2E2E2E2E2E2E2E2E2E2E2E2E2E2E2E2E2E2E2E2E2E2E2E2
310
E2E2E2BEE2E2E2E2E2E2DCF5DCF5F5F5DCDCDCDCDCF5F5DCDCDCF5DCDCDCDCDCF5F5F5F5F5F5F5F5F5F5DCDCDCF5F5F5F5F5F5F5F5DCF5F5F5DCDCDCDCDCDCDCDCDCDCDCDCDCDCDCDCDCDCDCDCDCE2BEE2E2E2E2E2E2E2E2E2E2E2E2E2E2E2E2E2E2E2E2E2E2E2E2E2E2E2E2E2E2E2E2E2E2E2E2E2E2E2E2E2E2E2E2E2E2E2
310
E2E2E2E2E2E2E2E2E2E2E2E2E2E2E2E2E2E2E2E2E2E2E2E2E2E2E2E2E2E2E2E2E2E2E2E2E2E2E2E2E2E2E2E2E2E2E2E2E2E2E2E2E2E2E2E2E2E2E2E2E2E2E2E2E2E2E2E2E2E2E2E2E2E2E2E2E2E2E2E2E2E2E2E2E2E2E2E2E2E2E2E2E2E2E2E2E2E2E2E2E2E2E2E2E2E2E2E2E2E2E2E2E2E2E2E2E2E2E2E2E2E2E2E2E2E2E2
310
E2E2E2E2E2BEE2E2E2E2E2E2DCE2E2E2E2E2E2E2E2E2E2E2E2E2E2E2E2E2DCE2E2E2E2E2E2E2DCE2BEBEBEBEBEBEBEDCE2E2E2E2E2E2E2E2E2E2E2DCE2E2E2E2E2E2E2E2E2E2E2DCE2E2E2E2E2E2E2DCE2BEE2E2E2E2E2E2E2E2E2E2E2E2E2E2E2E2E2E2E2E2E2E2E2E2E2E2E2E2E2E2E2E2E2E2E2E2E2E2E2E2E2E2E2E2E2
310
E2E2E2E2E2E2E2E2E2E2E2E2E2E2E2E2E2E2E2E2E2E2E2E2E2E2E2E2E2E2E2E2E2E2E2E2E2E2E2E2E2E2E2E2E2E2E2E2E2E2E2E2E2E2E2E2E2E2E2E2E2E2E2E2E2E2E2E2E2E2E2E2E2E2E2E2E2E2E2E2E2E2E2E2E2E2E2E2E2E2E2E2E2E2E2E2E2E2E2E2E2E2E2E2E2E2E2E2E2E2E2E2E2E2E2E2E2E2E2E2E2E2E2E2E2E2E2
310
E2E2E2E2E2E2E2BEE2E2E2E2E2E2DCE2E2E2E2E2E2E2E2E2E2E2E2E2E2E2E2E2DCDCDCDCDCDCDCDCDCBEBEBEBEBEBEBEBEDCF5F5F5F5F5F5F5F5F5E2E2F5F5F5F5F5F5F5F5F5F5E2E2DCF5F5F5F5F5F5F5DCE2BEE2E2E2E2E2E2E2E2E2E2E2E2E2E2E2E2E2E2E2E2E2E2E2E2E2E2E2E2E2E2E2E2E2E2E2E2E2E2E2E2E2E2E2
310
E2E2E2E2E2E2E2E2E2E2E2E2E2E2E2E2E2E2E2E2E2E2E2E2E2E2E2E2E2E2E2E2E2E2E2E2E2E2E2E2E2E2E2E2E2E2E2E2E2E2E2E2E2E2E2E2E2E2E2E2E2E2E2E2E2E2E2E2E2E2E2E2E2E2E2E2E2E2E2E2E2E2E2E2E2E2E2E2E2E2E2E2E2E2E2E2E2E2E2E2E2E2E2E2E2E2E2E2E2E2E2E2E2E2E2E2E2E2E2E2E2E2E2E2E2E2E2
310
E2E2E2E2E2E2E2E2E2BEE2E2E2E2E2E2DCE2E2E2E2E2E2E2E2E2E2E2E2E2E2E2E2E2DCE2E2E2E2E2E2E2DCBEBEDCBEBEBEDCBEDCF5F5F5F5F5F5F5F5F5DCDCF5F5F5F5F5F5F5F5F5F5DCDCDCF5F5F5F5F5F5F5DCE2BEE2E2E2E2E2E2E2E2E2E2E2E2E2E2E2E2E2E2E2E2E2E2E2E2E2E2E2E2E2E2E2E2E2E2E2E2E2E2E2E2E2
310
E2E2E2E2E2E2E2E2E2E2E2E2E2E2E2E2E2E2E2E2E2E2E2E2E2E2E2E2E2E2E2E2E2E2E2E2E2E2E2E2E2E2E2E2E2E2E2E2E2E2E2E2E2E2E2E2E2E2E2E2E2E2E2E2E2E2E2E2E2E2E2E2E2E2E2E2E2E2E2E2E2E2E2E2E2E2E2E2E2E2E2E2E2E2E2E2E2E2E2E2E2E2E2E2E2E2E2E2E2E2E2E2E2E2E2E2E2E2E2E2E2E2E2E2E2E2E2
310
E2E2E2E2E2E2E2E2E2E2E2BEE2E2E2E2E2E2DCE2E2E2E2E2E2E2E2E2E2E2E2E2E2E2E2E2DCDCDCDCDCDCDCDCDCDCDCBEBEBEBEDCDCDCE2E2BEBEBEBEBEBEBEE2E2DCE2E2E2E2E2E2E2E2E2E2E2DCE2E2BEBEBEBEE2DCE2BEE2E2E2E2E2E2E2E2E2E2E2E2E2E2E2E2E2E2E2E2E2E2E2E2E2E2E2E2E2E2E2E2E2E2E2E2E2E2E2
310
E2E2E2E2E2E2E2E2E2E2E2E2E2E2E2E2E2E2E2E2E2E2E2E2E2E2E2E2E2E2E2E2E2E2E2E2E2E2E2E2E2E2E2E2E2E2E2E2E2E2E2E2E2E2E2E2E2E2E2E2E2E2E2E2E2E2E2E2E2E2E2E2E2E2E2E2E2E2E2E2E2E2E2E2E2E2E2E2E2E2E2E2E2E2E2E2E2E2E2E2E2E2E2E2E2E2E2E2E2E2E2E2E2E2E2E2E2E2E2E2E2E2E2E2E2E2E2
310
E2E2E2E2E2E2E2E2E2E2E2E2E2BEE2E2E2E2E2E2DCE2E2E2E2E2E2E2E2E2E2E2E2E2E2E2E2E2DCE2F5F5F5F5F5F5DCE2E2BEBEBEBEE2E2DCE2E2BEF5BEBEBEBEE2E2E2DCE2F5F5F5F5F5F5F5E2E2E2DCE2F5BEBEBEBEF5DCE2BEE2E2E2E2E2E2E2E2E2E2E2E2E2E2E2E2E2E2E2E2E2E2E2E2E2E2E2E2E2E2E2E2E2E2E2E2E2
310
E2E2E2E2E2E2E2E2E2E2E2E2E2E2E2E2E2E2E2E2E2E2E2E2E2E2E2E2E2E2E2E2E2E2E2E2E2E2E2E2E2E2E2E2E2E2E2E2E2E2E2E2E2E2E2E2E2E2E2E2E2E2E2E2E2E2E2E2E2E2E2E2E2E2E2E2E2E2E2E2E2E2E2E2E2E2E2E2E2E2E2E2E2E2E2E2E2E2E2E2E2E2E2E2E2E2E2E2E2E2E2E2E2E2E2E2E2E2E2E2E2E2E2E2E2E2E2
310
E2E2E2E2E2E2E2E2E2E2E2E2E2E2E2BEE2E2E2E2E2E2DCDCDCDCDCDCDCDCDCDCDCDCDCDCDCDCDCDCDCDCDCDCDCDCDCDCDCDCDCF5F5DCF5DCDCDCDCDCF5F5DCF5F5DCDCDCDCDCDCDCF5DCF5F5F5DCDCDCDCDCDCF5F5F5F5F5DCDCE2BEE2E2E2E2E2E2E2E2E2E2E2E2E2E2E2E2E2E2E2E2E2E2E2E2E2E2E2E2E2E2E2E2E2E2E2
310
E2E2E2E2E2E2E2E2E2E2E2E2E2E2E2E2E2E2E2E2E2E2E2E2E2E2E2E2E2E2E2E2E2E2E2E2E2E2E2E2E2E2E2E2E2E2E2E2E2E2E2E2E2E2E2E2E2E2E2E2E2E2E2E2E2E2E2E2E2E2E2E2E2E2E2E2E2E2E2E2E2E2E2E2E2E2E2E2E2E2E2E2E2E2E2E2E2E2E2E2E2E2E2E2E2E2E2E2E2E2E2E2E2E2E2E2E2E2E2E2E2E2E2E2E2E2E2
310
E2E2E2E2E2E2E2E2E2E2E2E2E2E2E2E2E2BEE2E2E2E2E2E2DCE2E2E2E2E2E2E2E2E2E2E2E2E2E2E2E2E2E2E2E2E2E2E2E2E2E2E2E2E2E2E2E2E2E2E2E2E2E2E2E2E2E2E2E2E2E2E2E2E2E2E2E2E2E2E2E2E2E2E2E2E2E2E2E2E2E2DCE2BEE2E2E2E2E2E2E2E2E2E2E2E2E2E2E2E2E2E2E2E2E2E2E2E2E2E2E2E2E2E2E2E2E2
310
E2E2E2E2E2E2E2E2E2E2E2E2E2E2E2E2E2E2E2E2E2E2E2E2E2E2E2E2E2E2E2E2E2E2E2E2E2E2E2E2E2E2E2E2E2E2E2E2E2E2E2E2E2E2E2E2E2E2E2E2E2E2E2E2E2E2E2E2E2E2E2E2E2E2E2E2E2E2E2E2E2E2E2E2E2E2E2E2E2E2E2E2E2E2E2E2E2E2E2E2E2E2E2E2E2E2E2E2E2E2E2E2E2E2E2E2E2E2E2E2E2E2E2E2E2E2E2
310
E2E2E2E2E2E2E2E2E2E2E2E2E2E2E2E2E2E2E2BEE2E2E2E2E2E2DCE2E2E2E2E2E2E2E2E2E2E2E2E2E2E2E2E2E2E2E2E2E2E2E2E2E2E2E2E2E2E2E2E2E2E2E2E2E2E2E2E2E2E2E2E2E2E2E2E2E2E2E2E2E2E2E2E2E2E2E2E2E2E2E2E2E2DCE2BEE2E2E2E2E2E2E2E2E2E2E2E2E2E2E2E2E2E2E2E2E2E2E2E2E2E2E2E2E2E2E2
310
E2E2E2E2E2E2E2E2E2E2E2E2E2E2E2E2E2E2E2E2E2E2E2E2E2E2E2E2E2E2E2E2E2E2E2E2E2E2E2E2E2E2E2E2E2E2E2E2E2E2E2E2E2E2E2E2E2E2E2E2E2E2E2E2E2E2E2E2E2E2E2E2E2E2E2E2E2E2E2E2E2E2E2E2E2E2E2E2E2E2E2E2E2E2E2E2E2E2E2E2E2E2E2E2E2E2E2E2E2E2E2E2E2E2E2E2E2E2E2E2E2E2E2E2E2E2E2
310
E2E2E2E2E2E2E2E2E2E2E2E2E2E2E2E2E2E2E2E2E2BEE2E2E2E2E2E2DCE2E2E2E2E2E2E2E2E2E2E2E2E2E2E2E2E2E2E2E2E2E2E2E2E2E2E2E2E2E2E2E2E2E2E2E2E2E2E2E2E2E2E2E2E2E2E2E2E2E2E2E2E2E2E2E2E2E2E2E2E2E2E2E2E2E2DCE2BEE2E2E2E2E2E2E2E2E2E2E2E2E2E2E2E2E2E2E2E2E2E2E2E2E2E2E2E2E2
310
E2E2E2E2E2E2E2E2E2E2E2E2E2E2E2E2E2E2E2E2E2E2E2E2E2E2E2E2E2E2E2E2E2E2E2E2E2E2E2E2E2E2E2E2E2E2E2E2E2E2E2E2E2E2E2E2E2E2E2E2E2E2E2E2E2E2E2E2E2E2E2E2E2E2E2E2E2E2E2E2E2E2E2E2E2E2E2E2E2E2E2E2E2E2E2E2E2E2E2E2E2E2E2E2E2E2E2E2E2E2E2E2E2E2E2E2E2E2E2E2E2E2E2E2E2E2E2
310
E2E2E2E2E2E2E2E2E2E2E2E2E2E2E2E2E2E2E2E2E2E2E2BEE2E2E2E2E2E2DCE2E2E2E2E2E2E2F5F5F5F5F5F5F5F5F5F5F5F5F5F52D2D2DF5E2E2E2E2E2E2E2E2E2E2E2E2E2E2E2E2E2E2E2E2E2E2E2E2E2E2E2E2E2E2E2E2E2E2E2E2E2E2E2E2E2DCE2BEE2E2E2E2E2E2E2E2E2E2E2E2E2E2E2E2E2E2E2E2E2E2E2E2E2E2E2
310
E2E2E2E2E2E2E2E2E2E2E2E2E2E2E2E2E2E2E2E2E2E2E2E2E2E2E2E2E2E2E2E2E2E2E2E2E2E2E2E2E2E2E2E2E2E2E2E2E2E2E2E2E2E2E2E2E2E2E2E2E2E2E2E2E2E2E2E2E2E2E2E2E2E2E2E2E2E2E2E2E2E2E2E2E2E2E2E2E2E2E2E2E2E2E2E2E2E2E2E2E2E2E2E2E2E2E2E2E2E2E2E2E2E2E2E2E2E2E2E2E2E2E2E2E2E2E2
310
E2E2E2E2E2E2E2E2E2E2E2E2E2E2E2E2E2E2E2E2E2E2E2E2E2BEE2E2E2E2E2E2DCE2E2E2E2E2E2F5282828282828282828282828282828F5E22DE2E2E2E2E2E2E2E2E2E2E2E2E2E2E2E2E2E2E2E2E2E2E2E2E2E2E2E2E2E2E2E2E2E2E2E2E2E2E2E2E2DCE2BEE2E2E2E2E2E2E2E2E2E2E2E2E2E2E2E2E2E2E2E2E2E2E2E2E2
310
E2E2E2E2E2E2E2E2E2E2E2E2E2E2E2E2E2E2E2E2E2E2E2E2E2E2E2E2E2E2E2E2E2E2E2E2E2E2E2E2E2E2E2E2E2E2E2E2E2E2E2E2E2E2E2E2E2E2E2E2E2E2E2E2E2E2E2E2E2E2E2E2E2E2E2E2E2E2E2E2E2E2E2E2E2E2E2E2E2E2E2E2E2E2E2E2E2E2E2E2E2E2E2E2E2E2E2E2E2E2E2E2E2E2E2E2E2E2E2E2E2E2E2E2E2E2E2
310
E2E2E2E2E2E2E2E2E2E2E2E2E2E2E2E2E2E2E2E2E2E2E2E2E2E2E2BEE2E2E2E2E2E2DCE2E2E2E2E2E20F28282828282828282828282828280F0FE22DE2E2E2E2E2E2E2E2E2E2E2E2E2E2E2E2E2E2E2E2E2E2E2E2E2E2E2E2E2E2E2E2E2E2E2E2E2E2E2E2E2DCE2BEE2E2E2E2E2E2E2E2E2E2E2E2E2E2E2E2E2E2E2E2E2E2E2
310
E2E2E2E2E2E2E2E2E2E2E2E2E2E2E2E2E2E2E2E2E2E2E2E2E2E2E2E2E2E2E2E2E2E2E2E2E2E2E2E2E2E2E2E2E2E2E2E2E2E2E2E2E2E2E2E2E2E2E2E2E2E2E2E2E2E2E2E2E2E2E2E2E2E2E2E2E2E2E2E2E2E2E2E2E2E2E2E2E2E2E2E2E2E2E2E2E2E2E2E2E2E2E2E2E2E2E2E2E2E2E2E2E2E2E2E2E2E2E2E2E2E2E2E2E2E2E2
310
E2E2E2E2E2E2E2E2E2E2E2E2E2E2E2E2E2E2E2E2E2E2E2E2E2E2E2E2E2BEE2E2E2E2E2E2DCE2E2E2E2E2E20F282828E2E2E2E2E2E2E2E22828280F0FE22DE2E2E2E2E2E2E2E2E2E2E2E2E2E2E2E2E2E2E2E2E2E2E2E2E2E2E2E2E2E2E2E2E2E2E2E2E2E2E2E2E2DCE2BEE2E2E2E2E2E2E2E2E2E2E2E2E2E2E2E2E2E2E2E2E2
310
E2E2E2E2E2E2E2E2E2E2E2E2E2E2E2E2E2E2E2E2E2E2E2E2E2E2E2E2E2E2E2E2E2E2E2E2E2E2E2E2E2E2E2E2E2E2E2E2E2E2E2E2E2E2E2E2E2E2E2E2E2E2E2E2E2E2E2E2E2E2E2E2E2E2E2E2E2E2E2E2E2E2E2E2E2E2E2E2E2E2E2E2E2E2E2E2E2E2E2E2E2E2E2E2E2E2E2E2E2E2E2E2E2E2E2E2E2E2E2E2E2E2E2E2E2E2E2
310
E2E2E2E2E2E2E2E2E2E2E2E2E2E2E2E2E2E2E2E2E2E2E2E2E2E2E2E2E2E2E2BEE2E2E2E2E2E2DCE2E2E2E2E2E20F2828280F0F0F0F0F0F0F0F2828280F0FE22DE2E2E2E2E2E2E2E2E2E2E2E2E2E2E2E2E2E2E2E2E2E2E2E2E2E2E2E2E2E2E2E2E2E2E2E2E2E2E2E2E2DCE2BEE2E2E2E2E2E2E2E2E2E2E2E2E2E2E2E2E2E2E2
310
E2E2E2E2E2E2E2E2E2E2E2E2E2E2E2E2E2E2E2E2E2E2E2E2E2E2E2E2E2E2E2E2E2E2E2E2E2E2E2E2E2E2E2E2E2E2E2E2E2E2E2E2E2E2E2E2E2E2E2E2E2E2E2E2E2E2E2E2E2E2E2E2E2E2E2E2E2E2E2E2E2E2E2E2E2E2E2E2E2E2E2E2E2E2E2E2E2E2E2E2E2E2E2E2E2E2E2E2E2E2E2E2E2E2E2E2E2E2E2E2E2E2E2E2E2E2E2
310
E2E2E2E2E2E2E2E2E2E2E2E2E2E2E2E2E2E2E2E2E2E2E2E2E2E2E2E2E2E2E2E2E2BEE2E2E2E2E2E2DCE2E2E2E2E2E20F282828E2E2E2E2E2E2E2E22828280F0FE22DE2E2E2E2E2E2E2E2E2E2E2E2E2E2E2E2E2E2E2E2E2E2E2E2E2E2E2E2E2E2E2E2E2E2E2E2E2E2E2E2E2DCE2BEE2E2E2E2E2E2E2E2E2E2E2E2E2E2E2E2E2
310
E2E2E2E2E2E2E2E2E2E2E2E2E2E2E2E2E2E2E2E2E2E2E2E2E2E2E2E2E2E2E2E2E2E2E2E2E2E2E2E2E2E2E2E2E2E2E2E2E2E2E2E2E2E2E2E2E2E2E2E2E2E2E2E2E2E2E2E2E2E2E2E2E2E2E2E2E2E2E2E2E2E2E2E2E2E2E2E2E2E2E2E2E2E2E2E2E2E2E2E2E2E2E2E2E2E2E2E2E2E2E2E2E2E2E2E2E2E2E2E2E2E2E2E2E2E2E2
310
E2E2E2E2E2E2E2E2E2E2E2E2E2E2E2E2E2E2E2E2E2E2E2E2E2E2E2E2E2E2E2E2E2E2E2BEE2E2E2E2E2E2DCE2E2E2E2E2E20F282828E2E2E2E2E2E2E2E22828280F0FE22DE2E2E2E2E2E2E2E2E2E2E2E2E2E2E2E2E2E2E2E2E2E2E2E2E2E2E2E2E2E2E2E2E2E2E2E2E2E2E2E2E2DCE2BEE2E2E2E2E2E2E2E2E2E2E2E2E2E2E2
310
E2E2E2E2E2E2E2E2E2E2E2E2E2E2E2E2E2E2E2E2E2E2E2E2E2E2E2E2E2E2E2E2E2E2E2E2E2E2E2E2E2E2E2E2E2E2E2E2E2E2E2E2E2E2E2E2E2E2E2E2E2E2E2E2E2E2E2E2E2E2E2E2E2E2E2E2E2E2E2E2E2E2E2E2E2E2E2E2E2E2E2E2E2E2E2E2E2E2E2E2E2E2E2E2E2E2E2E2E2E2E2E2E2E2E2E2E2E2E2E2E2E2E2E2E2E2E2
310
E2E2E2E2E2E2E2E2E2E2E2E2E2E2E2E2E2E2E2E2E2E2E2E2E2E2E2E2E2E2E2E2E2E2E2E2E2BEE2E2E2E2E2E2DCE2E2E2E2E2E20F282828E2E2E2E2E2E2E2E22828280F0FE22DE2E2E2E2E2E2E2E2E2E2E2E2E2E2E2E2E2E2E2E2E2E2E2E2E2E2E2E2E2E2E2E2E2E2E2E2E2E2E2E2E2DCE2BEE2E2E2E2E2E2E2E2E2E2E2E2E2
310
E2E2E2E2E2E2E2E2E2E2E2E2E2E2E2E2E2E2E2E2E2E2E2E2E2E2E2E2E2E2E2E2E2E2E2E2E2E2E2E2E2E2E2E2E2E2E2E2E2E2E2E2E2E2E2E2E2E2E2E2E2E2E2E2E2E2E2E2E2E2E2E2E2E2E2E2E2E2E2E2E2E2E2E2E2E2E2E2E2E2E2E2E2E2E2E2E2E2E2E2E2E2E2E2E2E2E2E2E2E2E2E2E2E2E2E2E2E2E2E2E2E2E2E2E2E2E2
310
E2E2E2E2E2E2E2E2E2E2E2E2E2E2E2E2E2E2E2E2E2E2E2E2E2E2E2E2E2E2E2E2E2E2E2E2E2E2E2BEE2E2E2E2E2E2DCE2E2E2E2E2E20F282828E2E2E2E2E2E2E2E22828280F0FE22DE2E2E2E2E2E2E2E2E2E2E2E2E2E2E2E2E2E2E2E2E2E2E2E2E2E2E2E2E2E2E2E2E2E2E2E2E2E2E2E2E2DCE2BEE2E2E2E2E2E2E2E2E2E2E2
310
E2E2E2E2E2E2E2E2E2E2E2E2E2E2E2E2E2E2E2E2E2E2E2E2E2E2E2E2E2E2E2E2E2E2E2E2E2E2E2E2E2E2E2E2E2E2E2E2E2E2E2E2E2E2E2E2E2E2E2E2E2E2E2E2E2E2E2E2E2E2E2E2E2E2E2E2E2E2E2E2E2E2E2E2E2E2E2E2E2E2E2E2E2E2E2E2E2E2E2E2E2E2E2E2E2E2E2E2E2E2E2E2E2E2E2E2E2E2E2E2E2E2E2E2E2E2E2
310
E2E2E2E2E2E2E2E2E2E2E2E2E2E2E2E2E2E2E2E2E2E2E2E2E2E2E2E2E2E2E2E2E2E2E2E2E2E2E2E2E2BEE2E2E2E2E2E2DCE2E2E2E2E2E20F282828E22828E2E22828E22828280F0FBEBEE2E2E2E2E2E2E2E2E2E2E2E2E2E2E2E2E2E2E2E2E2E2E2E2E2E2E2E2E2E2E2E2E2E2E2E2E2E2E2E2E2DCE2BEE2E2E2E2E2E2E2E2E2
310
E2E2E2E2E2E2E2E2E2E2E2E2E2E2E2E2E2E2E2E2E2E2E2E2E2E2E2E2E2E2E2E2E2E2E2E2E2E2E2E2E2E2E2E2E2E2E2E2E2E2E2E2E2E2E2E2E2E2E2E2E2E2E2E2E2E2E2E2E2E2E2E2E2E2E2E2E2E2E2E2E2E2E2E2E2E2E2E2E2E2E2E2E2E2E2E2E2E2E2E2E2E2E2E2E2E2E2E2E2E2E2E2E2E2E2E2E2E2E2E2E2E2E2E2E2E2E2
310
E2E2E2E2E2E2E2E2E2E2E2E2E2E2E2E2E2E2E2E2E2E2E2E2E2E2E2E2E2E2E2E2E2E2E2E2E2E2E2E2E2E2E2BEE2E2E2E2E2E2DCE2E2E2E2E2E20F282828E2282828282828E22828280F0FBEBEE2E2E2E2E2E2E2E2E2E2E2E2E2E2E2E2E2E2E2E2E2E2E2E2E2E2E2E2E2E2E2E2E2E2E2E2E2E2E2E2E2DCE2BEE2E2E2E2E2E2E2
310
E2E2E2E2E2E2E2E2E2E2E2E2E2E2E2E2E2E2E2E2E2E2E2E2E2E2E2E2E2E2E2E2E2E2E2E2E2E2E2E2E2E2E2E2E2E2E2E2E2E2E2E2E2E2E2E2E2E2E2E2E2E2E2E2E2E2E2E2E2E2E2E2E2E2E2E2E2E2E2E2E2E2E2E2E2E2E2E2E2E2E2E2E2E2E2E2E2E2E2E2E2E2E2E2E2E2E2E2E2E2E2E2E2E2E2E2E2E2E2E2E2E2E2E2E2E2E2
310
E2E2E2E2E2E2E2E2E2E2E2E2E2E2E2E2E2E2E2E2E2E2E2E2E2E2E2E2E2E2E2E2E2E2E2E2E2E2E2E2E2E2E2E2E2BEE2E2E2E2E2E2DCE2E2E2E2E2E20F282828E228E2E2E2E228E22828280F0FBEBEE2E2E2E2E2E2E2E2E2E2E2E2E2E2E2E2E2E2E2E2E2E2E2E2E2E2E2E2E2E2E2E2E2E2E2E2E2E2E2E2E2DCE2BEE2E2E2E2E2
310
E2E2E2E2E2E2E2E2E2E2E2E2E2E2E2E2E2E2E2E2E2E2E2E2E2E2E2E2E2E2E2E2E2E2E2E2E2E2E2E2E2E2E2E2E2E2E2E2E2E2E2E2E2E2E2E2E2E2E2E2E2E2E2E2E2E2E2E2E2E2E2E2E2E2E2E2E2E2E2E2E2E2E2E2E2E2E2E2E2E2E2E2E2E2E2E2E2E2E2E2E2E2E2E2E2E2E2E2E2E2E2E2E2E2E2E2E2E2E2E2E2E2E2E2E2E2E2
310
E2E2E2E2E2E2E2E2E2E2E2E2E2E2E2E2E2E2E2E2E2E2E2E2E2E2E2E2E2E2E2E2E2E2E2E2E2E2E2E2E2E2E2E2E2E2E2BEE2E2E2E2E2E2DCE2E2E2E2E2E20F2828282828E2E2E2E228282828280F0FBEBEE2E2E2E2E2E2E2E2E2E2E2E2E2E2E2E2E2E2E2E2E2E2E2E2E2E2E2E2E2E2E2E2E2E2E2E2E2E2E2E2E2DCE2BEE2E2E2
310
E2E2E2E2E2E2E2E2E2E2E2E2E2E2E2E2E2E2E2E2E2E2E2E2E2E2E2E2E2E2E2E2E2E2E2E2E2E2E2E2E2E2E2E2E2E2E2E2E2E2E2E2E2E2E2E2E2E2E2E2E2E2E2E2E2E2E2E2E2E2E2E2E2E2E2E2E2E2E2E2E2E2E2E2E2E2E2E2E2E2E2E2E2E2E2E2E2E2E2E2E2E2E2E2E2E2E2E2E2E2E2E2E2E2E2E2E2E2E2E2E2E2E2E2E2E2E2
310
E2E2E2E2E2E2E2E2E2E2E2E2E2E2E2E2E2E2E2E2E2E2E2E2E2E2E2E2E2E2E2E2E2E2E2E2E2E2E2E2E2E2E2E2E2E2E2E2E2BEE2E2E2E2E2E2DCE2E2E2E2E2E20F2828282828282828282828282828BE0FE22DE2E2E2E2E2E2E2E2E2E2E2E2E2E2E2E2E2E2E2E2E2E2E2E2E2E2E2E2E2E2E2E2E2E2E2E2E2E2E2E2E2DCE2BEE2
310
E2E2E2E2E2E2E2E2E2E2E2E2E2E2E2E2E2E2E2E2E2E2E2E2E2E2E2E2E2E2E2E2E2E2E2E2E2E2E2E2E2E2E2E2E2E2E2E2E2E2E2E2E2E2E2E2E2E2E2E2E2E2E2E2E2E2E2E2E2E2E2E2E2E2E2E2E2E2E2E2E2E2E2E2E2E2E2E2E2E2E2E2E2E2E2E2E2E2E2E2E2E2E2E2E2E2E2E2E2E2E2E2E2E2E2E2E2E2E2E2E2E2E2E2E2E2E2
310
E2E2E2E2E2E2E2E2E2E2E2E2E2E2E2E2E2E2E2E2E2E2E2E2E2E2E2E2E2E2E2E2E2E2E2E2E2E2E2E2E2E2E2E2E2E2E2E2E2E2E2BEE2E2E2E2E2E2DCE2E2E2E2E2E20F2828282828282828282828282828BE0FE22DE2E2E2E2E2E2E2E2E2E2E2E2E2E2E2E2E2E2E2E2E2E2E2E2E2E2E2E2E2E2E2E2E2E2E2E2E2E2E2E2E2DCE2
310
BEE2E2E2E2E2E2E2E2E2E2E2E2E2E2E2E2E2E2E2E2E2E2E2E2E2E2E2E2E2E2E2E2E2E2E2E2E2E2E2E2E2E2E2E2E2E2E2E2E2E2E2E2E2E2E2E2E2E2E2E2E2E2E2E2E2E2E2E2E2E2E2E2E2E2E2E2E2E2E2E2E2E2E2E2E2E2E2E2E2E2E2E2E2E2E2E2E2E2E2E2E2E2E2E2E2E2E2E2E2E2E2E2E2E2E2E2E2E2E2E2E2E2E2E2E2E2
310
E2E2E2E2E2E2E2E2E2E2E2E2E2E2E2E2E2E2E2E2E2E2E2E2E2E2E2E2E2E2E2E2E2E2E2E2E2E2E2E2E2E2E2E2E2E2E2E2E2E2E2E2E2BEE2E2E2E2E2E2DCE2E2E2E2E2E20F2828282828282828282828282828BE0FE22DE2E2E2E2E2E2E2E2E2E2E2E2E2E2E2E2E2E2E2E2E2E2E2E2E2E2E2E2E2E2E2E2E2E2E2E2E2E2E2E2E2
310
DCE2BEE2E2E2E2E2E2E2E2E2E2E2E2E2E2E2E2E2E2E2E2E2E2E2E2E2E2E2E2E2E2E2E2E2E2E2E2E2E2E2E2E2E2E2E2E2E2E2E2E2E2E2E2E2E2E2E2E2E2E2E2E2E2E2E2E2E2E2E2E2E2E2E2E2E2E2E2E2E2E2E2E2E2E2E2E2E2E2E2E2E2E2E2E2E2E2E2E2E2E2E2E2E2E2E2E2E2E2E2E2E2E2E2E2E2E2E2E2E2E2E2E2E2E2E2
310
E2E2E2E2E2E2E2E2E2E2E2E2E2E2E2E2E2E2E2E2E2E2E2E2E2E2E2E2E2E2E2E2E2E2E2E2E2E2E2E2E2E2E2E2E2E2E2E2E2E2E2E2E2E2E2BEE2E2E2E2E2E2DCE2E2E2E2E2E20F28BEE2E20F28DCBEDC280FE2E228BE0FE22DE2E2E2E2E2E2E2E2E2E2E2E2E2E2E2E2E2E2E2E2E2E2E2E2E2E2E2E2E2E2E2E2E2E2E2E2E2E2E2
310
E2E2DCE2BEE2E2E2E2E2E2E2E2E2E2E2E2E2E2E2E2E2E2E2E2E2E2E2E2E2E2E2E2E2E2E2E2E2E2E2E2E2E2E2E2E2E2E2E2E2E2E2E2E2E2E2E2E2E2E2E2E2E2E2E2E2E2E2E2E2E2E2E2E2E2E2E2E2E2E2E2E2E2E2E2E2E2E2E2E2E2E2E2E2E2E2E2E2E2E2E2E2E2E2E2E2E2E2E2E2E2E2E2E2E2E2E2E2E2E2E2E2E2E2E2E2E2
310
E2E2E2E2E2E2E2E2E2E2E2E2E2E2E2E2E2E2E2E2E2E2E2E2E2E2E2E2E2E2E2E2E2E2E2E2E2E2E2E2E2E2E2E2E2E2E2E2E2E2E2E2E2E2E2E2E2BEE2E2E2E2E2E2DCE2E2E2E2E2E20F28BE0F0F0F2828DC28280F0F0F28BE0FE22DE2E2E2E2E2E2E2E2E2E2E2E2E2E2E2E2E2E2E2E2E2E2E2E2E2E2E2E2E2E2E2E2E2E2E2E2E2
310
E2E2E2E2DCE2BEE2E2E2E2E2E2E2E2E2E2E2E2E2E2E2E2E2E2E2E2E2E2E2E2E2E2E2E2E2E2E2E2E2E2E2E2E2E2E2E2E2E2E2E2E2E2E2E2E2E2E2E2E2E2E2E2E2E2E2E2E2E2E2E2E2E2E2E2E2E2E2E2E2E2E2E2E2E2E2E2E2E2E2E2E2E2E2E2E2E2E2E2E2E2E2E2E2E2E2E2E2E2E2E2E2E2E2E2E2E2E2E2E2E2E2E2E2E2E2E2
310
E2E2E2E2E2E2E2E2E2E2E2E2E2E2E2E2E2E2E2E2E2E2E2E2E2E2E2E2E2E2E2E2E2E2E2E2E2E2E2E2E2E2E2E2E2E2E2E2E2E2E2E2E2E2E2E2E2E2E2BEE2E2E2E2E2E2DCE2E2E2E2E2E20F2828282828282828282828282828BE0FE22DE2E2E2E2E2E2E2E2E2E2E2E2E2E2E2E2E2E2E2E2E2E2E2E2E2E2E2E2E2E2E2E2E2E2E2
310
E2E2E2E2E2E2DCE2BEE2E2E2E2E2E2E2E2E2E2E2E2E2E2E2E2E2E2E2E2E2E2E2E2E2E2E2E2E2E2E2E2E2E2E2E2E2E2E2E2E2E2E2E2E2E2E2E2E2E2E2E2E2E2E2E2E2E2E2E2E2E2E2E2E2E2E2E2E2E2E2E2E2E2E2E2E2E2E2E2E2E2E2E2E2E2E2E2E2E2E2E2E2E2E2E2E2E2E2E2E2E2E2E2E2E2E2E2E2E2E2E2E2E2E2E2E2E2
310
E2E2E2E2E2E2E2E2E2E2E2E2E2E2E2E2E2E2E2E2E2E2E2E2E2E2E2E2E2E2E2E2E2E2E2E2E2E2E2E2E2E2E2E2E2E2E2E2E2E2E2E2E2E2E2E2E2E2E2E2E2BEE2E2E2E2E2E2DCE2E2E2E2E2E22828BEE2282828282828282828E2E2280FE22DE2E2E2E2E2E2E2E2E2E2E2E2E2E2E2E2E2E2E2E2E2E2E2E2E2E2E2E2E2E2E2E2E2
310
E2E2E2E2E2E2E2E2DCE2BEE2E2E2E2E2E2E2E2E2E2E2E2E2E2E2E2E2E2E2E2E2E2E2E2E2E2E2E2E2E2E2E2E2E2E2E2E2E2E2E2E2E2E2E2E2E2E2E2E2E2E2E2E2E2E2E2E2E2E2E2E2E2E2E2E2E2E2E2E2E2E2E2E2E2E2E2E2E2E2E2E2E2E2E2E2E2E2E2E2E2E2E2E2E2E2E2E2E2E2E2E2E2E2E2E2E2E2E2E2E2E2E2E2E2E2E2
310
E2E2E2E2E2E2E2E2E2E2E2E2E2E2E2E2E2E2E2E2E2E2E2E2E2E2E2E2E2E2E2E2E2E2E2E2E2E2E2E2E2E2E2E2E2E2E2E2E2E2E2E2E2E2E2E2E2E2E2E2E2E2E2BEE2E2E2E2E2E2DCE2E2E2E2E2E22828BEE228E2E2BEE2E2E2E228E2E2BEF5E22DE2E2E2E2E2E2E2E2E2E2E2E2E2E2E2E2E2E2E2E2E2E2E2E2E2E2E2E2E2E2E2
310
E2E2E2E2E2E2E2E2E2E2DCE2BEE2E2E2E2E2E2E2E2E2E2E2E2E2E2E2E2E2E2E2E2E2E2E2E2E2E2E2E2E2E2E2E2E2E2E2E2E2E2E2E2E2E2E2E2E2E2E2E2E2E2E2E2E2E2E2E2E2E2E2E2E2E2E2E2E2E2E2E2E2E2E2E2E2E2E2E2E2E2E2E2E2E2E2E2E2E2E2E2E2E2E2E2E2E2E2E2E2E2E2E2E2E2E2E2E2E2E2E2E2E2E2E2E2E2
310
E2E2E2E2E2E2E2E2E2E2E2E2E2E2E2E2E2E2E2E2E2E2E2E2E2E2E2E2E2E2E2E2E2E2E2E2E2E2E2E2E2E2E2E2E2E2E2E2E2E2E2E2E2E2E2E2E2E2E2E2E2E2E2E2E2BEE2E2E2E2E2E2DCE2E2E2E2E2E22828F5F5F5F5F5F5F5F5F5F5282828BE28E22DE2E2E2E2E2E2E2E2E2E2E2E2E2E2E2E2E2E2E2E2E2E2E2E2E2E2E2E2E2
310
E2E2E2E2E2E2E2E2E2E2E2E2DCE2BEE2E2E2E2E2E2E2E2E2E2E2E2E2E2E2E2E2E2E2E2E2E2E2E2E2E2E2E2E2E2E2E2E2E2E2E2E2E2E2E2E2E2E2E2E2E2E2E2E2E2E2E2E2E2E2E2E2E2E2E2E2E2E2E2E2E2E2E2E2E2E2E2E2E2E2E2E2E2E2E2E2E2E2E2E2E2E2E2E2E2E2E2E2E2E2E2E2E2E2E2E2E2E2E2E2E2E2E2E2E2E2E2
310
E2E2E2E2E2E2E2E2E2E2E2E2E2E2E2E2E2E2E2E2E2E2E2E2E2E2E2E2E2E2E2E2E2E2E2E2E2E2E2E2E2E2E2E2E2E2E2E2E2E2E2E2E2E2E2E2E2E2E2E2E2E2E2E2E2E2E2BEE2E2E2E2E2E2DCE2E2E2E2E2E22828BE28F5F5F5F5F5F5F52828F5F5F5282D2DE2E2E2E2E2E2E2E2E2E2E2E2E2E2E2E2E2E2E2E2E2E2E2E2E2E2E2
310
E2E2E2E2E2E2E2E2E2E2E2E2E2E2DCE2BEE2E2E2E2E2E2E2E2E2E2E2E2E2E2E2E2E2E2E2E2E2E2E2E2E2E2E2E2E2E2E2E2E2E2E2E2E2E2E2E2E2E2E2E2E2E2E2E2E2E2E2E2E2E2E2E2E2E2E2E2E2E2E2E2E2E2E2E2E2E2E2E2E2E2E2E2E2E2E2E2E2E2E2E2E2E2E2E2E2E2E2E2E2E2E2E2E2E2E2E2E2E2E2E2E2E2E2E2E2E2
310
E2E2E2E2E2E2E2E2E2E2E2E2E2E2E2E2E2E2E2E2E2E2E2E2E2E2E2E2E2E2E2E2E2E2E2E2E2E2E2E2E2E2E2E2E2E2E2E2E2E2E2E2E2E2E2E2E2E2E2E2E2E2E2E2E2E2E2E2E2BEE2E2E2E2E2E2DCE2E2E2E2E2E22D2D2D2D2D2D2D2D2D2D2D2D2D2D2D2DF5E2E2E2E2E2E2E2E2E2E2E2E2E2E2E2E2E2E2E2E2E2E2E2E2E2E2E2
310
E2E2E2E2E2E2E2E2E2E2E2E2E2E2E2E2DCE2BEE2E2E2E2E2E2E2E2E2E2E2E2E2E2E2E2E2E2E2E2E2E2E2E2E2E2E2E2E2E2E2E2E2E2E2E2E2E2E2E2E2E2E2E2E2E2E2E2E2E2E2E2E2E2E2E2E2E2E2E2E2E2E2E2E2E2E2E2E2E2E2E2E2E2E2E2E2E2E2E2E2E2E2E2E2E2E2E2E2E2E2E2E2E2E2E2E2E2E2E2E2E2E2E2E2E2E2E2
310
E2E2E2E2E2E2E2E2E2E2E2E2E2E2E2E2E2E2E2E2E2E2E2E2E2E2E2E2E2E2E2E2E2E2E2E2E2E2E2E2E2E2E2E2E2E2E2E2E2E2E2E2E2E2E2E2E2E2E2E2E2E2E2E2E2E2E2E2E2E2E2BEE2E2E2E2E2E2DCE2E2E2E2E2E22D2DE2E2E2E2E2BEBEBEE2E2E2E2E22D2DE2E2E2E2E2E2E2E2E2E2E22D2DE2E2E2E2E2E2E2E2E2E2E2E2
310
E2E2E2E2E2E2E22D2DE2E2E2E2E2E2E2E2E2DCE2BEE2E2E2E2E2E2E2E2E2E2E2E2E2E2E2E2E2E2E2E2E2E2E2E2E2E2E2E2E2E2E2E2E2E2E2E2E2E2E2E2E2E2E2E2E2E2E2E2E2E2E2E2E2E2E2E2E2E2E2E2E2E2E2E2E2E2E2E2E2E2E2E2E2E2E2E2E2E2E2E2E2E2E2E2E2E2E2E2E2E2E2E2E2E2E2E2E2E2E2E2E2E2E2E2E2E2
310
E2E2E2E2E2E2E2E2E2E2E2E2E2E2E2E2E2E2E2E2E2E2E2E2E2E2E2E2E2E2E2E2E2E2E2E2E2E2E2E2E2E2E2E2E2E2E2E2E2E2E2E2E2E2E2E2E2E2E2E2E2E2E2E2E2E2E2E2E2E2E2E2E2BEE2E2E2E2E2E2DCE2E2E2E2E2E2E2E2E2E2E2E2E2BEBEBEE2E2E2E2E2E2E2E2E2E2E2E2E2E2E2E2E2E22D2D2D2D2D2D2D2D2D2DBEBE
310
BEBE2D2D2D2D2D2D2D2DF5E2E2E2E2E2E2E2E2E2DCE2BEE2E2E2E2E2E2E2E2E2E2E2E2E2E2E2E2E2E2E2E2E2E2E2E2E2E2E2E2E2E2E2E2E2E2E2E2E2E2E2E2E2E2E2E2E2E2E2E2E2E2E2E2E2E2E2E2E2E2E2E2E2E2E2E2E2E2E2E2E2E2E2E2E2E2E2E2E2E2E2E2E2E2E2E2E2E2E2E2E2E2E2E2E2E2E2E2E2E2E2E2E2E2E2E2
310
E2E2E2E2E2E2E2E2E2E2E2E2E2E2E2E2E2E2E2E2E2E2E2E2E2E2E2E2E2E2E2E2E2E2E2E2E2E2E2E2E2E2E2E2E2E2E2E2E2E2E2E2E2E2E2E2E2E2E2E2E2E2E2E2E2E2E2E2E2E2E2E2E2E2E2BEE2E2E2E2E2E2DCE2E2E2E2E2E2E2E2E2E2E2E2E2E2E2E2E2E2E2E2E2E2E2E2E2E2E2E2E2E2E2E2E2E22DE2E2E2E2E2E2E2E2E2
310
BEBEBEBEE2E2E2E2E2E2E2E22DE2E2E2E2E2E2E2E2E2DCE2BEE2E2E2E2E2E2E2E2E2E2E2E2E2E2E2E2E2E2E2E2E2E2E2E2E2E2E2E2E2E2E2E2E2E2E2E2E2E2E2E2E2E2E2E2E2E2E2E2E2E2E2E2E2E2E2E2E2E2E2E2E2E2E2E2E2E2E2E2E2E2E2E2E2E2E2E2E2E2E2E2E2E2E2E2E2E2E2E2E2E2E2E2E2E2E2E2E2E2E2E2E2E2
310
E2E2E2E2E2E2E2E2E2E2E2E2E2E2E2E2E2E2E2E2E2E2E2E2E2E2E2E2E2E2E2E2E2E2E2E2E2E2E2E2E2E2E2E2E2E2E2E2E2E2E2E2E2E2E2E2E2E2E2E2E2E2E2E2E2E2E2E2E2E2E2E2E2E2E2E2E2BEE2E2E2E2E2E2DCE2E2E2E2E2E2E2E2E2E2E2E2E2E2E2E2E2E2E2E2E2E2E2E2E2E2E2E2E2E2E2E2E2E22DE2E2E2E2E2E2E2
310
E2E2E2E2E2E2E2E2E2E2E2E2E2E22DE2E2E2E2E2E2E2E2E2DCE2BEE2E2E2E2E2E2E2E2E2E2E2E2E2E2E2E2E2E2E2E2E2E2E2E2E2E2E2E2E2E2E2E2E2E2E2E2E2E2E2E2E2E2E2E2E2E2E2E2E2E2E2E2E2E2E2E2E2E2E2E2E2E2E2E2E2E2E2E2E2E2E2E2E2E2E2E2E2E2E2E2E2E2E2E2E2E2E2E2E2E2E2E2E2E2E2E2E2E2E2E2
310
E2E2E2E2E2E2E2E2E2E2E2E2E2E2E2E2E2E2E2E2E2E2E2E2E2E2E2E2E2E2E2E2E2E2E2E2E2E2E2E2E2E2E2E2E2E2E2E2E2E2E2E2E2E2E2E2E2E2E2E2E2E2E2E2E2E2E2E2E2E2E2E2E2E2E2E2E2E2E2BEE2E2E2E2E2E2DCE2E2E2E2E2E2E2E2E2E2E2E2E2E2E2E2E2E2E2E2E2E2E2E2E2E2E2E2E2E2E2E2E2E22DE2E2E2E2E2
310
E2E2E2E2E2E2E2E2E2E2E2E2E2E2E2E22DE2E2E2E2E2E2E2E2E2DCE2BEE2E2E2E2E2E2E2E2E2E2E2E2E2E2E2E2E2E2E2E2E2E2E2E2E2E2E2E2E2E2E2E2E2E2E2E2E2E2E2E2E2E2E2E2E2E2E2E2E2E2E2E2E2E2E2E2E2E2E2E2E2E2E2E2E2E2E2E2E2E2E2E2E2E2E2E2E2E2E2E2E2E2E2E2E2E2E2E2E2E2E2E2E2E2E2E2E2E2
310
E2E2E2E2E2E2E2E2E2E2E2E2E2E2E2E2E2E2E2E2E2E2E2E2E2E2E2E2E2E2E2E2E2E2E2E2E2E2E2E2E2E2E2E2E2E2E2E2E2E2E2E2E2E2E2E2E2E2E2E2E2E2E2E2E2E2E2E2E2E2E2E2E2E2E2E2E2E2E2E2E2BEE2E2E2E2E2E2DCE2E2E2E2F52DF5F5F5F5F5F5F5F5F5F5F5F5F5F5F5F5F5E2E2E2E2E2E2E2E22D2D2DF5F5BE28
310
F5F5E2E2E2E2E2E2E2E2E2E2E2E2E2E2E2E22DE2E2E2E2E2E2E2E2E2DCE2BEE2E2E2E2E2E2E2E2E2E2E2E2E2E2E2E2E2E2E2E2E2E2E2E2E2E2E2E2E2E2E2E2E2E2E2E2E2E2E2E2E2E2E2E2E2E2E2E2E2E2E2E2E2E2E2E2E2E2E2E2E2E2E2E2E2E2E2E2E2E2E2E2E2E2E2E2E2E2E2E2E2E2E2E2E2E2E2E2E2E2E2E2E2E2E2E2
310
E2E2E2E2E2E2E2E2E2E2E2E2E2E2E2E2E2E2E2E2E2E2E2E2E2E2E2E2E2E2E2E2E2E2E2E2E2E2E2E2E2E2E2E2E2E2E2E2E2E2E2E2E2E2E2E2E2E2E2E2E2E2E2E2E2E2E2E2E2E2E2E2E2E2E2E2E2E2E2E2E2E2E2BEE2E2E2E2E2E2DCE2E2E2E22DE2F5F5F5F5F5F5F5F5F5F5F5F5F5F5F5F5F5E2E2E2E2E2E2E2E2E22DE228BE
310
BE28E2E2F5F5F50F0F0F0FE2E2E2E2E2E2E2E2E22DE2E2E2E2E2E2E2E2E2DCE2BEE2E2E2E2E2E2E2E2E2E2E2E2E2E2E2E2E2E2E2E2E2E2E2E2E2E2E2E2E2E2E2E2E2E2E2E2E2E2E2E2E2E2E2E2E2E2E2E2E2E2E2E2E2E2E2E2E2E2E2E2E2E2E2E2E2E2E2E2E2E2E2E2E2E2E2E2E2E2E2E2E2E2E2E2E2E2E2E2E2E2E2E2E2E2
310
E2E2E2E2E2E2E2E2E2E2E2E2E2E2E2E2E2E2E2E2E2E2E2E2E2E2E2E2E2E2E2E2E2E2E2E2E2E2E2E2E2E2E2E2E2E2E2E2E2E2E2E2E2E2E2E2E2E2E2E2E2E2E2E2E2E2E2E2E2E2E2E2E2E2E2E2E2E2E2E2E2E2E2E2E2BEE2E2E2E2E2E2DCE2E2E2BEBEE2F528BEBEBEBEF5F5F5BEBEBEBEBEBEF5F5E2E2E2E2E2E2E2E2E22DE2
310
282828C3C3C3C3C3C30FE2E20F0F0F0F0F0F0FE2E2E22DE2E2E2E2E2E2E2E2E2DCE2BEE2E2E2E2E2E2E2E2E2E2E2E2E2E2E2E2E2E2E2E2E2E2E2E2E2E2E2E2E2E2E2E2E2E2E2E2E2E2E2E2E2E2E2E2E2E2E2E2E2E2E2E2E2E2E2E2E2E2E2E2E2E2E2E2E2E2E2E2E2E2E2E2E2E2E2E2E2E2E2E2E2E2E2E2E2E2E2E2E2E2E2E2
310
E2E2E2E2E2E2E2E2E2E2E2E2E2E2E2E2E2E2E2E2E2E2E2E2E2E2E2E2E2E2E2E2E2E2E2E2E2E2E2E2E2E2E2E2E2E2E2E2E2E2E2E2E2E2E2E2E2E2E2E2E2E2E2E2E2E2E2E2E2E2E2E2E2E2E2E2E2E2E2E2E2E2E2E2E2E2E2BEE2E2E2E2E2E2DCE2E2E2BEBEE22828F5F5F5F5F5BEF5F5F5F5BEF5F5BE28E2E2E2E2E2E2E2E2E2
310
2DE228BE28C3E2C3C3C3C30F0F0F0F0FE2E2E20F0F0F0F0F0F2D2DF5E2E2E2E2E2E2DCE2BEE2E2E2E2E2E2E2E2E2E2E2E2E2E2E2E2E2E2E2E2E2E2E2E2E2E2E2E2E2E2E2E2E2E2E2E2E2E2E2E2E2E2E2E2E2E2E2E2E2E2E2E2E2E2E2E2E2E2E2E2E2E2E2E2E2E2E2E2E2E2E2E2E2E2E2E2E2E2E2E2E2E2E2E2E2E2E2E2E2E2
310
E2E2E2E2E2E2E2E2E2E2E2E2E2E2E2E2E2E2E2E2E2E2E2E2E2E2E2E2E2E2E2E2E2E2E2E2E2E2E2E2E2E2E2E2E2E2E2E2E2E2E2E2E2E2E2E2E2E2E2E2E2E2E2E2E2E2E2E2E2E2E2E2E2E2E2E2E2E2E2E2E2E2E2E2E2E2E2E2E2BEE2E2E2E2E2E2DCE2E2E2BEBEE22828282828E228282828282828E2E2BE28E2E2E2E2E2E2E2
310
E2E22DE228BE28C3E2C3C3C3C3BEBE2828280F0F0F0F0F0F0F2828E2E22DE2E2E2E2E2E2DCE2BEE2E2E2E2E2E2E2E2E2E2E2E2E2E2E2E2E2E2E2E2E2E2E2E2E2E2E2E2E2E2E2E2E2E2E2E2E2E2E2E2E2E2E2E2E2E2E2E2E2E2E2E2E2E2E2E2E2E2E2E2E2E2E2E2E2E2E2E2E2E2E2E2E2E2E2E2E2E2E2E2E2E2E2E2E2E2E2E2
310
E2E2E2E2E2E2E2E2E2E2E2E2E2E2E2E2E2E2E2E2E2E2E2E2E2E2E2E2E2E2E2E2E2E2E2E2E2E2E2E2E2E2E2E2E2E2E2E2E2E2E2E2E2E2E2E2E2E2E2E2E2E2E2E2E2E2E2E2E2E2E2E2E2E2E2E2E2E2E2E2E2E2E2E2E2E2E2E2E2E2E2BEE2E2E2E2E2E2DCE2E2E2BE2DE22828282828E228282828282828E2E2BE28E2E2E2E2E2
310
E2E2E2E22DE2BEBE28C3C3C3C3C3C32828E2E2E2E2E2E2E2E2E20F2828E2E22DE2E2E2E2E2E2DCE2BEE2E2E2E2E2E2E2E2E2E2E2E2E2E2E2E2E2E2E2E2E2E2E2E2E2E2E2E2E2E2E2E2E2E2E2E2E2E2E2E2E2E2E2E2E2E2E2E2E2E2E2E2E2E2E2E2E2E2E2E2E2E2E2E2E2E2E2E2E2E2E2E2E2E2E2E2E2E2E2E2E2E2E2E2E2E2
310
E2E2E2E2E2E2E2E2E2E2E2E2E2E2E2E2E2E2E2E2E2E2E2E2E2E2E2E2E2E2E2E2E2E2E2E2E2E2E2E2E2E2E2E2E2E2E2E2E2E2E2E2E2E2E2E2E2E2E2E2E2E2E2E2E2E2E2E2E2E2E2E2E2E2E2E2E2E2E2E2E2E2E2E2E2E2E2E2E2E2E2E2E2BEE2E2E2E2E2E2DCE2E2E2E22DE22828282828E2E2282828282828E2E2BE28E2E2E2
310
E2E2E2E2E2E22DE2BEBEE228BEBEE2E2BE2828E2E2E2E2E2E2E2E2E2E22828E2E22DE2E2E2E2E2E2DCE2BEE2E2E2E2E2E2E2E2E2E2E2E2E2E2E2E2E2E2E2E2E2E2E2E2E2E2E2E2E2E2E2E2E2E2E2E2E2E2E2E2E2E2E2E2E2E2E2E2E2E2E2E2E2E2E2E2E2E2E2E2E2E2E2E2E2E2E2E2E2E2E2E2E2E2E2E2E2E2E2E2E2E2E2E2
310
E2E2E2E2E2E2E2E2E2E2E2E2E2E2E2E2E2E2E2E2E2E2E2E2E2E2E2E2E2E2E2E2E2E2E2E2E2E2E2E2E2E2E2E2E2E2E2E2E2E2E2E2E2E2E2E2E2E2E2E2E2E2E2E2E2E2E2E2E2E2E2E2E2E2E2E2E2E2E2E2E2E2E2E2E2E2E2E2E2E2E2E2E2E2E2BEE2E2E2E2E2E2DCE2E2E2E22D2D2D282828282D2DBEBE28282828E2E2BE28E2
310
E2E2E2E2E2E2E2E22DE2BEBEE228E2E2E2E2BE2828E2E2E2E2E2E2E2E2E2E22828E2E22DE2E2E2E2E2E2DCE2BEE2E2E2E2E2E2E2E2E2E2E2E2E2E2E2E2E2E2E2E2E2E2E2E2E2E2E2E2E2E2E2E2E2E2E2E2E2E2E2E2E2E2E2E2E2E2E2E2E2E2E2E2E2E2E2E2E2E2E2E2E2E2E2E2E2E2E2E2E2E2E2E2E2E2E2E2E2E2E2E2E2E2
310
E2E2E2E2E2E2E2E2E2E2E2E2E2E2E2E2E2E2E2E2E2E2E2E2E2E2E2E2E2E2E2E2E2E2E2E2E2E2E2E2E2E2E2E2E2E2E2E2E2E2E2E2E2E2E2E2E2E2E2E2E2E2E2E2E2E2E2E2E2E2E2E2E2E2E2E2E2E2E2E2E2E2E2E2E2E2E2E2E2E2E2E2E2E2E2E2E2BEE2E2E2E2E2E2DCE2E2E2E22DE22828282828E2E2BEE228282828E2E2BE
310
28E2E2E2E2E2E2E2E2E22DE2BEBEE228E2E2E2E2BE2828E22828282828282828282828E2E22DE2E2E2E2E2E2DCE2BEE2E2E2E2E2E2E2E2E2E2E2E2E2E2E2E2E2E2E2E2E2E2E2E2E2E2E2E2E2E2E2E2E2E2E2E2E2E2E2E2E2E2E2E2E2E2E2E2E2E2E2E2E2E2E2E2E2E2E2E2E2E2E2E2E2E2E2E2E2E2E2E2E2E2E2E2E2E2E2E2
310
E2E2E2E2E2E2E2E2E2E2E2E2E2E2E2E2E2E2E2E2E2E2E2E2E2E2E2E2E2E2E2E2E2E2E2E2E2E2E2E2E2E2E2E2E2E2E2E2E2E2E2E2E2E2E2E2E2E2E2E2E2E2E2E2E2E2E2E2E2E2E2E2E2E2E2E2E2E2E2E2E2E2E2E2E2E2E2E2E2E2E2E2E2E2E2E2E2E2E2BEE2E2E2E2E2E2DCE2E2E2E22DE22828282828E2E2BEBE28282828E2
310
E2BE28E2E2E2E2E2E2E2E2E22DE2BEBEE228E2E2E2E2BE2828E22828282828282828282828E2E22DE2E2E2E2E2E2DCE2BEE2E2E2E2E2E2E2E2E2E2E2E2E2E2E2E2E2E2E2E2E2E2E2E2E2E2E2E2E2E2E2E2E2E2E2E2E2E2E2E2E2E2E2E2E2E2E2E2E2E2E2E2E2E2E2E2E2E2E2E2E2E2E2E2E2E2E2E2E2E2E2E2E2E2E2E2E2E2
310
E2E2E2E2E2E2E2E2E2E2E2E2E2E2E2E2E2E2E2E2E2E2E2E2E2E2E2E2E2E2E2E2E2E2E2E2E2E2E2E2E2E2E2E2E2E2E2E2E2E2E2E2E2E2E2E2E2E2E2E2E2E2E2E2E2E2E2E2E2E2E2E2E2E2E2E2E2E2E2E2E2E2E2E2E2E2E2E2E2E2E2E2E2E2E2E2E2E2E2E2E2BEE2E2E2E2E2E2DCE2E2E2E22DE2282828E2E2E2E2BEBEBEE228
310
28E2E2BE28E2E2E2E2E2E2E2E2E22DE228BEE228E2E2E2E2BE28282828E2E2E2E2E2E2E2E22828E2E22DE2E2E2E2E2E2DCE2BEE2E2E2E2E2E2E2E2E2E2E2E2E2E2E2E2E2E2E2E2E2E2E2E2E2E2E2E2E2E2E2E2E2E2E2E2E2E2E2E2E2E2E2E2E2E2E2E2E2E2E2E2E2E2E2E2E2E2E2E2E2E2E2E2E2E2E2E2E2E2E2E2E2E2E2E2
310
E2E2E2E2E2E2E2E2E2E2E2E2E2E2E2E2E2E2E2E2E2E2E2E2E2E2E2E2E2E2E2E2E2E2E2E2E2E2E2E2E2E2E2E2E2E2E2E2E2E2E2E2E2E2E2E2E2E2E2E2E2E2E2E2E2E2E2E2E2E2E2E2E2E2E2E2E2E2E2E2E2E2E2E2E2E2E2E2E2E2E2E2E2E2E2E2E2E2E2E2E2E2E2BEE2E2E2E2E2E2DCE2E2E2E22DE2282828E2E2E2E2E2BEE2
310
E22828E2E2BE28E2E2E2E2E2E2E2E2E22DE228BEE228E2E2E2E2BE28282828E2E2E2E2E2E2E2E22828E2E22DE2E2E2E2E2E2DCE2BEE2E2E2E2E2E2E2E2E2E2E2E2E2E2E2E2E2E2E2E2E2E2E2E2E2E2E2E2E2E2E2E2E2E2E2E2E2E2E2E2E2E2E2E2E2E2E2E2E2E2E2E2E2E2E2E2E2E2E2E2E2E2E2E2E2E2E2E2E2E2E2E2E2E2
310
E2E2E2E2E2E2E2E2E2E2E2E2E2E2E2E2E2E2E2E2E2E2E2E2E2E2E2E2E2E2E2E2E2E2E2E2E2E2E2E2E2E2E2E2E2E2E2E2E2E2E2E2E2E2E2E2E2E2E2E2E2E2E2E2E2E2E2E2E2E2E2E2E2E2E2E2E2E2E2E2E2E2E2E2E2E2E2E2E2E2E2E2E2E2E2E2E2E2E2E2E2E2E2E2E2BEE2E2E2E2E2E2DCE2E2E2E22DE2282828E2E2E2E2E2
310
BEE2E22828E2E2BE28E2E2E2E2E2E2E2E2E22DE228BEE228E2E2E2E2BE28282828E2E2E2E2E2E2E2E22828E2E22DE2E2E2E2E2E2DCE2BEE2E2E2E2E2E2E2E2E2E2E2E2E2E2E2E2E2E2E2E2E2E2E2E2E2E2E2E2E2E2E2E2E2E2E2E2E2E2E2E2E2E2E2E2E2E2E2E2E2E2E2E2E2E2E2E2E2E2E2E2E2E2E2E2E2E2E2E2E2E2E2E2
310
E2E2E2E2E2E2E2E2E2E2E2E2E2E2E2E2E2E2E2E2E2E2E2E2E2E2E2E2E2E2E2E2E2E2E2E2E2E2E2E2E2E2E2E2E2E2E2E2E2E2E2E2E2E2E2E2E2E2E2E2E2E2E2E2E2E2E2E2E2E2E2E2E2E2E2E2E2E2E2E2E2E2E2E2E2E2E2E2E2E2E2E2E2E2E2E2E2E2E2E2E2E2E2E2E2E2E2BEE2E2E2E2E2E2DCE2E2E2E22DE2282828E2E2E2
310
E2E2BEE2E22828E2E2BE28E2E2E2E2E2E2E2E2E22DE228BEE228E2E2E2E2BE282828E2E2E2E2E2E2E2E2E22828E2E22DE2E2E2E2E2E2DCE2BEE2E2E2E2E2E2E2E2E2E2E2E2E2E2E2E2E2E2E2E2E2E2E2E2E2E2E2E2E2E2E2E2E2E2E2E2E2E2E2E2E2E2E2E2E2E2E2E2E2E2E2E2E2E2E2E2E2E2E2E2E2E2E2E2E2E2E2E2E2E2
310
E2E2E2E2E2E2E2E2E2E2E2E2E2E2E2E2E2E2E2E2E2E2E2E2E2E2E2E2E2E2E2E2E2E2E2E2E2E2E2E2E2E2E2E2E2E2E2E2E2E2E2E2E2E2E2E2E2E2E2E2E2E2E2E2E2E2E2E2E2E2E2E2E2E2E2E2E2E2E2E2E2E2E2E2E2E2E2E2E2E2E2E2E2E2E2E2E2E2E2E2E2E2E2E2E2E2E2E2E2BEE2E2E2E2E2E2DCE2E2E2E22DE22828E2E2
310
E2E2E2E2BEE2E2E2BEE2E2BE28E2E2E2E2E2E2E2E2E22DE228BEE228E2E2E2E2BEBE2828E2E2E2E2E2E2E2E2E22828E2E22DE2E2E2E2E2E2DCE2BEE2E2E2E2E2E2E2E2E2E2E2E2E2E2E2E2E2E2E2E2E2E2E2E2E2E2E2E2E2E2E2E2E2E2E2E2E2E2E2E2E2E2E2E2E2E2E2E2E2E2E2E2E2E2E2E2E2E2E2E2E2E2E2E2E2E2E2E2
310
E2E2E2E2E2E2E2E2E2E2E2E2E2E2E2E2E2E2E2E2E2E2E2E2E2E2E2E2E2E2E2E2E2E2E2E2E2E2E2E2E2E2E2E2E2E2E2E2E2E2E2E2E2E2E2E2E2E2E2E2E2E2E2E2E2E2E2E2E2E2E2E2E2E2E2E2E2E2E2E2E2E2E2E2E2E2E2E2E2E2E2E2E2E2E2E2E2E2E2E2E2E2E2E2E2E2E2E2E2E2E2BEE2E2E2E2E2E2DCE2E2E2E22DE22828
310
E2E2E2E2E2E2BEE2E2E2BEE2E2BE28E2E2E2E2E2E2E2E2E22DE228BEE228E2E2E2E2BEBE2828E2E2E2E2E2E2E2E2E22828E2E22DE2E2E2E2E2E2DCE2BEE2E2E2E2E2E2E2E2E2E2E2E2E2E2E2E2E2E2E2E2E2E2E2E2E2E2E2E2E2E2E2E2E2E2E2E2E2E2E2E2E2E2E2E2E2E2E2E2E2E2E2E2E2E2E2E2E2E2E2E2E2E2E2E2E2E2
310
E2E2E2E2E2E2E2E2E2E2E2E2E2E2E2E2E2E2E2E2E2E2E2E2E2E2E2E2E2E2E2E2E2E2E2E2E2E2E2E2E2E2E2E2E2E2E2E2E2E2E2E2E2E2E2E2E2E2E2E2E2E2E2E2E2E2E2E2E2E2E2E2E2E2E2E2E2E2E2E2E2E2E2E2E2E2E2E2E2E2E2E2E2E2E2E2E2E2E2E2E2E2E2E2E2E2E2E2E2E2E2E2E2BEE2E2E2E2E2E2DCE2E2E2E22DE2
310
2828282828E2E2E2BE28282828E2E2BE28E2E2E2E2E2E2E2E2E22DE228BEE228E2E2E2E2BEBE2828E2E2E2E2E2E2E2E2E22828E2E22DE2E2E2E2E2E2DCE2BEE2E2E2E2E2E2E2E2E2E2E2E2E2E2E2E2E2E2E2E2E2E2E2E2E2E2E2E2E2E2E2E2E2E2E2E2E2E2E2E2E2E2E2E2E2E2E2E2E2E2E2E2E2E2E2E2E2E2E2E2E2E2E2E2
310
E2E2E2E2E2E2E2E2E2E2E2E2E2E2E2E2E2E2E2E2E2E2E2E2E2E2E2E2E2E2E2E2E2E2E2E2E2E2E2E2E2E2E2E2E2E2E2E2E2E2E2E2E2E2E2E2E2E2E2E2E2E2E2E2E2E2E2E2E2E2E2E2E2E2E2E2E2E2E2E2E2E2E2E2E2E2E2E2E2E2E2E2E2E2E2E2E2E2E2E2E2E2E2E2E2E2E2E2E2E2E2E2E2E2E2BEE2E2E2E2E2E2DCE2E2E2E2
310
2DE22828282828E2E2E2BE28282828E2E2BE28E2E2E2E2E2E2E2E2E22DE2BEBEE228E2E2E2E2BEBE2828E2E2E2E2E2E2E2E2E22828E2E22DE2E2E2E2E2E2DCE2BEE2E2E2E2E2E2E2E2E2E2E2E2E2E2E2E2E2E2E2E2E2E2E2E2E2E2E2E2E2E2E2E2E2E2E2E2E2E2E2E2E2E2E2E2E2E2E2E2E2E2E2E2E2E2E2E2E2E2E2E2E2E2
310
E2E2E2E2E2E2E2E2E2E2E2E2E2E2E2E2E2E2E2E2E2E2E2E2E2E2E2E2E2E2E2E2E2E2E2E2E2E2E2E2E2E2E2E2E2E2E2E2E2E2E2E2E2E2E2E2E2E2E2E2E2E2E2E2E2E2E2E2E2E2E2E2E2E2E2E2E2E2E2E2E2E2E2E2E2E2E2E2E2E2E2E2E2E2E2E2E2E2E2E2E2E2E2E2E2E2E2E2E2E2E2E2E2E2E2E2E2BEE2E2E2E2E2E2DCE2E2
310
E2E22DE22828282828E2E2E2BE28282828E2E2BE28E2E2E2E2E2E2E2E2E22DE2BEBEE228BEBEE2E2BEE22828E2E2E2E2E2E2E2E2E22828E2E22DE2E2E2E2E2E2DCE2BEE2E2E2E2E2E2E2E2E2E2E2E2E2E2E2E2E2E2E2E2E2E2E2E2E2E2E2E2E2E2E2E2E2E2E2E2E2E2E2E2E2E2E2E2E2E2E2E2E2E2E2E2E2E2E2E2E2E2E2E2
310
E2E2E2E2E2E2E2E2E2E2E2E2E2E2E2E2E2E2E2E2E2E2E2E2E2E2E2E2E2E2E2E2E2E2E2E2E2E2E2E2E2E2E2E2E2E2E2E2E2E2E2E2E2E2E2E2E2E2E2E2E2E2E2E2E2E2E2E2E2E2E2E2E2E2E2E2E2E2E2E2E2E2E2E2E2E2E2E2E2E2E2E2E2E2E2E2E2E2E2E2E2E2E2E2E2E2E2E2E2E2E2E2E2E2E2E2E2E2E2BEE2E2E2E2E2E2DC
310
E2E2E2E22DE22828282828E2E2BEBE28282828E2E2BE28E2E2E2E2E2E2E2E2E22DE2BEBEE228E2BEE2BEBEE22828E2E2E2E2E2E2E2E2E22828E2E22DE2E2E2E2E2E2DCE2BEE2E2E2E2E2E2E2E2E2E2E2E2E2E2E2E2E2E2E2E2E2E2E2E2E2E2E2E2E2E2E2E2E2E2E2E2E2E2E2E2E2E2E2E2E2E2E2E2E2E2E2E2E2E2E2E2E2E2
310
E2E2E2E2E2E2E2E2E2E2E2E2E2E2E2E2E2E2E2E2E2E2E2E2E2E2E2E2E2E2E2E2E2E2E2E2E2E2E2E2E2E2E2E2E2E2E2E2E2E2E2E2E2E2E2E2E2E2E2E2E2E2E2E2E2E2E2E2E2E2E2E2E2E2E2E2E2E2E2E2E2E2E2E2E2E2E2E2E2E2E2E2E2E2E2E2E2E2E2E2E2E2E2E2E2E2E2E2E2E2E2E2E2E2E2E2E2E2E2E2E2BEE2E2E2E2E2
310
E2DCE2E2E2E22DE22828282828E2E2E2E228282828E2E2BE28E2E2E2E2E2E2E2E2E22DE2BEBEE228E2E2E2BEE2E228282828282828282828282828E2E22DE2E2E2E2E2E2DCE2BEE2E2E2E2E2E2E2E2E2E2E2E2E2E2E2E2E2E2E2E2E2E2E2E2E2E2E2E2E2E2E2E2E2E2E2E2E2E2E2E2E2E2E2E2E2E2E2E2E2E2E2E2E2E2E2E2
310
E2E2E2E2E2E2E2E2E2E2E2E2E2E2E2E2E2E2E2E2E2E2E2E2E2E2E2E2E2E2E2E2E2E2E2E2E2E2E2E2E2E2E2E2E2E2E2E2E2E2E2E2E2E2E2E2E2E2E2E2E2E2E2E2E2E2E2E2E2E2E2E2E2E2E2E2E2E2E2E2E2E2E2E2E2E2E2E2E2E2E2E2E2E2E2E2E2E2E2E2E2E2E2E2E2E2E2E2E2E2E2E2E2E2E2E2E2E2E2E2E2E2E2BEE2E2E2
310
E2E2E2DCE2E2E2E22DE22828282828E2E2E2E228282828E2E2BE28E2E2E2E2E2E2E2BEBE2DE2BEBE28282828BEBEE22828E2E2E2E2E2E2E2E2E2E22828E2E22DE2E2E2E2E2E2DCE2BEE2E2E2E2E2E2E2E2E2E2E2E2E2E2E2E2E2E2E2E2E2E2E2E2E2E2E2E2E2E2E2E2E2E2E2E2E2E2E2E2E2E2E2E2E2E2E2E2E2E2E2E2E2E2
310
E2E2E2E2E2E2E2E2E2E2E2E2E2E2E2E2E2E2E2E2E2E2E2E2E2E2E2E2E2E2E2E2E2E2E2E2E2E2E2E2E2E2E2E2E2E2E2E2E2E2E2E2E2E2E2E2E2E2E2E2E2E2E2E2E2E2E2E2E2E2E2E2E2E2E2E2E2E2E2E2E2E2E2E2E2E2E2E2E2E2E2E2E2E2E2E2E2E2E2E2E2E2E2E2E2E2E2E2E2E2E2E2E2E2E2E2E2E2E2E2E2E2E2E2E2BEE2
310
E2E2E2E2E2DCE2E2E2E22DE2282828BEBE2828282828BE2828BEBEBE28E2E2E2E2E2E2E2BEBE2DE228BE28BEBE2828BE28E2E2E2E2E2E2E2E2E2E2E2E22828E2E22DE2E2E2E2E2E2DCE2BEE2E2E2E2E2E2E2E2E2E2E2E2E2E2E2E2E2E2E2E2E2E2E2E2E2E2E2E2E2E2E2E2E2E2E2E2E2E2E2E2E2E2E2E2E2E2E2E2E2E2E2E2
310
E2E2E2E2E2E2E2E2E2E2E2E2E2E2E2E2E2E2E2E2E2E2E2E2E2E2E2E2E2E2E2E2E2E2E2E2E2E2E2E2E2E2E2E2E2E2E2E2E2E2E2E2E2E2E2E2E2E2E2E2E2E2E2E2E2E2E2E2E2E2E2E2E2E2E2E2E2E2E2E2E2E2E2E2E2E2E2E2E2E2E2E2E2E2E2E2E2E2E2E2E2E2E2E2E2E2E2E2E2E2E2E2E2E2E2E2E2E2E2E2E2E2E2E2E2E2E2
310
BEE2E2E2E2E2E2DCE2E2E2E22DE2282828E2E228E2E22828E22828E2BEBE28E2E2E2E2E2E2E2BEBE2DE228BE28282828BE28282828282828282828282828282828E2BE2DE2E2E2E2E2E2DCE2BEE2E2E2E2E2E2E2E2E2E2E2E2E2E2E2E2E2E2E2E2E2E2E2E2E2E2E2E2E2E2E2E2E2E2E2E2E2E2E2E2E2E2E2E2E2E2E2E2E2E2
310
E2E2E2E2E2E2E2E2E2E2E2E2E2E2E2E2E2E2E2E2E2E2E2E2E2E2E2E2E2E2E2E2E2E2E2E2E2E2E2E2E2E2E2E2E2E2E2E2E2E2E2E2E2E2E2E2E2E2E2E2E2E2E2E2E2E2E2E2E2E2E2E2E2E2E2E2E2E2E2E2E2E2E2E2E2E2E2E2E2E2E2E2E2E2E2E2E2E2E2E2E2E2E2E2E2E2E2E2E2E2E2E2E2E2E2E2E2E2E2E2E2E2E2E2E2E2E2
310
E2E2BEE2E2E2E2E2E2DCE2E2E2BEBEE2282828E2E228E2E22828E22828E2E2E228E2E2E2E2E2E2E2BEBE2DE22828E2282828E2E2E2E2E2E2E2E2E2E2E2E2E2E2E22828E2BE2DE2E2E2E2E2E2DCE2BEE2E2E2E2E2E2E2E2E2E2E2E2E2E2E2E2E2E2E2E2E2E2E2E2E2E2E2E2E2E2E2E2E2E2E2E2E2E2E2E2E2E2E2E2E2E2E2E2
310
E2E2E2E2E2E2E2E2E2E2E2E2E2E2E2E2E2E2E2E2E2E2E2E2E2E2E2E2E2E2E2E2E2E2E2E2E2E2E2E2E2E2E2E2E2E2E2E2E2E2E2E2E2E2E2E2E2E2E2E2E2E2E2E2E2E2E2E2E2E2E2E2E2E2E2E2E2E2E2E2E2E2E2E2E2E2E2E2E2E2E2E2E2E2E2E2E2E2E2E2E2E2E2E2E2E2E2E2E2E2E2E2E2E2E2E2E2E2E2E2E2E2E2E2E2E2E2
310
E2E2E2E2BEE2E2E2E2E2E2DCE2E2E2BEBEE2282828E2E228E2E22828E22828E2E2E228E2E2E2E2E2E2E2BEBE2DE22828E2282828E2E2E2E2E2E2E2E2E2E2E2E2E2E2E22828E2BE2DE2E2E2E2E2E2DCE2BEE2E2E2E2E2E2E2E2E2E2E2E2E2E2E2E2E2E2E2E2E2E2E2E2E2E2E2E2E2E2E2E2E2E2E2E2E2E2E2E2E2E2E2E2E2E2
310
E2E2E2E2E2E2E2E2E2E2E2E2E2E2E2E2E2E2E2E2E2E2E2E2E2E2E2E2E2E2E2E2E2E2E2E2E2E2E2E2E2E2E2E2E2E2E2E2E2E2E2E2E2E2E2E2E2E2E2E2E2E2E2E2E2E2E2E2E2E2E2E2E2E2E2E2E2E2E2E2E2E2E2E2E2E2E2E2E2E2E2E2E2E2E2E2E2E2E2E2E2E2E2E2E2E2E2E2E2E2E2E2E2E2E2E2E2E2E2E2E2E2E2E2E2E2E2
310
E2E2E2E2E2E2BEE2E2E2E2E2E2DCE2E2E2BEBEE2282828E2E228E2E22828E22828E2E22828E2E2E2E2E2E2E2E2E22DE2282828282828E2E2E2E2E2E2E2E2E2E2E2E2E2E2E22828E2BE2DE2E2E2E2E2E2DCE2BEE2E2E2E2E2E2E2E2E2E2E2E2E2E2E2E2E2E2E2E2E2E2E2E2E2E2E2E2E2E2E2E2E2E2E2E2E2E2E2E2E2E2E2E2
310
E2E2E2E2E2E2E2E2E2E2E2E2E2E2E2E2E2E2E2E2E2E2E2E2E2E2E2E2E2E2E2E2E2E2E2E2E2E2E2E2E2E2E2E2E2E2E2E2E2E2E2E2E2E2E2E2E2E2E2E2E2E2E2E2E2E2E2E2E2E2E2E2E2E2E2E2E2E2E2E2E2E2E2E2E2E2E2E2E2E2E2E2E2E2E2E2E2E2E2E2E2E2E2E2E2E2E2E2E2E2E2E2E2E2E2E2E2E2E2E2E2E2E2E2E2E2E2
310
E2E2E2E2E2E2E2E2BEE2E2E2E2E2E2DCE2E2E2BEBEE22828E2E2E22828282828E2E2E2E2E22828E2E2E2E2E2E2E2E2E22DE22828E2282828E2E2E2E2E2E2E2E2E2E2E2E2E2E2E22828E2E22DE2E2E2E2E2E2DCE2BEE2E2E2E2E2E2E2E2E2E2E2E2E2E2E2E2E2E2E2E2E2E2E2E2E2E2E2E2E2E2E2E2E2E2E2E2E2E2E2E2E2E2
310
E2E2E2E2E2E2E2E2E2E2E2E2E2E2E2E2E2E2E2E2E2E2E2E2E2E2E2E2E2E2E2E2E2E2E2E2E2E2E2E2E2E2E2E2E2E2E2E2E2E2E2E2E2E2E2E2E2E2E2E2E2E2E2E2E2E2E2E2E2E2E2E2E2E2E2E2E2E2E2E2E2E2E2E2E2E2E2E2E2E2E2E2E2E2E2E2E2E2E2E2E2E2E2E2E2E2E2E2E2E2E2E2E2E2E2E2E2E2E2E2E2E2E2E2E2E2E2
310
E2E2E2E2E2E2E2E2E2E2BEE2E2E2E2E2E2DCE2E2E2E22DE22828E2E2E2E2E2E2E2E2E2E2E2E2E22828E2E2E2E2E2E2E2E2E22DE22828E2282828E2E2E2E2E2E2E2E2E2E2E2E2E2E2E22828E2E22DE2E2E2E2E2E2DCE2BEE2E2E2E2E2E2E2E2E2E2E2E2E2E2E2E2E2E2E2E2E2E2E2E2E2E2E2E2E2E2E2E2E2E2E2E2E2E2E2E2
310
E2E2E2E2E2E2E2E2E2E2E2E2E2E2E2E2E2E2E2E2E2E2E2E2E2E2E2E2E2E2E2E2E2E2E2E2E2E2E2E2E2E2E2E2E2E2E2E2E2E2E2E2E2E2E2E2E2E2E2E2E2E2E2E2E2E2E2E2E2E2E2E2E2E2E2E2E2E2E2E2E2E2E2E2E2E2E2E2E2E2E2E2E2E2E2E2E2E2E2E2E2E2E2E2E2E2E2E2E2E2E2E2E2E2E2E2E2E2E2E2E2E2E2E2E2E2E2
310
E2E2E2E2E2E2E2E2E2E2E2E2BEE2E2E2E2E2E2DCE2E2E2E22DE22828E228282828282828282828E2E22828E2E2E2E2E2E2E2E2E22DE22828E2282828E2E2E2E2E2E2E2E2E2E2E2E2E2E2E22828E2E22DE2E2E2E2E2E2DCE2BEE2E2E2E2E2E2E2E2E2E2E2E2E2E2E2E2E2E2E2E2E2E2E2E2E2E2E2E2E2E2E2E2E2E2E2E2E2E2
310
E2E2E2E2E2E2E2E2E2E2E2E2E2E2E2E2E2E2E2E2E2E2E2E2E2E2E2E2E2E2E2E2E2E2E2E2E2E2E2E2E2E2E2E2E2E2E2E2E2E2E2E2E2E2E2E2E2E2E2E2E2E2E2E2E2E2E2E2E2E2E2E2E2E2E2E2E2E2E2E2E2E2E2E2E2E2E2E2E2E2E2E2E2E2E2E2E2E2E2E2E2E2E2E2E2E2E2E2E2E2E2E2E2E2E2E2E2E2E2E2E2E2E2E2E2E2E2
310
E2E2E2E2E2E2E2E2E2E2E2E2E2E2BEE2E2E2E2E2E2DCE2E2E2E22DE2282828E2E2E2E2E2E2E2E2E228E2E22828E2E2E2E2E2E2E2E2E22DE22828E2282828E2E2E2E2E2E2E2E2E2E2E2E2E2E2E22828E2E22DE2E2E2E2E2E2DCE2BEE2E2E2E2E2E2E2E2E2E2E2E2E2E2E2E2E2E2E2E2E2E2E2E2E2E2E2E2E2E2E2E2E2E2E2E2
310
E2E2E2E2E2E2E2E2E2E2E2E2E2E2E2E2E2E2E2E2E2E2E2E2E2E2E2E2E2E2E2E2E2E2E2E2E2E2E2E2E2E2E2E2E2E2E2E2E2E2E2E2E2E2E2E2E2E2E2E2E2E2E2E2E2E2E2E2E2E2E2E2E2E2E2E2E2E2E2E2E2E2E2E2E2E2E2E2E2E2E2E2E2E2E2E2E2E2E2E2E2E2E2E2E2E2E2E2E2E2E2E2E2E2E2E2E2E2E2E2E2E2E2E2E2E2E2
310
E2E2E2E2E2E2E2E2E2E2E2E2E2E2E2E2BEE2E2E2E2E2E2DCE2E2E2E22DE2282828E2E2E2E2E2E2E2E2E228E2E22828E2E2E2E2E2E2E2E2E22DE22828E2282828E2E2E2E2E2E2E2E2E2E2E2E2E2E2E22828E2E22DE2E2E2E2E2E2DCE2BEE2E2E2E2E2E2E2E2E2E2E2E2E2E2E2E2E2E2E2E2E2E2E2E2E2E2E2E2E2E2E2E2E2E2
310
E2E2E2E2E2E2E2E2E2E2E2E2E2E2E2E2E2E2E2E2E2E2E2E2E2E2E2E2E2E2E2E2E2E2E2E2E2E2E2E2E2E2E2E2E2E2E2E2E2E2E2E2E2E2E2E2E2E2E2E2E2E2E2E2E2E2E2E2E2E2E2E2E2E2E2E2E2E2E2E2E2E2E2E2E2E2E2E2E2E2E2E2E2E2E2E2E2E2E2E2E2E2E2E2E2E2E2E2E2E2E2E2E2E2E2E2E2E2E2E2E2E2E2E2E2E2E2
310
E2E2E2E2E2E2E2E2E2E2E2E2E2E2E2E2E2E2BEE2E2E2E2E2E2DCE2E2E2E22DE2282828E2E2E2E2E2E2E2E2E228E2E22828E2E2E2E2E2E2E2E2E22DE22828E2282828E2E2E2E2E2E2E2E2E2E2E2E2E2E2E22828E2E22DE2E2E2E2E2E2DCE2BEE2E2E2E2E2E2E2E2E2E2E2E2E2E2E2E2E2E2E2E2E2E2E2E2E2E2E2E2E2E2E2E2
310
E2E2E2E2E2E2E2E2E2E2E2E2E2E2E2E2E2E2E2E2E2E2E2E2E2E2E2E2E2E2E2E2E2E2E2E2E2E2E2E2E2E2E2E2E2E2E2E2E2E2E2E2E2E2E2E2E2E2E2E2E2E2E2E2E2E2E2E2E2E2E2E2E2E2E2E2E2E2E2E2E2E2E2E2E2E2E2E2E2E2E2E2E2E2E2E2E2E2E2E2E2E2E2E2E2E2E2E2E2E2E2E2E2E2E2E2E2E2E2E2E2E2E2E2E2E2E2
310
E2E2E2E2E2E2E2E2E2E2E2E2E2E2E2E2E2E2E2E2BEE2E2E2E2E2E2DCE2E2E2E22DE2282828E2E2E2E2E2E2E2E2E228E2E22828E2E2E2E2E2E2E2E2E22DE22828E2282828E2E2E2E2E2E2E2E2E2E2E2E2E2E2E22828E2E22DE2E2E2E2E2E2DCE2BEE2E2E2E2E2E2E2E2E2E2E2E2E2E2E2E2E2E2E2E2E2E2E2E2E2E2E2E2E2E2
310
E2E2E2E2E2E2E2E2E2E2E2E2E2E2E2E2E2E2E2E2E2E2E2E2E2E2E2E2E2E2E2E2E2E2E2E2E2E2E2E2E2E2E2E2E2E2E2E2E2E2E2E2E2E2E2E2E2E2E2E2E2E2E2E2E2E2E2E2E2E2E2E2E2E2E2E2E2E2E2E2E2E2E2E2E2E2E2E2E2E2E2E2E2E2E2E2E2E2E2E2E2E2E2E2E2E2E2E2E2E2E2E2E2E2E2E2E2E2E2E2E2E2E2E2E2E2E2
310
E2E2E2E2E2E2E2E2E2E2E2E2E2E2E2E2E2E2E2E2E2E2BEE2E2E2E2E2E2DCE2E2E2E22DE228282828282828282828282828E2E22828E2E2E2E2E2E2E2E2E22DE22828E2282828E2E2E2E2E2E2E2E2E2E2E2E2E2E2E22828E2E22DE2E2E2E2E2E2DCE2BEE2E2E2E2E2E2E2E2E2E2E2E2E2E2E2E2E2E2E2E2E2E2E2E2E2E2E2E2
310
E2E2E2E2E2E2E2E2E2E2E2E2E2E2E2E2E2E2E2E2E2E2E2E2E2E2E2E2E2E2E2E2E2E2E2E2E2E2E2E2E2E2E2E2E2E2E2E2E2E2E2E2E2E2E2E2E2E2E2E2E2E2E2E2E2E2E2E2E2E2E2E2E2E2E2E2E2E2E2E2E2E2E2E2E2E2E2E2E2E2E2E2E2E2E2E2E2E2E2E2E2E2E2E2E2E2E2E2E2E2E2E2E2E2E2E2E2E2E2E2E2E2E2E2E2E2E2
310
E2E2E2E2E2E2E2E2E2E2E2E2E2E2E2E2E2E2E2E2E2E2E2E2BEE2E2E2E2E2E2DCE2E2E2E22DE22828E2E2E2E2E2E2BEE2E2E2E2E2E22828E2E2E2E2E2E2E2E2E22DE22828E2282828E2E2E2E2E2E2E2E2E2E2E2E2E2E2E22828E2E22DE2E2E2E2E2E2DCE2BEE2E2E2E2E2E2E2E2E2E2E2E2E2E2E2E2E2E2E2E2E2E2E2E2E2E2
310
E2E2E2E2E2E2E2E2E2E2E2E2E2E2E2E2E2E2E2E2E2E2E2E2E2E2E2E2E2E2E2E2E2E2E2E2E2E2E2E2E2E2E2E2E2E2E2E2E2E2E2E2E2E2E2E2E2E2E2E2E2E2E2E2E2E2E2E2E2E2E2E2E2E2E2E2E2E2E2E2E2E2E2E2E2E2E2E2E2E2E2E2E2E2E2E2E2E2E2E2E2E2E2E2E2E2E2E2E2E2E2E2E2E2E2E2E2E2E2E2E2E2E2E2E2E2E2
310
E2E2E2E2E2E2E2E2E2E2E2E2E2E2E2E2E2E2E2E2E2E2E2E2E2E2BEE2E2E2E2E2E2DCE2E2E2E22DE22828E2E2E2E2E2282828E2E2E2E2E22828E2E2E2E2E2E2E2E2E22DE22828E2282828E2E2E2E2E2E2E2E2E2E2E2E2E2E2E22828E2E22DE2E2E2E2E2E2DCE2BEE2E2E2E2E2E2E2E2E2E2E2E2E2E2E2E2E2E2E2E2E2E2E2E2
310
E2E2E2E2E2E2E2E2E2E2E2E2E2E2E2E2E2E2E2E2E2E2E2E2E2E2E2E2E2E2E2E2E2E2E2E2E2E2E2E2E2E2E2E2E2E2E2E2E2E2E2E2E2E2E2E2E2E2E2E2E2E2E2E2E2E2E2E2E2E2E2E2E2E2E2E2E2E2E2E2E2E2E2E2E2E2E2E2E2E2E2E2E2E2E2E2E2E2E2E2E2E2E2E2E2E2E2E2E2E2E2E2E2E2E2E2E2E2E2E2E2E2E2E2E2E2E2
310
E2E2E2E2E2E2E2E2E2E2E2E2E2E2E2E2E2E2E2E2E2E2E2E2E2E2E2E2BEE2E2E2E2E2E2DCE2E2E2E22DE22828E2E2E2E2E22828E2E2E2E2E2E22828E2E2E2E2E2E2E2E2E22DE22828E2282828E2E2E2E2E2E2E2E2E2E2E2E2E2E2E22828E2E22DE2E2E2E2E2E2DCE2BEE2E2E2E2E2E2E2E2E2E2E2E2E2E2E2E2E2E2E2E2E2E2
310
E2E2E2E2E2E2E2E2E2E2E2E2E2E2E2E2E2E2E2E2E2E2E2E2E2E2E2E2E2E2E2E2E2E2E2E2E2E2E2E2E2E2E2E2E2E2E2E2E2E2E2E2E2E2E2E2E2E2E2E2E2E2E2E2E2E2E2E2E2E2E2E2E2E2E2E2E2E2E2E2E2E2E2E2E2E2E2E2E2E2E2E2E2E2E2E2E2E2E2E2E2E2E2E2E2E2E2E2E2E2E2E2E2E2E2E2E2E2E2E2E2E2E2E2E2E2E2
310
E2E2E2E2E2E2E2E2E2E2E2E2E2E2E2E2E2E2E2E2E2E2E2E2E2E2E2E2E2E2BEE2E2E2E2E2E2DCE2E2E2E22DE22828E2E2E2E2E2E2E2E2E2E2E2E2E22828E2E2E2E2E2E2E2E2E22DE22828E2282828E2E2282828282828282828282828282828E2E22DE2E2E2E2E2E2DCE2BEE2E2E2E2E2E2E2E2E2E2E2E2E2E2E2E2E2E2E2E2
310
E2E2E2E2E2E2E2E2E2E2E2E2E2E2E2E2E2E2E2E2E2E2E2E2E2E2E2E2E2E2E2E2E2E2E2E2E2E2E2E2E2E2E2E2E2E2E2E2E2E2E2E2E2E2E2E2E2E2E2E2E2E2E2E2E2E2E2E2E2E2E2E2E2E2E2E2E2E2E2E2E2E2E2E2E2E2E2E2E2E2E2E2E2E2E2E2E2E2E2E2E2E2E2E2E2E2E2E2E2E2E2E2E2E2E2E2E2E2E2E2E2E2E2E2E2E2E2
310
E2E2E2E2E2E2E2E2E2E2E2E2E2E2E2E2E2E2E2E2E2E2E2E2E2E2E2E2E2E2E2E2BEE2E2E2E2E2E2DCE2E2E2E22DE22828E2E2BEBEBEBEBEBEBEBEE2E2E22828E2E2E2E2E2E2E2E2E22DE22828E22828282828282828282828282828282828282828E2E22DE2E2E2E2E2E2DCE2BEE2E2E2E2E2E2E2E2E2E2E2E2E2E2E2E2E2E2
310
E2E2E2E2E2E2E2E2E2E2E2E2E2E2E2E2E2E2E2E2E2E2E2E2E2E2E2E2E2E2E2E2E2E2E2E2E2E2E2E2E2E2E2E2E2E2E2E2E2E2E2E2E2E2E2E2E2E2E2E2E2E2E2E2E2E2E2E2E2E2E2E2E2E2E2E2E2E2E2E2E2E2E2E2E2E2E2E2E2E2E2E2E2E2E2E2E2E2E2E2E2E2E2E2E2E2E2E2E2E2E2E2E2E2E2E2E2E2E2E2E2E2E2E2E2E2E2
310
E2E2E2E2E2E2E2E2E2E2E2E2E2E2E2E2E2E2E2E2E2E2E2E2E2E2E2E2E2E2E2E2E2E2BEE2E2E2E2E2E2DCE2E2E2E22DE22828E22828BEBEBE28BEBEBE2828E22828E2E2E2E2E2E2E2E2E22DE22828E228E2E2E2E2E2E2E2E2E2E2E2E2E2E2E2E2E2E228E2E22DE2E2E2E2E2E2DCE2BEE2E2E2E2E2E2E2E2E2E2E2E2E2E2E2E2
310
E2E2E2E2E2E2E2E2E2E2E2E2E2E2E2E2E2E2E2E2E2E2E2E2E2E2E2E2E2E2E2E2E2E2E2E2E2E2E2E2E2E2E2E2E2E2E2E2E2E2E2E2E2E2E2E2E2E2E2E2E2E2E2E2E2E2E2E2E2E2E2E2E2E2E2E2E2E2E2E2E2E2E2E2E2E2E2E2E2E2E2E2E2E2E2E2E2E2E2E2E2E2E2E2E2E2E2E2E2E2E2E2E2E2E2E2E2E2E2E2E2E2E2E2E2E2E2
310
E2E2E2E2E2E2E2E2E2E2E2E2E2E2E2E2E2E2E2E2E2E2E2E2E2E2E2E2E2E2E2E2E2E2E2E2BEE2E2E2E2E2E2DCE2E2E2E22DE2282828282828E228BE28E2282828282828E2E2E2E2E2E2E2E2E22DE22828E228E2E2E2E2E2E2E2E2E2E2E2E2E2E2E2E2E2E228E2E22DE2E2E2E2E2E2DCE2BEE2E2E2E2E2E2E2E2E2E2E2E2E2E2
310
E2E2E2E2E2E2E2E2E2E2E2E2E2E2E2E2E2E2E2E2E2E2E2E2E2E2E2E2E2E2E2E2E2E2E2E2E2E2E2E2E2E2E2E2E2E2E2E2E2E2E2E2E2E2E2E2E2E2E2E2E2E2E2E2E2E2E2E2E2E2E2E2E2E2E2E2E2E2E2E2E2E2E2E2E2E2E2E2E2E2E2E2E2E2E2E2E2E2E2E2E2E2E2E2E2E2E2E2E2E2E2E2E2E2E2E2E2E2E2E2E2E2E2E2E2E2E2
310
E2E2E2E2E2E2E2E2E2E2E2E2E2E2E2E2E2E2E2E2E2E2E2E2E2E2E2E2E2E2E2E2E2E2E2E2E2E2BEE2E2E2E2E2E2DCE2E2E2E22DE2282828282828E228BE28E2282828282828E2E2E2E2E2E2E2E2E22DE22828E228E2E2E2E2E2E2E2E2E2E2E2E2E2E2E2E2E2E228E2E22DE2E2E2E2E2E2DCE2BEE2E2E2E2E2E2E2E2E2E2E2E2
310
E2E2E2E2E2E2E2E2E2E2E2E2E2E2E2E2E2E2E2E2E2E2E2E2E2E2E2E2E2E2E2E2E2E2E2E2E2E2E2E2E2E2E2E2E2E2E2E2E2E2E2E2E2E2E2E2E2E2E2E2E2E2E2E2E2E2E2E2E2E2E2E2E2E2E2E2E2E2E2E2E2E2E2E2E2E2E2E2E2E2E2E2E2E2E2E2E2E2E2E2E2E2E2E2E2E2E2E2E2E2E2E2E2E2E2E2E2E2E2E2E2E2E2E2E2E2E2
310
E2E2E2E2E2E2E2E2E2E2E2E2E2E2E2E2E2E2E2E2E2E2E2E2E2E2E2E2E2E2E2E2E2E2E2E2E2E2E2E2BEE2E2E2E2E2E2DCE2E2E2E22DE22828E22828E2E2E228E2E2E22828E22828E2E2E2E2E2E2E2E2E22DE22828E228E2E2E2E2E2E2E2E2E2E2E2E2E2E2E2E2E2E228E2E22DE2E2E2E2E2E2DCE2BEE2E2E2E2E2E2E2E2E2E2
310
E2E2E2E2E2E2E2E2E2E2E2E2E2E2E2E2E2E2E2E2E2E2E2E2E2E2E2E2E2E2E2E2E2E2E2E2E2E2E2E2E2E2E2E2E2E2E2E2E2E2E2E2E2E2E2E2E2E2E2E2E2E2E2E2E2E2E2E2E2E2E2E2E2E2E2E2E2E2E2E2E2E2E2E2E2E2E2E2E2E2E2E2E2E2E2E2E2E2E2E2E2E2E2E2E2E2E2E2E2E2E2E2E2E2E2E2E2E2E2E2E2E2E2E2E2E2E2
310
E2E2E2E2E2E2E2E2E2E2E2E2E2E2E2E2E2E2E2E2E2E2E2E2E2E2E2E2E2E2E2E2E2E2E2E2E2E2E2E2E2E2BEE2E2E2E2E2E2DCE2E2E2BE2D2D2D282DBEBE2828BEBEBE2828BEBEE22828E2E2E2E2E2E2E2E2E22DE22828E2280FF5F5F50F0F0F0F0F0F0F0F0F0F0F0F0FE228E2E22DE2E2E2E2E2E2DCE2BEE2E2E2E2E2E2E2E2
310
E2E2E2E2E2E2E2E2E2E2E2E2E2E2E2E2E2E2E2E2E2E2E2E2E2E2E2E2E2E2E2E2E2E2E2E2E2E2E2E2E2E2E2E2E2E2E2E2E2E2E2E2E2E2E2E2E2E2E2E2E2E2E2E2E2E2E2E2E2E2E2E2E2E2E2E2E2E2E2E2E2E2E2E2E2E2E2E2E2E2E2E2E2E2E2E2E2E2E2E2E2E2E2E2E2E2E2E2E2E2E2E2E2E2E2E2E2E2E2E2E2E2E2E2E2E2E2
310
E2E2E2E2E2E2E2E2E2E2E2E2E2E2E2E2E2E2E2E2E2E2E2E2E2E2E2E2E2E2E2E2E2E2E2E2E2E2E2E2E2E2E2E2BEE2E2E2E2E2E2DCE2E2E2BE2DE20F28282828282828282828282828282828E2E2E2E2E2E2E2E2E22DE228282828F5F5BEF5F5E2E2E2E2E2E2E2E2E2E2E20FE228E2E22DE2E2E2E2E2E2DCE2BEE2E2E2E2E2E2
310
E2E2E2E2E2E2E2E2E2E2E2E2E2E2E2E2E2E2E2E2E2E2E2E2E2E2E2E2E2E2E2E2E2E2E2E2E2E2E2E2E2E2E2E2E2E2E2E2E2E2E2E2E2E2E2E2E2E2E2E2E2E2E2E2E2E2E2E2E2E2E2E2E2E2E2E2E2E2E2E2E2E2E2E2E2E2E2E2E2E2E2E2E2E2E2E2E2E2E2E2E2E2E2E2E2E2E2E2E2E2E2E2E2E2E2E2E2E2E2E2E2E2E2E2E2E2E2
310
E2E2E2E2E2E2E2E2E2E2E2E2E2E2E2E2E2E2E2E2E2E2E2E2E2E2E2E2E2E2E2E2E2E2E2E2E2E2E2E2E2E2E2E2E2E2BEE2E2E2E2E2E2DCE2E2E2E22D2DF50F0F0F2828282828282828280F0F0F28E2E2E2E2E2E2E2E22DF52D28282828F5F5F5F5F5F5F5F5F5F5F5F5F5F5F5F5F5F5F52D2D2DE2E2E2E2E2E2DCE2BEE2E2E2E2
310
E2E2E2E2E2E2E2E2E2E2E2E2E2E2E2E2E2E2E2E2E2E2E2E2E2E2E2E2E2E2E2E2E2E2E2E2E2E2E2E2E2E2E2E2E2E2E2E2E2E2E2E2E2E2E2E2E2E2E2E2E2E2E2E2E2E2E2E2E2E2E2E2E2E2E2E2E2E2E2E2E2E2E2E2E2E2E2E2E2E2E2E2E2E2E2E2E2E2E2E2E2E2E2E2E2E2E2E2E2E2E2E2E2E2E2E2E2E2E2E2E2E2E2E2E2E2E2
310
E2E2E2E2E2E2E2E2E2E2E2E2E2E2E2E2E2E2E2E2E2E2E2E2E2E2E2E2E2E2E2E2E2E2E2E2E2E2E2E2E2E2E2E2E2E2E2E2BEE2E2E2E2E2E2DCE2E2E2E2E2E2E2E2E2E2E2E2F5F5BEF5E2E2E2E2E2E2E2E2E2E2E2E2E2E2E2E2E2E2E2E2E2E2E2F5BEF5F5E2E2E2E2E2E2E2E2E2E2E2E2E2E2E2E2E2E2E2E2E2E2E2DCE2BEE2E2
310
E2E2E2E2E2E2E2E2E2E2E2E2E2E2E2E2E2E2E2E2E2E2E2E2E2E2E2E2E2E2E2E2E2E2E2E2E2E2E2E2E2E2E2E2E2E2E2E2E2E2E2E2E2E2E2E2E2E2E2E2E2E2E2E2E2E2E2E2E2E2E2E2E2E2E2E2E2E2E2E2E2E2E2E2E2E2E2E2E2E2E2E2E2E2E2E2E2E2E2E2E2E2E2E2E2E2E2E2E2E2E2E2E2E2E2E2E2E2E2E2E2E2E2E2E2E2E2
310
E2E2E2E2E2E2E2E2E2E2E2E2E2E2E2E2E2E2E2E2E2E2E2E2E2E2E2E2E2E2E2E2E2E2E2E2E2E2E2E2E2E2E2E2E2E2E2E2E2E2BEE2E2E2E2E2E2DCE2E2E2E2E2E2E2E2E2E2E2E2E2E2E2E2E2E2E2E2E2E2E2E2E2E2E2E2E2E2E2E2E2E2E2E2E2E2E2E2E2E2E2E2E2E2E2E2E2E2E2E2E2E2E2E2E2E2E2E2E2E2E2E2E2E2DCE2BE
310
E2E2E2E2E2E2E2E2E2E2E2E2E2E2E2E2E2E2E2E2E2E2E2E2E2E2E2E2E2E2E2E2E2E2E2E2E2E2E2E2E2E2E2E2E2E2E2E2E2E2E2E2E2E2E2E2E2E2E2E2E2E2E2E2E2E2E2E2E2E2E2E2E2E2E2E2E2E2E2E2E2E2E2E2E2E2E2E2E2E2E2E2E2E2E2E2E2E2E2E2E2E2E2E2E2E2E2E2E2E2E2E2E2E2E2E2E2E2E2E2E2E2E2E2E2E2E2
310
E2E2E2E2E2E2E2E2E2E2E2E2E2E2E2E2E2E2E2E2E2E2E2E2E2E2E2E2E2E2E2E2E2E2E2E2E2E2E2E2E2E2E2E2E2E2E2E2E2E2E2E2BEE2E2E2E2E2E2DCE2E2E2E2E2E2E2E2E2E2E2E2E2E2E2E2E2E2E2E2E2E2E2E2E2E2E2E2E2E2E2E2E2E2E2E2E2E2E2E2E2E2E2E2E2E2E2E2E2E2E2E2E2E2E2E2E2E2E2E2E2E2E2E2E2E2DC
310
E2BEE2E2E2E2E2E2E2E2E2E2E2E2E2E2E2E2E2E2E2E2E2E2E2E2E2E2E2E2E2E2E2E2E2E2E2E2E2E2E2E2E2E2E2E2E2E2E2E2E2E2E2E2E2E2E2E2E2E2E2E2E2E2E2E2E2E2E2E2E2E2E2E2E2E2E2E2E2E2E2E2E2E2E2E2E2E2E2E2E2E2E2E2E2E2E2E2E2E2E2E2E2E2E2E2E2E2E2E2E2E2E2E2E2E2E2E2E2E2E2E2E2E2E2E2E2
310
E2E2E2E2E2E2E2E2E2E2E2E2E2E2E2E2E2E2E2E2E2E2E2E2E2E2E2E2E2E2E2E2E2E2E2E2E2E2E2E2E2E2E2E2E2E2E2E2E2E2E2E2E2E2BEE2E2E2E2E2E2DCE2E2E2E2E2E2E2E2E2E2E2E2E2E2E2E2E2E2E2E2E2E2E2E2E2E2E2E2E2E2E2E2E2E2E2E2E2E2E2E2E2E2E2E2E2E2E2E2E2E2E2E2E2E2E2E2E2E2E2E2E2E2E2E2E2
310
E2DCE2BEE2E2E2E2E2E2E2E2E2E2E2E2E2E2E2E2E2E2E2E2E2E2E2E2E2E2E2E2E2E2E2E2E2E2E2E2E2E2E2E2E2E2E2E2E2E2E2E2E2E2E2E2E2E2E2E2E2E2E2E2E2E2E2E2E2E2E2E2E2E2E2E2E2E2E2E2E2E2E2E2E2E2E2E2E2E2E2E2E2E2E2E2E2E2E2E2E2E2E2E2E2E2E2E2E2E2E2E2E2E2E2E2E2E2E2E2E2E2E2E2E2E2E2
310
E2E2E2E2E2E2E2E2E2E2E2E2E2E2E2E2E2E2E2E2E2E2E2E2E2E2E2E2E2E2E2E2E2E2E2E2E2E2E2E2E2E2E2E2E2E2E2E2E2E2E2E2E2E2E2E2BEE2E2E2E2E2E2DCE2E2E2E2E2E2E2E2E2E2E2E2E2E2E2E2E2E2E2E2E2E2E2E2E2E2E2E2E2E2E2E2E2E2E2E2E2E2E2E2E2E2E2E2E2E2E2E2E2E2E2E2E2E2E2E2E2E2E2E2E2E2E2
310
E2E2E2DCE2BEE2E2E2E2E2E2E2E2E2E2E2E2E2E2E2E2E2E2E2E2E2E2E2E2E2E2E2E2E2E2E2E2E2E2E2E2E2E2E2E2E2E2E2E2E2E2E2E2E2E2E2E2E2E2E2E2E2E2E2E2E2E2E2E2E2E2E2E2E2E2E2E2E2E2E2E2E2E2E2E2E2E2E2E2E2E2E2E2E2E2E2E2E2E2E2E2E2E2E2E2E2E2E2E2E2E2E2E2E2E2E2E2E2E2E2E2E2E2E2E2E2
310
E2E2E2E2E2E2E2E2E2E2E2E2E2E2E2E2E2E2E2E2E2E2E2E2E2E2E2E2E2E2E2E2E2E2E2E2E2E2E2E2E2E2E2E2E2E2E2E2E2E2E2E2E2E2E2E2E2E2BEE2E2E2E2E2E2DCE2E2E2E2E2E2E2E2E2E2E2E2E2E2E2E2E2E2E2E2E2E2E2E2E2E2E2E2E2E2E2E2E2E2E2E2E2E2E2E2E2E2E2E2E2E2E2E2E2E2E2E2E2E2E2E2E2E2E2E2E2
310
E2E2E2E2E2DCE2BEE2E2E2E2E2E2E2E2E2E2E2E2E2E2E2E2E2E2E2E2E2E2E2E2E2E2E2E2E2E2E2E2E2E2E2E2E2E2E2E2E2E2E2E2E2E2E2E2E2E2E2E2E2E2E2E2E2E2E2E2E2E2E2E2E2E2E2E2E2E2E2E2E2E2E2E2E2E2E2E2E2E2E2E2E2E2E2E2E2E2E2E2E2E2E2E2E2E2E2E2E2E2E2E2E2E2E2E2E2E2E2E2E2E2E2E2E2E2E2
310
E2E2E2E2E2E2E2E2E2E2E2E2E2E2E2E2E2E2E2E2E2E2E2E2E2E2E2E2E2E2E2E2E2E2E2E2E2E2E2E2E2E2E2E2E2E2E2E2E2E2E2E2E2E2E2E2E2E2E2E2BEE2E2E2E2E2E2DCDCDCDCDCDCDCDCDCDCDCDCDCDCDCDCDCDCDCDCDCDCDCDCDCDCDCDCDCDCDCDCDCDCDCDCDCDCDCDCDCDCDCDCDCDCDCDCDCDCDCDCDCDCDCDCDCDCDCDC
310
DCDCDCDCDCDCDCDCE2BEE2E2E2E2E2E2E2E2E2E2E2E2E2E2E2E2E2E2E2E2E2E2E2E2E2E2E2E2E2E2E2E2E2E2E2E2E2E2E2E2E2E2E2E2E2E2E2E2E2E2E2E2E2E2E2E2E2E2E2E2E2E2E2E2E2E2E2E2E2E2E2E2E2E2E2E2E2E2E2E2E2E2E2E2E2E2E2E2E2E2E2E2E2E2E2E2E2E2E2E2E2E2E2E2E2E2E2E2E2E2E2E2E2E2E2E2E2
310
E2E2E2E2E2E2E2E2E2E2E2E2E2E2E2E2E2E2E2E2E2E2E2E2E2E2E2E2E2E2E2E2E2E2E2E2E2E2E2E2E2E2E2E2E2E2E2E2E2E2E2E2E2E2E2E2E2E2E2E2E2E2BEE2E2E2E2E2E2E2E2E2E2E2E2E2E2E2E2E2E2E2E2E2E2E2E2E2E2E2E2E2E2E2E2E2E2E2E2E2E2E2E2E2E2E2E2E2E2E2E2E2E2E2E2E2E2E2E2E2E2E2E2E2E2E2E2
310
E2E2E2E2E2E2E2E2E2E2E2BEE2E2E2E2E2E2E2E2E2E2E2E2E2E2E2E2E2E2E2E2E2E2E2E2E2E2E2E2E2E2E2E2E2E2E2E2E2E2E2E2E2E2E2E2E2E2E2E2E2E2E2E2E2E2E2E2E2E2E2E2E2E2E2E2E2E2E2E2E2E2E2E2E2E2E2E2E2E2E2E2E2E2E2E2E2E2E2E2E2E2E2E2E2E2E2E2E2E2E2E2E2E2E2E2E2E2E2E2E2E2E2E2E2E2E2
310
E2E2E2E2E2E2E2E2E2E2E2E2E2E2E2E2E2E2E2E2E2E2E2E2E2E2E2E2E2E2E2E2E2E2E2E2E2E2E2E2E2E2E2E2E2E2E2E2E2E2E2E2E2E2E2E2E2E2E2E2E2E2E2E2BEBEBEBEBEBEBEBEBEBEBEBEBEBEBEBEBEBEBEBEBEBEBEBEBEBEBEBEBEBEBEBEBEBEBEBEBEBEBEBEBEBEBEBEBEBEBEBEBEBEBEBEBEBEBEBEBEBEBEBEBEBEBE
310
BEBEBEBEBEBEBEBEBEBEBEBEBEBEE2E2E2E2E2E2E2E2E2E2E2E2E2E2E2E2E2E2E2E2E2E2E2E2E2E2E2E2E2E2E2E2E2E2E2E2E2E2E2E2E2E2E2E2E2E2E2E2E2E2E2E2E2E2E2E2E2E2E2E2E2E2E2E2E2E2E2E2E2E2E2E2E2E2E2E2E2E2E2E2E2E2E2E2E2E2E2E2E2E2E2E2E2E2E2E2E2E2E2E2E2E2E2E2E2E2E2E2E2E2E2E2E2
310
E2E2E2E2E2E2E2E2E2E2E2E2E2E2E2E2E2E2E2E2E2E2E2E2E2E2E2E2E2E2E2E2E2E2E2E2E2E2E2E2E2E2E2E2E2E2E2E2E2E2E2E2E2E2E2E2E2E2E2E2E2E2E2E2E2E2E2E2E2E2E2E2E2E2E2E2E2E2E2E2E2E2E2E2E2E2E2E2E2E2E2E2E2E2E2E2E2E2E2E2E2E2E2E2E2E2E2E2E2E2E2E2E2E2E2E2E2E2E2E2E2E2E2E2E2E2E2
310
E2E2E2E2E2E2E2E2E2E2E2E2E2E2E2E2E2E2E2E2E2E2E2E2E2E2E2E2E2E2E2E2E2E2E2E2E2E2E2E2E2E2E2E2E2E2E2E2E2E2E2E2E2E2E2E2E2E2E2E2E2E2E2E2E2E2E2E2E2E2E2E2E2E2E2E2E2E2E2E2E2E2E2E2E2E2E2E2E2E2E2E2E2E2E2E2E2E2E2E2E2E2E2E2E2E2E2E2E2E2E2E2E2E2E2E2E2E2E2E2E2E2E2E2E2E2E2
310
E2E2E2E2E2E2E2E2E2E2E2E2E2E2E2E2E2E2E2E2E2E2E2E2E2E2E2E2E2E2E2E2E2E2E2E2E2E2E2E2E2E2E2E2E2E2E2E2E2E2E2E2E2E2E2E2E2E2E2E2E2E2E2E2E2E2E2E2E2E2E2E2E2E2E2E2E2E2E2E2E2E2E2E2E2E2E2E2E2E2E2E2E2E2E2E2E2E2E2E2E2E2E2E2E2E2E2E2E2E2E2E2E2E2E2E2E2E2E2E2E2E2E2E2E2E2E2
310
E2E2E2E2E2E2E2E2E2E2E2E2E2E2E2E2E2E2E2E2E2E2E2E2E2E2E2E2E2E2E2E2E2E2E2E2E2E2E2E2E2E2E2E2E2E2E2E2E2E2E2E2E2E2E2E2E2E2E2E2E2E2E2E2E2E2E2E2E2E2E2E2E2E2E2E2E2E2E2E2E2E2E2E2E2E2E2E2E2E2E2E2E2E2E2E2E2E2E2E2E2E2E2E2E2E2E2E2E2E2E2E2E2E2E2E2E2E2E2E2E2E2E2E2E2E2E2
310
E2E2E2E2E2E2E2E2E2E2E2E2E2E2E2E2E2E2E2E2E2E2E2E2E2E2E2E2E2E2E2E2E2E2E2E2E2E2E2E2E2E2E2E2E2E2E2E2E2E2E2E2E2E2E2E2E2E2E2E2E2E2E2E2E2E2E2E2E2E2E2E2E2E2E2E2E2E2E2E2E2E2E2E2E2E2E2E2E2E2E2E2E2E2E2E2E2E2E2E2E2E2E2E2E2E2E2E2E2E2E2E2E2E2E2E2E2E2E2E2E2E2E2E2E2E2E2
310
E2E2E2E2E2E2E2E2E2E2E2E2E2E2E2E2E2E2E2E2E2E2E2E2E2E2E2E2E2E2E2E2E2E2E2E2E2E2E2E2E2E2E2E2E2E2E2E2E2E2E2E2E2E2E2E2E2E2E2E2E2E2E2E2E2E2E2E2E2E2E2E2E2E2E2E2E2E2E2E2E2E2E2E2E2E2E2E2E2E2E2E2E2E2E2E2E2E2E2E2E2E2E2E2E2E2E2E2E2E2E2E2E2E2E2E2E2E2E2E2E2E2E2E2E2E2E2
310
E2E2E2E2E2E2E2E2E2E2E2E2E2E2E2E2E2E2E2E2E2E2E2E2E2E2E2E2E2E2E2E2E2E2E2E2E2E2E2E2E2E2E2E2E2E2E2E2E2E2E2E2E2E2E2E2E2E2E2E2E2E2E2E2E2E2E2E2E2E2E2E2E2E2E2E2E2E2E2E2E2E2E2E2E2E2E2E2E2E2E2E2E2E2E2E2E2E2E2E2E2E2E2E2E2E2E2E2E2E2E2E2E2E2E2E2E2E2E2E2E2E2E2E2E2E2E2
310
E2E2E2E2E2E2E2E2E2E2E2E2E2E2E2E2E2E2E2E2E2E2E2E2E2E2E2E2E2E2E2E2E2E2E2E2E2E2E2E2E2E2E2E2E2E2E2E2E2E2E2E2E2E2E2E2E2E2E2E2E2E2E2E2E2E2E2E2E2E2E2E2E2E2E2E2E2E2E2E2E2E2E2E2E2E2E2E2E2E2E2E2E2E2E2E2E2E2E2E2E2E2E2E2E2E2E2E2E2E2E2E2E2E2E2E2E2E2E2E2E2E2E2E2E2E2E2
310
E2E2E2E2E2E2E2E2E2E2E2E2E2E2E2E2E2E2E2E2E2E2E2E2E2E2
  0
XRECORD
  5
47
102
{ACAD_REACTORS
330
46
102
}
330
46
100
AcDbXrecord
280
     1
270
     1
271
     1
  0
XRECORD
  5
48
102
{ACAD_REACTORS
330
46
102
}
330
46
100
AcDbXrecord
280
     1
270
     1
271
     1
  0
XRECORD
  5
49
102
{ACAD_REACTORS
330
46
102
}
330
46
100
AcDbXrecord
280
     1
270
     1
271
     1
  0
XRECORD
  5
4A
102
{ACAD_REACTORS
330
46
102
}
330
46
100
AcDbXrecord
280
     1
270
     1
271
     1
  0
XRECORD
  5
4B
102
{ACAD_REACTORS
330
46
102
}
330
46
100
AcDbXrecord
280
     1
270
     1
271
     1
  0
XRECORD
  5
4C
102
{ACAD_REACTORS
330
46
102
}
330
46
100
AcDbXrecord
280
     1
270
     1
271
     1
  0
XRECORD
  5
3F
102
{ACAD_REACTORS
330
3E
102
}
330
3E
100
AcDbXrecord
280
     1
270
     1
271
     1
  0
XRECORD
  5
40
102
{ACAD_REACTORS
330
3E
102
}
330
3E
100
AcDbXrecord
280
     1
270
     1
271
     1
  0
XRECORD
  5
41
102
{ACAD_REACTORS
330
3E
102
}
330
3E
100
AcDbXrecord
280
     1
270
     1
271
     1
  0
XRECORD
  5
42
102
{ACAD_REACTORS
330
3E
102
}
330
3E
100
AcDbXrecord
280
     1
270
     1
271
     1
  0
XRECORD
  5
43
102
{ACAD_REACTORS
330
3E
102
}
330
3E
100
AcDbXrecord
280
     1
270
     1
271
     1
  0
XRECORD
  5
44
102
{ACAD_REACTORS
330
3E
102
}
330
3E
100
AcDbXrecord
280
     1
270
     1
271
     1
  0
XRECORD
  5
F
102
{ACAD_REACTORS
330
E
102
}
330
E
100
AcDbXrecord
280
     1
270
     1
271
     1
  0
XRECORD
  5
10
102
{ACAD_REACTORS
330
E
102
}
330
E
100
AcDbXrecord
280
     1
270
     1
271
     1
  0
XRECORD
  5
11
102
{ACAD_REACTORS
330
E
102
}
330
E
100
AcDbXrecord
280
     1
270
     1
271
     1
  0
XRECORD
  5
12
102
{ACAD_REACTORS
330
E
102
}
330
E
100
AcDbXrecord
280
     1
270
     1
271
     1
  0
XRECORD
  5
13
102
{ACAD_REACTORS
330
E
102
}
330
E
100
AcDbXrecord
280
     1
270
     1
271
     1
  0
XRECORD
  5
14
102
{ACAD_REACTORS
330
E
102
}
330
E
100
AcDbXrecord
280
     1
270
     1
271
     1
  0
CELLSTYLEMAP
  5
4BF
102
{ACAD_REACTORS
330
56
102
}
330
56
100
AcDbCellStyleMap
 90
        3
300
CELLSTYLE
  1
TABLEFORMAT_BEGIN
 90
        5
170
     1
 91
        0
 92
    32768
 62
   257
 93
        1
300
CONTENTFORMAT
  1
CONTENTFORMAT_BEGIN
 90
        0
 91
        0
 92
      512
 93
        0
300

 40
0.0
140
1.0
 94
        5
 62
     0
340
27
144
6.0
309
CONTENTFORMAT_END
171
     1
301
MARGIN
  1
CELLMARGIN_BEGIN
 40
1.5
 40
1.5
 40
1.5
 40
1.5
 40
4.5
 40
4.5
309
CELLMARGIN_END
 94
        6
 95
        1
302
GRIDFORMAT
  1
GRIDFORMAT_BEGIN
 90
        0
 91
        1
 62
     0
 92
       -2
340
0
 93
        0
 40
1.125
309
GRIDFORMAT_END
 95
        2
302
GRIDFORMAT
  1
GRIDFORMAT_BEGIN
 90
        0
 91
        1
 62
     0
 92
       -2
340
0
 93
        0
 40
1.125
309
GRIDFORMAT_END
 95
        4
302
GRIDFORMAT
  1
GRIDFORMAT_BEGIN
 90
        0
 91
        1
 62
     0
 92
       -2
340
0
 93
        0
 40
1.125
309
GRIDFORMAT_END
 95
        8
302
GRIDFORMAT
  1
GRIDFORMAT_BEGIN
 90
        0
 91
        1
 62
     0
 92
       -2
340
0
 93
        0
 40
1.125
309
GRIDFORMAT_END
 95
       16
302
GRIDFORMAT
  1
GRIDFORMAT_BEGIN
 90
        0
 91
        1
 62
     0
 92
       -2
340
0
 93
        0
 40
1.125
309
GRIDFORMAT_END
 95
       32
302
GRIDFORMAT
  1
GRIDFORMAT_BEGIN
 90
        0
 91
        1
 62
     0
 92
       -2
340
0
 93
        0
 40
1.125
309
GRIDFORMAT_END
309
TABLEFORMAT_END
  1
CELLSTYLE_BEGIN
 90
        1
 91
        1
300
_TITLE
309
CELLSTYLE_END
300
CELLSTYLE
  1
TABLEFORMAT_BEGIN
 90
        5
170
     1
 91
        0
 92
        0
 62
   257
 93
        1
300
CONTENTFORMAT
  1
CONTENTFORMAT_BEGIN
 90
        0
 91
        0
 92
      512
 93
        0
300

 40
0.0
140
1.0
 94
        5
 62
     0
340
27
144
4.5
309
CONTENTFORMAT_END
171
     1
301
MARGIN
  1
CELLMARGIN_BEGIN
 40
1.5
 40
1.5
 40
1.5
 40
1.5
 40
4.5
 40
4.5
309
CELLMARGIN_END
 94
        6
 95
        1
302
GRIDFORMAT
  1
GRIDFORMAT_BEGIN
 90
        0
 91
        1
 62
     0
 92
       -2
340
0
 93
        0
 40
1.125
309
GRIDFORMAT_END
 95
        2
302
GRIDFORMAT
  1
GRIDFORMAT_BEGIN
 90
        0
 91
        1
 62
     0
 92
       -2
340
0
 93
        0
 40
1.125
309
GRIDFORMAT_END
 95
        4
302
GRIDFORMAT
  1
GRIDFORMAT_BEGIN
 90
        0
 91
        1
 62
     0
 92
       -2
340
0
 93
        0
 40
1.125
309
GRIDFORMAT_END
 95
        8
302
GRIDFORMAT
  1
GRIDFORMAT_BEGIN
 90
        0
 91
        1
 62
     0
 92
       -2
340
0
 93
        0
 40
1.125
309
GRIDFORMAT_END
 95
       16
302
GRIDFORMAT
  1
GRIDFORMAT_BEGIN
 90
        0
 91
        1
 62
     0
 92
       -2
340
0
 93
        0
 40
1.125
309
GRIDFORMAT_END
 95
       32
302
GRIDFORMAT
  1
GRIDFORMAT_BEGIN
 90
        0
 91
        1
 62
     0
 92
       -2
340
0
 93
        0
 40
1.125
309
GRIDFORMAT_END
309
TABLEFORMAT_END
  1
CELLSTYLE_BEGIN
 90
        2
 91
        1
300
_HEADER
309
CELLSTYLE_END
300
CELLSTYLE
  1
TABLEFORMAT_BEGIN
 90
        5
170
     1
 91
        0
 92
        0
 62
   257
 93
        1
300
CONTENTFORMAT
  1
CONTENTFORMAT_BEGIN
 90
        0
 91
        0
 92
      512
 93
        0
300

 40
0.0
140
1.0
 94
        2
 62
     0
340
27
144
4.5
309
CONTENTFORMAT_END
171
     1
301
MARGIN
  1
CELLMARGIN_BEGIN
 40
1.5
 40
1.5
 40
1.5
 40
1.5
 40
4.5
 40
4.5
309
CELLMARGIN_END
 94
        6
 95
        1
302
GRIDFORMAT
  1
GRIDFORMAT_BEGIN
 90
        0
 91
        1
 62
     0
 92
       -2
340
0
 93
        0
 40
1.125
309
GRIDFORMAT_END
 95
        2
302
GRIDFORMAT
  1
GRIDFORMAT_BEGIN
 90
        0
 91
        1
 62
     0
 92
       -2
340
0
 93
        0
 40
1.125
309
GRIDFORMAT_END
 95
        4
302
GRIDFORMAT
  1
GRIDFORMAT_BEGIN
 90
        0
 91
        1
 62
     0
 92
       -2
340
0
 93
        0
 40
1.125
309
GRIDFORMAT_END
 95
        8
302
GRIDFORMAT
  1
GRIDFORMAT_BEGIN
 90
        0
 91
        1
 62
     0
 92
       -2
340
0
 93
        0
 40
1.125
309
GRIDFORMAT_END
 95
       16
302
GRIDFORMAT
  1
GRIDFORMAT_BEGIN
 90
        0
 91
        1
 62
     0
 92
       -2
340
0
 93
        0
 40
1.125
309
GRIDFORMAT_END
 95
       32
302
GRIDFORMAT
  1
GRIDFORMAT_BEGIN
 90
        0
 91
        1
 62
     0
 92
       -2
340
0
 93
        0
 40
1.125
309
GRIDFORMAT_END
309
TABLEFORMAT_END
  1
CELLSTYLE_BEGIN
 90
        3
 91
        2
300
_DATA
309
CELLSTYLE_END
  0
ENDSEC
  0
EOF
