  0
SECTION
  2
HEADER
  9
$ACADVER
  1
AC1024
  9
$ACADMAINTVER
 70
     6
  9
$DWGCODEPAGE
  3
ANSI_1252
  9
$INSBASE
 10
0.0
 20
0.0
 30
0.0
  9
$EXTMIN
 10
-0.2058707467658678
 20
-0.0476871781447699
 30
-0.0000000000112498
  9
$EXTMAX
 10
4200.002179455641
 20
2970.059442551366
 30
0.0000000000002956
  9
$LIMMIN
 10
0.0
 20
0.0
  9
$LIMMAX
 10
420.0
 20
297.0
  9
$ORTHOMODE
 70
     1
  9
$REGENMODE
 70
     1
  9
$FILLMODE
 70
     1
  9
$QTEXTMODE
 70
     0
  9
$MIRRTEXT
 70
     0
  9
$LTSCALE
 40
25.0
  9
$ATTMODE
 70
     1
  9
$TEXTSIZE
 40
15.0
  9
$TRACEWID
 40
1.0
  9
$TEXTSTYLE
  7
Standard
  9
$CLAYER
  8
0
  9
$CELTYPE
  6
ByLayer
  9
$CECOLOR
 62
   256
  9
$CELTSCALE
 40
1.0
  9
$DISPSILH
 70
     0
  9
$DIMSCALE
 40
10.0
  9
$DIMASZ
 40
2.5
  9
$DIMEXO
 40
1.0
  9
$DIMDLI
 40
10.0
  9
$DIMRND
 40
0.0
  9
$DIMDLE
 40
0.0
  9
$DIMEXE
 40
1.0
  9
$DIMTP
 40
0.0
  9
$DIMTM
 40
0.0
  9
$DIMTXT
 40
2.5
  9
$DIMCEN
 40
0.0
  9
$DIMTSZ
 40
0.0
  9
$DIMTOL
 70
     0
  9
$DIMLIM
 70
     0
  9
$DIMTIH
 70
     0
  9
$DIMTOH
 70
     0
  9
$DIMSE1
 70
     0
  9
$DIMSE2
 70
     0
  9
$DIMTAD
 70
     1
  9
$DIMZIN
 70
     8
  9
$DIMBLK
  1

  9
$DIMASO
 70
     1
  9
$DIMSHO
 70
     1
  9
$DIMPOST
  1

  9
$DIMAPOST
  1

  9
$DIMALT
 70
     0
  9
$DIMALTD
 70
     3
  9
$DIMALTF
 40
0.03937007874016
  9
$DIMLFAC
 40
1.0
  9
$DIMTOFL
 70
     1
  9
$DIMTVP
 40
0.0
  9
$DIMTIX
 70
     0
  9
$DIMSOXD
 70
     0
  9
$DIMSAH
 70
     0
  9
$DIMBLK1
  1

  9
$DIMBLK2
  1

  9
$DIMSTYLE
  2
Wagner
  9
$DIMCLRD
 70
     4
  9
$DIMCLRE
 70
     4
  9
$DIMCLRT
 70
     1
  9
$DIMTFAC
 40
1.0
  9
$DIMGAP
 40
1.0
  9
$DIMJUST
 70
     0
  9
$DIMSD1
 70
     0
  9
$DIMSD2
 70
     0
  9
$DIMTOLJ
 70
     0
  9
$DIMTZIN
 70
     8
  9
$DIMALTZ
 70
     0
  9
$DIMALTTZ
 70
     0
  9
$DIMUPT
 70
     0
  9
$DIMDEC
 70
     8
  9
$DIMTDEC
 70
     8
  9
$DIMALTU
 70
     2
  9
$DIMALTTD
 70
     3
  9
$DIMTXSTY
  7
Standard
  9
$DIMAUNIT
 70
     0
  9
$DIMADEC
 70
     2
  9
$DIMALTRND
 40
0.0
  9
$DIMAZIN
 70
     2
  9
$DIMDSEP
 70
    46
  9
$DIMATFIT
 70
     3
  9
$DIMFRAC
 70
     0
  9
$DIMLDRBLK
  1

  9
$DIMLUNIT
 70
     2
  9
$DIMLWD
 70
    -2
  9
$DIMLWE
 70
    -2
  9
$DIMTMOVE
 70
     0
  9
$DIMFXL
 40
1.0
  9
$DIMFXLON
 70
     0
  9
$DIMJOGANG
 40
0.7853981633974483
  9
$DIMTFILL
 70
     0
  9
$DIMTFILLCLR
 70
     0
  9
$DIMARCSYM
 70
     0
  9
$DIMLTYPE
  6

  9
$DIMLTEX1
  6

  9
$DIMLTEX2
  6

  9
$DIMTXTDIRECTION
 70
     0
  9
$LUNITS
 70
     2
  9
$LUPREC
 70
     4
  9
$SKETCHINC
 40
1.0
  9
$FILLETRAD
 40
0.0
  9
$AUNITS
 70
     0
  9
$AUPREC
 70
     0
  9
$MENU
  1
.
  9
$ELEVATION
 40
0.0
  9
$PELEVATION
 40
0.0
  9
$THICKNESS
 40
0.0
  9
$LIMCHECK
 70
     0
  9
$CHAMFERA
 40
0.0
  9
$CHAMFERB
 40
0.0
  9
$CHAMFERC
 40
0.0
  9
$CHAMFERD
 40
0.0
  9
$SKPOLY
 70
     0
  9
$TDCREATE
 40
2455650.486231134
  9
$TDUCREATE
 40
2455650.402897801
  9
$TDUPDATE
 40
2456926.394731181
  9
$TDUUPDATE
 40
2456926.311397847
  9
$TDINDWG
 40
3.6464796875
  9
$TDUSRTIMER
 40
3.6464796875
  9
$USRTIMER
 70
     1
  9
$ANGBASE
 50
0.0
  9
$ANGDIR
 70
     0
  9
$PDMODE
 70
     0
  9
$PDSIZE
 40
0.0
  9
$PLINEWID
 40
0.0
  9
$SPLFRAME
 70
     0
  9
$SPLINETYPE
 70
     6
  9
$SPLINESEGS
 70
     8
  9
$HANDSEED
  5
43F
  9
$SURFTAB1
 70
     6
  9
$SURFTAB2
 70
     6
  9
$SURFTYPE
 70
     6
  9
$SURFU
 70
     6
  9
$SURFV
 70
     6
  9
$UCSBASE
  2

  9
$UCSNAME
  2

  9
$UCSORG
 10
0.0
 20
0.0
 30
0.0
  9
$UCSXDIR
 10
1.0
 20
0.0
 30
0.0
  9
$UCSYDIR
 10
0.0
 20
1.0
 30
0.0
  9
$UCSORTHOREF
  2

  9
$UCSORTHOVIEW
 70
     0
  9
$UCSORGTOP
 10
0.0
 20
0.0
 30
0.0
  9
$UCSORGBOTTOM
 10
0.0
 20
0.0
 30
0.0
  9
$UCSORGLEFT
 10
0.0
 20
0.0
 30
0.0
  9
$UCSORGRIGHT
 10
0.0
 20
0.0
 30
0.0
  9
$UCSORGFRONT
 10
0.0
 20
0.0
 30
0.0
  9
$UCSORGBACK
 10
0.0
 20
0.0
 30
0.0
  9
$PUCSBASE
  2

  9
$PUCSNAME
  2

  9
$PUCSORG
 10
0.0
 20
0.0
 30
0.0
  9
$PUCSXDIR
 10
1.0
 20
0.0
 30
0.0
  9
$PUCSYDIR
 10
0.0
 20
1.0
 30
0.0
  9
$PUCSORTHOREF
  2

  9
$PUCSORTHOVIEW
 70
     0
  9
$PUCSORGTOP
 10
0.0
 20
0.0
 30
0.0
  9
$PUCSORGBOTTOM
 10
0.0
 20
0.0
 30
0.0
  9
$PUCSORGLEFT
 10
0.0
 20
0.0
 30
0.0
  9
$PUCSORGRIGHT
 10
0.0
 20
0.0
 30
0.0
  9
$PUCSORGFRONT
 10
0.0
 20
0.0
 30
0.0
  9
$PUCSORGBACK
 10
0.0
 20
0.0
 30
0.0
  9
$USERI1
 70
     0
  9
$USERI2
 70
     0
  9
$USERI3
 70
     0
  9
$USERI4
 70
     0
  9
$USERI5
 70
     0
  9
$USERR1
 40
0.0
  9
$USERR2
 40
0.0
  9
$USERR3
 40
0.0
  9
$USERR4
 40
0.0
  9
$USERR5
 40
0.0
  9
$WORLDVIEW
 70
     1
  9
$SHADEDGE
 70
     3
  9
$SHADEDIF
 70
    70
  9
$TILEMODE
 70
     1
  9
$MAXACTVP
 70
    64
  9
$PINSBASE
 10
0.0
 20
0.0
 30
0.0
  9
$PLIMCHECK
 70
     0
  9
$PEXTMIN
 10
0.0
 20
0.0
 30
0.0
  9
$PEXTMAX
 10
0.0
 20
0.0
 30
0.0
  9
$PLIMMIN
 10
0.0
 20
0.0
  9
$PLIMMAX
 10
12.0
 20
9.0
  9
$UNITMODE
 70
     0
  9
$VISRETAIN
 70
     1
  9
$PLINEGEN
 70
     0
  9
$PSLTSCALE
 70
     1
  9
$TREEDEPTH
 70
  3020
  9
$CMLSTYLE
  2
Standard
  9
$CMLJUST
 70
     0
  9
$CMLSCALE
 40
20.0
  9
$PROXYGRAPHICS
 70
     1
  9
$MEASUREMENT
 70
     1
  9
$CELWEIGHT
370
    -1
  9
$ENDCAPS
280
     0
  9
$JOINSTYLE
280
     0
  9
$LWDISPLAY
290
     0
  9
$INSUNITS
 70
     4
  9
$HYPERLINKBASE
  1

  9
$STYLESHEET
  1

  9
$XEDIT
290
     1
  9
$CEPSNTYPE
380
     0
  9
$PSTYLEMODE
290
     1
  9
$FINGERPRINTGUID
  2
{31573DF9-DA2A-45A7-97F4-471763BFA71F}
  9
$VERSIONGUID
  2
{72A11CD2-1062-4CA6-88CF-F9E7F32C8222}
  9
$EXTNAMES
290
     1
  9
$PSVPSCALE
 40
0.0
  9
$OLESTARTUP
290
     0
  9
$SORTENTS
280
   127
  9
$INDEXCTL
280
     0
  9
$HIDETEXT
280
     1
  9
$XCLIPFRAME
280
     0
  9
$HALOGAP
280
     0
  9
$OBSCOLOR
 70
   257
  9
$OBSLTYPE
280
     0
  9
$INTERSECTIONDISPLAY
280
     0
  9
$INTERSECTIONCOLOR
 70
   257
  9
$DIMASSOC
280
     2
  9
$PROJECTNAME
  1

  9
$CAMERADISPLAY
290
     0
  9
$LENSLENGTH
 40
50.0
  9
$CAMERAHEIGHT
 40
0.0
  9
$STEPSPERSEC
 40
2.0
  9
$STEPSIZE
 40
6.0
  9
$3DDWFPREC
 40
2.0
  9
$PSOLWIDTH
 40
5.0
  9
$PSOLHEIGHT
 40
80.0
  9
$LOFTANG1
 40
1.570796326794896
  9
$LOFTANG2
 40
1.570796326794896
  9
$LOFTMAG1
 40
0.0
  9
$LOFTMAG2
 40
0.0
  9
$LOFTPARAM
 70
     7
  9
$LOFTNORMALS
280
     1
  9
$LATITUDE
 40
37.795
  9
$LONGITUDE
 40
-122.394
  9
$NORTHDIRECTION
 40
0.0
  9
$TIMEZONE
 70
 -8000
  9
$LIGHTGLYPHDISPLAY
280
     1
  9
$TILEMODELIGHTSYNCH
280
     1
  9
$CMATERIAL
347
3A
  9
$SOLIDHIST
280
     1
  9
$SHOWHIST
280
     1
  9
$DWFFRAME
280
     2
  9
$DGNFRAME
280
     0
  9
$REALWORLDSCALE
290
     1
  9
$INTERFERECOLOR
 62
     1
  9
$INTERFEREOBJVS
345
43
  9
$INTERFEREVPVS
346
44
  9
$CSHADOW
280
     0
  9
$SHADOWPLANELOCATION
 40
0.0
  0
ENDSEC
  0
SECTION
  2
CLASSES
  0
CLASS
  1
ACDBDICTIONARYWDFLT
  2
AcDbDictionaryWithDefault
  3
ObjectDBX Classes
 90
        0
 91
        1
280
     0
281
     0
  0
CLASS
  1
DICTIONARYVAR
  2
AcDbDictionaryVar
  3
ObjectDBX Classes
 90
        0
 91
        5
280
     0
281
     0
  0
CLASS
  1
TABLESTYLE
  2
AcDbTableStyle
  3
ObjectDBX Classes
 90
     4095
 91
        1
280
     0
281
     0
  0
CLASS
  1
MATERIAL
  2
AcDbMaterial
  3
ObjectDBX Classes
 90
     1153
 91
        3
280
     0
281
     0
  0
CLASS
  1
VISUALSTYLE
  2
AcDbVisualStyle
  3
ObjectDBX Classes
 90
     4095
 91
        3
280
     0
281
     0
  0
CLASS
  1
SCALE
  2
AcDbScale
  3
ObjectDBX Classes
 90
     1153
 91
       33
280
     0
281
     0
  0
CLASS
  1
MLEADERSTYLE
  2
AcDbMLeaderStyle
  3
ACDB_MLEADERSTYLE_CLASS
 90
     4095
 91
        0
280
     0
281
     0
  0
CLASS
  1
CELLSTYLEMAP
  2
AcDbCellStyleMap
  3
ObjectDBX Classes
 90
     1152
 91
        1
280
     0
281
     0
  0
CLASS
  1
SORTENTSTABLE
  2
AcDbSortentsTable
  3
ObjectDBX Classes
 90
        0
 91
        4
280
     0
281
     0
  0
CLASS
  1
ACAD_EVALUATION_GRAPH
  2
AcDbEvalGraph
  3
ObjectDBX Classes
 90
     1153
 91
        0
280
     0
281
     0
  0
CLASS
  1
BLOCKBASEPOINTPARAMETER
  2
AcDbBlockBasepointParameter
  3
ObjectDBX Classes
 90
     1153
 91
        0
280
     0
281
     0
  0
CLASS
  1
ACDB_DYNAMICBLOCKPURGEPREVENTER_VERSION
  2
AcDbDynamicBlockPurgePreventer
  3
ObjectDBX Classes
 90
     1153
 91
        0
280
     0
281
     0
  0
CLASS
  1
ACDB_BLOCKREPRESENTATION_DATA
  2
AcDbBlockRepresentationData
  3
ObjectDBX Classes
 90
     1153
 91
        0
280
     0
281
     0
  0
CLASS
  1
AEC_REFEDIT_STATUS_TRACKER
  2
AecDbRefEditStatusTracker
  3
AecArchBase60|Product Desc: Autodesk Architectural Desktop 2007 |Company: Autodesk,Inc. |WEB Address: www.autodesk.com
 90
      129
 91
        0
280
     0
281
     0
  0
CLASS
  1
NPOCOLLECTION
  2
AcDbImpNonPersistentObjectsCollection
  3
ObjectDBX Classes
 90
     1153
 91
        0
280
     0
281
     0
  0
CLASS
  1
DIMASSOC
  2
AcDbDimAssoc
  3
"AcDbDimAssoc|Product Desc:     AcDim ARX App For Dimension|Company:          Autodesk, Inc.|WEB Address:      www.autodesk.com"
 90
        0
 91
       11
280
     0
281
     0
  0
CLASS
  1
ACAECUSTOBJ
  2
AcAeEditorObj
  3
AcAeEditorObj
 90
     1024
 91
        0
280
     1
281
     0
  0
CLASS
  1
ARC_DIMENSION
  2
AcDbArcDimension
  3
ObjectDBX Classes
 90
     1025
 91
        0
280
     0
281
     1
  0
CLASS
  1
BASEPOINTPARAMETERENTITY
  2
AcDbBlockBasepointParameterEntity
  3
ObjectDBX Classes
 90
     1025
 91
        0
280
     0
281
     1
  0
CLASS
  1
ACAEEEMGROBJ
  2
AcAeEEMgrObj
  3
AcAeEEMgrObj
 90
     1024
 91
        0
280
     0
281
     0
  0
CLASS
  1
SOLID_BACKGROUND
  2
AcDbSolidBackground
  3
SCENEOE
 90
     4095
 91
        0
280
     0
281
     0
  0
CLASS
  1
EXACXREFPANELOBJECT
  2
ExAcXREFPanelObject
  3
EXAC_ESW
 90
     1025
 91
        0
280
     1
281
     0
  0
ENDSEC
  0
SECTION
  2
TABLES
  0
TABLE
  2
VPORT
  5
2C
330
0
100
AcDbSymbolTable
 70
     1
  0
VPORT
  5
2D
330
2C
100
AcDbSymbolTableRecord
100
AcDbViewportTableRecord
  2
*Active
 70
     0
 10
0.0
 20
0.0
 11
1.0
 21
1.0
 12
2272.371339630218
 22
1218.775184801015
 13
0.0
 23
0.0
 14
10.0
 24
10.0
 15
10.0
 25
10.0
 16
0.0
 26
0.0
 36
1.0
 17
0.0
 27
0.0
 37
0.0
 40
4788.349122775396
 41
1.937738246505718
 42
50.0
 43
0.0
 44
0.0
 50
0.0
 51
0.0
 71
     0
 72
  1000
 73
     1
 74
     3
 75
     0
 76
     0
 77
     0
 78
     0
281
     0
 65
     1
110
0.0
120
0.0
130
0.0
111
1.0
121
0.0
131
0.0
112
0.0
122
1.0
132
0.0
 79
     0
146
0.0
348
2E
 60
     2
 61
     5
292
     1
282
     1
141
0.0
142
0.0
 63
   250
421
  3355443
  0
ENDTAB
  0
TABLE
  2
LTYPE
  5
27
330
0
100
AcDbSymbolTable
 70
     3
  0
LTYPE
  5
28
330
27
100
AcDbSymbolTableRecord
100
AcDbLinetypeTableRecord
  2
ByBlock
 70
     0
  3

 72
    65
 73
     0
 40
0.0
  0
LTYPE
  5
29
330
27
100
AcDbSymbolTableRecord
100
AcDbLinetypeTableRecord
  2
ByLayer
 70
     0
  3

 72
    65
 73
     0
 40
0.0
  0
LTYPE
  5
14
330
27
100
AcDbSymbolTableRecord
100
AcDbLinetypeTableRecord
  2
Continuous
 70
     0
  3
Solid line
 72
    65
 73
     0
 40
0.0
  0
LTYPE
  5
106
330
27
100
AcDbSymbolTableRecord
100
AcDbLinetypeTableRecord
  2
STRICHPUNKT
 70
     0
  3
__ . __ . __ . __ . __ . __ . __ . __ . __ . __
 72
    65
 73
     4
 40
1.0
 49
0.5
 74
     0
 49
-0.25
 74
     0
 49
0.0
 74
     0
 49
-0.25
 74
     0
  0
LTYPE
  5
2C2
330
27
100
AcDbSymbolTableRecord
100
AcDbLinetypeTableRecord
  2
AUSGEZOGEN
 70
     0
  3
Ausgezogene Linie
 72
    65
 73
     0
 40
0.0
  0
ENDTAB
  0
TABLE
  2
LAYER
  5
1F
102
{ACAD_XDICTIONARY
360
20
102
}
330
0
100
AcDbSymbolTable
 70
     9
  0
LAYER
  5
6
102
{ACAD_XDICTIONARY
360
7
102
}
330
1F
100
AcDbSymbolTableRecord
100
AcDbLayerTableRecord
  2
0
 70
     0
 62
     7
  6
Continuous
370
    -3
390
9
347
C
  0
LAYER
  5
126
102
{ACAD_XDICTIONARY
360
127
102
}
330
1F
100
AcDbSymbolTableRecord
100
AcDbLayerTableRecord
  2
09-01
 70
     0
 62
     7
  6
Continuous
370
    -3
390
9
347
C
  0
LAYER
  5
76
330
1F
100
AcDbSymbolTableRecord
100
AcDbLayerTableRecord
  2
DEFPOINTS
 70
     0
 62
     7
  6
Continuous
290
     0
370
    -3
390
9
347
C
  0
LAYER
  5
263
102
{ACAD_XDICTIONARY
360
264
102
}
330
1F
100
AcDbSymbolTableRecord
100
AcDbLayerTableRecord
  2
10-98
 70
     0
 62
     4
  6
Continuous
370
    -3
390
9
347
C
  0
LAYER
  5
103
102
{ACAD_XDICTIONARY
360
104
102
}
330
1F
100
AcDbSymbolTableRecord
100
AcDbLayerTableRecord
  2
05-01
 70
     0
 62
     1
  6
STRICHPUNKT
370
    -3
390
9
347
C
  0
LAYER
  5
282
102
{ACAD_XDICTIONARY
360
283
102
}
330
1F
100
AcDbSymbolTableRecord
100
AcDbLayerTableRecord
  2
01-99
 70
     0
 62
     2
  6
Continuous
370
    -3
390
9
347
C
  0
LAYER
  5
2BF
102
{ACAD_XDICTIONARY
360
2C0
102
}
330
1F
100
AcDbSymbolTableRecord
100
AcDbLayerTableRecord
  2
06-99
 70
     0
 62
     1
  6
AUSGEZOGEN
370
    -3
390
9
347
C
  0
LAYER
  5
2A9
102
{ACAD_XDICTIONARY
360
2AA
102
}
330
1F
100
AcDbSymbolTableRecord
100
AcDbLayerTableRecord
  2
08-99
 70
     0
 62
     7
  6
Continuous
370
    -3
390
9
347
C
  0
LAYER
  5
BC
102
{ACAD_XDICTIONARY
360
BD
102
}
330
1F
100
AcDbSymbolTableRecord
100
AcDbLayerTableRecord
  2
02-01
 70
     0
 62
     1
  6
Continuous
370
    -3
390
9
347
C
  0
ENDTAB
  0
TABLE
  2
STYLE
  5
24
330
0
100
AcDbSymbolTable
 70
     3
  0
STYLE
  5
25
330
24
100
AcDbSymbolTableRecord
100
AcDbTextStyleTableRecord
  2
Standard
 70
     0
 40
0.0
 41
1.0
 50
0.0
 71
     0
 42
15.0
  3
txt.shx
  4

  0
STYLE
  5
2AC
330
24
100
AcDbSymbolTableRecord
100
AcDbTextStyleTableRecord
  2
ROMANS8
 70
     0
 40
0.0
 41
1.0
 50
0.0
 71
     0
 42
2.5
  3
ROMANS8
  4

  0
STYLE
  5
404
330
24
100
AcDbSymbolTableRecord
100
AcDbTextStyleTableRecord
  2
ROMAND8
 70
     0
 40
0.0
 41
1.0
 50
0.0
 71
     0
 42
3.5
  3
ROMAND8
  4

  0
ENDTAB
  0
TABLE
  2
VIEW
  5
2A
330
0
100
AcDbSymbolTable
 70
     0
  0
ENDTAB
  0
TABLE
  2
UCS
  5
2B
330
0
100
AcDbSymbolTable
 70
     0
  0
ENDTAB
  0
TABLE
  2
APPID
  5
30
330
0
100
AcDbSymbolTable
 70
     6
  0
APPID
  5
13
330
30
100
AcDbSymbolTableRecord
100
AcDbRegAppTableRecord
  2
ACAD
 70
     0
  0
APPID
  5
1A
330
30
100
AcDbSymbolTableRecord
100
AcDbRegAppTableRecord
  2
ACAD_PSEXT
 70
     0
  0
APPID
  5
34
330
30
100
AcDbSymbolTableRecord
100
AcDbRegAppTableRecord
  2
ACAD_DSTYLE_DIMJAG
 70
     0
  0
APPID
  5
35
330
30
100
AcDbSymbolTableRecord
100
AcDbRegAppTableRecord
  2
ACAD_DSTYLE_DIMTALN
 70
     0
  0
APPID
  5
33
330
30
100
AcDbSymbolTableRecord
100
AcDbRegAppTableRecord
  2
ACAD_DSTYLE_DIMJOGGED_JOGANGLE_SYMBOL
 70
     0
  0
APPID
  5
10B
330
30
100
AcDbSymbolTableRecord
100
AcDbRegAppTableRecord
  2
AcDbBlockRepETag
 70
     0
  0
ENDTAB
  0
TABLE
  2
DIMSTYLE
  5
31
330
0
100
AcDbSymbolTable
 70
     2
100
AcDbDimStyleTable
 71
     1
340
32
  0
DIMSTYLE
105
32
102
{ACAD_REACTORS
330
1F8
330
1E7
102
}
330
31
100
AcDbSymbolTableRecord
100
AcDbDimStyleTableRecord
  2
Wagner
 70
     0
 41
2.5
 42
1.0
 43
10.0
 44
1.0
 73
     0
 74
     0
 77
     1
 78
     8
 79
     2
140
2.5
141
0.0
143
0.03937007874016
147
1.0
171
     3
172
     1
176
     4
177
     4
178
     1
179
     2
271
     8
272
     8
274
     3
283
     0
284
     8
340
25
1001
ACAD_DSTYLE_DIMJOGGED_JOGANGLE_SYMBOL
1070
   384
1040
0.7853981633974483
1001
ACAD_DSTYLE_DIMJAG
1070
   388
1040
1.5
1001
ACAD_DSTYLE_DIMTALN
1070
   392
1070
     0
  0
DIMSTYLE
105
7A
102
{ACAD_REACTORS
330
23A
330
22B
330
143
330
131
330
ED
330
DE
330
CF
330
C0
330
AA
330
7B
330
6C
102
}
330
31
100
AcDbSymbolTableRecord
100
AcDbDimStyleTableRecord
  2
Wagner$0
 70
     0
 41
2.5
 42
1.0
 43
10.0
 44
1.0
 73
     0
 74
     0
 77
     1
 78
     8
 79
     2
140
2.5
141
0.0
143
0.03937007874016
147
1.0
171
     3
172
     1
174
     1
176
     4
177
     4
178
     1
179
     2
271
     8
272
     8
274
     3
279
     2
283
     0
284
     8
340
25
1001
ACAD_DSTYLE_DIMJOGGED_JOGANGLE_SYMBOL
1070
   384
1040
0.7853981633974483
1001
ACAD_DSTYLE_DIMJAG
1070
   388
1040
1.5
1001
ACAD_DSTYLE_DIMTALN
1070
   392
1070
     0
  0
ENDTAB
  0
TABLE
  2
BLOCK_RECORD
  5
1
330
0
100
AcDbSymbolTable
 70
    14
  0
BLOCK_RECORD
  5
2
102
{ACAD_XDICTIONARY
360
3
102
}
330
1
100
AcDbSymbolTableRecord
100
AcDbBlockTableRecord
  2
*Model_Space
340
16
 70
     0
280
     1
281
     0
  0
BLOCK_RECORD
  5
1B
330
1
100
AcDbSymbolTableRecord
100
AcDbBlockTableRecord
  2
*Paper_Space
340
1E
 70
     0
280
     1
281
     0
  0
BLOCK_RECORD
  5
27D
102
{ACAD_XDICTIONARY
360
27E
102
}
330
1
100
AcDbSymbolTableRecord
100
AcDbBlockTableRecord
  2
DIN A3
340
0
102
{BLKREFS
331
27C
102
}
 70
     4
280
     1
281
     0
  0
BLOCK_RECORD
  5
23D
330
1
100
AcDbSymbolTableRecord
100
AcDbBlockTableRecord
  2
*D1
340
0
 70
     0
280
     1
281
     0
  0
BLOCK_RECORD
  5
22E
330
1
100
AcDbSymbolTableRecord
100
AcDbBlockTableRecord
  2
*D2
340
0
 70
     0
280
     1
281
     0
  0
BLOCK_RECORD
  5
1FB
330
1
100
AcDbSymbolTableRecord
100
AcDbBlockTableRecord
  2
*D3
340
0
 70
     0
280
     1
281
     0
  0
BLOCK_RECORD
  5
1EA
330
1
100
AcDbSymbolTableRecord
100
AcDbBlockTableRecord
  2
*D4
340
0
 70
     0
280
     1
281
     0
  0
BLOCK_RECORD
  5
146
330
1
100
AcDbSymbolTableRecord
100
AcDbBlockTableRecord
  2
*D5
340
0
 70
     0
280
     1
281
     0
  0
BLOCK_RECORD
  5
134
330
1
100
AcDbSymbolTableRecord
100
AcDbBlockTableRecord
  2
*D6
340
0
 70
     0
280
     1
281
     0
  0
BLOCK_RECORD
  5
F0
330
1
100
AcDbSymbolTableRecord
100
AcDbBlockTableRecord
  2
*D7
340
0
 70
     0
280
     1
281
     0
  0
BLOCK_RECORD
  5
E1
330
1
100
AcDbSymbolTableRecord
100
AcDbBlockTableRecord
  2
*D8
340
0
 70
     0
280
     1
281
     0
  0
BLOCK_RECORD
  5
D2
330
1
100
AcDbSymbolTableRecord
100
AcDbBlockTableRecord
  2
*D9
340
0
 70
     0
280
     1
281
     0
  0
BLOCK_RECORD
  5
C3
330
1
100
AcDbSymbolTableRecord
100
AcDbBlockTableRecord
  2
*D10
340
0
 70
     0
280
     1
281
     0
  0
BLOCK_RECORD
  5
AD
330
1
100
AcDbSymbolTableRecord
100
AcDbBlockTableRecord
  2
*D11
340
0
 70
     0
280
     1
281
     0
  0
BLOCK_RECORD
  5
7C
330
1
100
AcDbSymbolTableRecord
100
AcDbBlockTableRecord
  2
*D12
340
0
 70
     0
280
     1
281
     0
  0
BLOCK_RECORD
  5
6D
330
1
100
AcDbSymbolTableRecord
100
AcDbBlockTableRecord
  2
*D13
340
0
 70
     0
280
     1
281
     0
  0
ENDTAB
  0
ENDSEC
  0
SECTION
  2
BLOCKS
  0
BLOCK
  5
5
330
2
100
AcDbEntity
  8
0
100
AcDbBlockBegin
  2
*Model_Space
 70
     0
 10
0.0
 20
0.0
 30
0.0
  3
*Model_Space
  1

  0
ENDBLK
  5
15
330
2
100
AcDbEntity
  8
0
100
AcDbBlockEnd
  0
BLOCK
  5
1C
330
1B
100
AcDbEntity
 67
     1
  8
0
100
AcDbBlockBegin
  2
*Paper_Space
 70
     0
 10
0.0
 20
0.0
 30
0.0
  3
*Paper_Space
  1

  0
ENDBLK
  5
1D
330
1B
100
AcDbEntity
 67
     1
  8
0
100
AcDbBlockEnd
  0
BLOCK
  5
280
330
27D
100
AcDbEntity
  8
0
100
AcDbBlockBegin
  2
DIN A3
 70
     2
 10
0.0
 20
0.0
 30
0.0
  3
DIN A3
  1

  0
LINE
  5
281
330
27D
100
AcDbEntity
  8
01-99
100
AcDbLine
 10
412.9999997697348
 20
290.0000007613509
 30
0.0
 11
6.999999769775513
 21
290.0000007613508
 31
0.0
  0
LINE
  5
285
330
27D
100
AcDbEntity
  8
01-99
100
AcDbLine
 10
6.999999769775286
 20
7.000000761378942
 30
0.0
 11
6.999999769775513
 21
290.0000007613508
 31
0.0
  0
LINE
  5
286
330
27D
100
AcDbEntity
  8
02-01
100
AcDbLine
 10
419.9999997697341
 20
297.0000007613501
 30
0.0
 11
-0.0000002302240318
 21
297.0000007613501
 31
0.0
  0
LINE
  5
287
330
27D
100
AcDbEntity
  8
02-01
100
AcDbLine
 10
-0.0000002302240318
 20
297.0000007613501
 30
0.0
 11
-0.0000002302240318
 21
0.0000007613796242
 31
0.0
  0
LINE
  5
288
330
27D
100
AcDbEntity
  8
02-01
100
AcDbLine
 10
-0.0000002302240318
 20
0.0000007613796242
 30
0.0
 11
419.9999997697341
 21
0.0000007613796242
 31
0.0
  0
LINE
  5
289
330
27D
100
AcDbEntity
  8
02-01
100
AcDbLine
 10
419.9999997697341
 20
0.0000007613796242
 30
0.0
 11
419.9999997697341
 21
297.0000007613501
 31
0.0
  0
LINE
  5
28A
330
27D
100
AcDbEntity
  8
01-99
100
AcDbLine
 10
412.9999997697348
 20
290.0000007613509
 30
0.0
 11
412.9999997697348
 21
7.000000761379055
 31
0.0
  0
LINE
  5
28B
330
27D
100
AcDbEntity
  8
01-99
100
AcDbLine
 10
412.9999997697348
 20
7.000000761379055
 30
0.0
 11
6.999999769775286
 21
7.000000761378942
 31
0.0
  0
LINE
  5
28C
330
27D
100
AcDbEntity
  8
01-99
100
AcDbLine
 10
412.9999997697348
 20
53.00000076137905
 30
0.0
 11
228.999999769733
 21
53.00000076137894
 31
0.0
  0
LINE
  5
28D
330
27D
100
AcDbEntity
  8
01-99
100
AcDbLine
 10
228.999999769733
 20
53.00000076137894
 30
0.0
 11
228.999999769733
 21
7.000000761378942
 31
0.0
  0
LINE
  5
28E
330
27D
100
AcDbEntity
  8
01-99
100
AcDbLine
 10
278.9999997697348
 20
12.11111187237895
 30
0.0
 11
228.9999997697348
 21
12.11111187237895
 31
0.0
  0
LINE
  5
28F
330
27D
100
AcDbEntity
  8
01-99
100
AcDbLine
 10
278.9999997697348
 20
17.22222298337897
 30
0.0
 11
228.9999997697348
 21
17.22222298337897
 31
0.0
  0
LINE
  5
290
330
27D
100
AcDbEntity
  8
01-99
100
AcDbLine
 10
278.9999997697348
 20
22.33333409437898
 30
0.0
 11
228.9999997697348
 21
22.33333409437893
 31
0.0
  0
LINE
  5
291
330
27D
100
AcDbEntity
  8
01-99
100
AcDbLine
 10
323.9999997697348
 20
27.444445205379
 30
0.0
 11
228.9999997697348
 21
27.44444520537894
 31
0.0
  0
LINE
  5
292
330
27D
100
AcDbEntity
  8
01-99
100
AcDbLine
 10
323.9999997697348
 20
32.55555631637901
 30
0.0
 11
228.9999997697348
 21
32.55555631637895
 31
0.0
  0
LINE
  5
293
330
27D
100
AcDbEntity
  8
01-99
100
AcDbLine
 10
253.9999997697348
 20
7.000000761378942
 30
0.0
 11
253.9999997697348
 21
12.11111187237895
 31
0.0
  0
LINE
  5
294
330
27D
100
AcDbEntity
  8
01-99
100
AcDbLine
 10
236.9999997697348
 20
12.11111187237895
 30
0.0
 11
236.9999997697348
 21
37.66666742804563
 31
0.0
  0
LINE
  5
295
330
27D
100
AcDbEntity
  8
01-99
100
AcDbLine
 10
278.9999997697348
 20
7.000000761378942
 30
0.0
 11
278.9999997697348
 21
53.00000076137894
 31
0.0
  0
LINE
  5
296
330
27D
100
AcDbEntity
  8
01-99
100
AcDbLine
 10
323.9999997697348
 20
7.000000761378942
 30
0.0
 11
323.9999997697348
 21
53.00000076137894
 31
0.0
  0
LINE
  5
297
330
27D
100
AcDbEntity
  8
01-99
100
AcDbLine
 10
353.4999997697348
 20
7.000000761378942
 30
0.0
 11
353.4999997697348
 21
17.22222298337903
 31
0.0
  0
LINE
  5
298
330
27D
100
AcDbEntity
  8
01-99
100
AcDbLine
 10
385.9999997697348
 20
7.000000761378942
 30
0.0
 11
385.9999997697348
 21
17.22222298337908
 31
0.0
  0
LINE
  5
299
330
27D
100
AcDbEntity
  8
01-99
100
AcDbLine
 10
357.4999997697348
 20
37.66666742804569
 30
0.0
 11
357.4999997697348
 21
53.00000076137905
 31
0.0
  0
LINE
  5
29A
330
27D
100
AcDbEntity
  8
01-99
100
AcDbLine
 10
390.9999997697348
 20
37.66666742804569
 30
0.0
 11
390.9999997697348
 21
53.00000076137905
 31
0.0
  0
LINE
  5
29B
330
27D
100
AcDbEntity
  8
01-99
100
AcDbLine
 10
286.9999997697348
 20
22.33333409471232
 30
0.0
 11
286.9999997697348
 21
37.66666742804569
 31
0.0
  0
LINE
  5
29C
330
27D
100
AcDbEntity
  8
01-99
100
AcDbLine
 10
269.0031881091643
 20
12.11111187237895
 30
0.0
 11
269.0031881091643
 21
37.66666742804563
 31
0.0
  0
LINE
  5
29D
330
27D
100
AcDbEntity
  8
01-99
100
AcDbLine
 10
257.0031881091643
 20
12.11111187237895
 30
0.0
 11
257.0031881091643
 21
37.66666742804563
 31
0.0
  0
LINE
  5
29E
330
27D
100
AcDbEntity
  8
01-99
100
AcDbLine
 10
323.9999997697348
 20
22.33333409471232
 30
0.0
 11
278.9999997697348
 21
22.33333409471232
 31
0.0
  0
LINE
  5
29F
330
27D
100
AcDbEntity
  8
01-99
100
AcDbLine
 10
323.9999997697348
 20
37.66666742804569
 30
0.0
 11
228.9999997697348
 21
37.66666742804557
 31
0.0
  0
LINE
  5
2A0
330
27D
100
AcDbEntity
  8
01-99
100
AcDbLine
 10
300.9999997697348
 20
22.33333409471232
 30
0.0
 11
300.9999997697348
 21
53.000000761379
 31
0.0
  0
LINE
  5
2A1
330
27D
100
AcDbEntity
  8
01-99
100
AcDbLine
 10
278.9999997697348
 20
37.66666742804563
 30
0.0
 11
286.9999997697348
 21
32.55555632804567
 31
0.0
  0
LINE
  5
2A2
330
27D
100
AcDbEntity
  8
01-99
100
AcDbLine
 10
278.9999997697348
 20
32.55555632804567
 30
0.0
 11
286.9999997697348
 21
37.66666742804569
 31
0.0
  0
LINE
  5
2A3
330
27D
100
AcDbEntity
  8
01-99
100
AcDbLine
 10
412.9999997697348
 20
45.33333409471231
 30
0.0
 11
323.9999997697349
 21
45.33333409471225
 31
0.0
  0
LINE
  5
2A4
330
27D
100
AcDbEntity
  8
01-99
100
AcDbLine
 10
323.9999997697348
 20
17.22222298337897
 30
0.0
 11
412.9999997697348
 21
17.22222298337908
 31
0.0
  0
LINE
  5
2A5
330
27D
100
AcDbEntity
  8
01-99
100
AcDbLine
 10
323.9999997697348
 20
37.66666742804569
 30
0.0
 11
412.9999997697348
 21
37.66666742804574
 31
0.0
  0
LINE
  5
2A6
330
27D
100
AcDbEntity
  8
01-99
100
AcDbLine
 10
300.9999997697348
 20
42.77777853937897
 30
0.0
 11
278.9999997697348
 21
42.77777853937897
 31
0.0
  0
LINE
  5
2A7
330
27D
100
AcDbEntity
  8
01-99
100
AcDbLine
 10
300.9999997697348
 20
47.88888965037898
 30
0.0
 11
278.9999997697348
 21
47.88888965037893
 31
0.0
  0
TEXT
  5
2A8
330
27D
100
AcDbEntity
  8
08-99
100
AcDbText
 10
325.4997009380411
 20
33.6698744692369
 30
0.0
 40
2.5
  1
Benennung/Teil:
 51
15.0
  7
ROMANS8
100
AcDbText
  0
TEXT
  5
2AD
330
27D
100
AcDbEntity
  8
08-99
100
AcDbText
 10
387.5028272173022
 20
13.01760345560962
 30
0.0
 40
2.7
  1
Ident-Nr.
 51
15.0
  7
ROMANS8
100
AcDbText
  0
TEXT
  5
2AE
330
27D
100
AcDbEntity
  8
08-99
100
AcDbText
 10
302.5000215029029
 20
34.05557772316138
 30
0.0
 40
2.5
  1
Name:
 51
15.0
  7
ROMANS8
100
AcDbText
  0
TEXT
  5
2AF
330
27D
100
AcDbEntity
  8
08-99
100
AcDbText
 10
288.5077689122797
 20
34.04841872238342
 30
0.0
 40
2.5
  1
Datum:
 50
0.102528160689452
 41
0.8933771909280748
 51
15.0
  7
ROMANS8
 72
     5
 11
299.6749659193617
 21
34.0684019288434
 31
0.0
100
AcDbText
  0
TEXT
  5
2B0
330
27D
100
AcDbEntity
  8
08-99
100
AcDbText
 10
238.5000078514702
 20
34.05597786035884
 30
0.0
 40
1.6
  1
Änderung:
 51
15.0
  7
ROMANS8
100
AcDbText
  0
TEXT
  5
2B1
330
27D
100
AcDbEntity
  8
08-99
100
AcDbText
 10
255.4999378454877
 20
10.11112006054139
 30
0.0
 40
1.0
  1
ERSETZT.DURCH:
 51
15.0
  7
ROMANS8
100
AcDbText
  0
TEXT
  5
2B2
330
27D
100
AcDbEntity
  8
08-99
100
AcDbText
 10
230.4993605854065
 20
10.11085496431519
 30
0.0
 40
1.0
  1
ERSETZT.FÜR:
 51
15.0
  7
ROMANS8
100
AcDbText
  0
TEXT
  5
2B3
330
27D
100
AcDbEntity
  8
08-99
100
AcDbText
 10
354.990906611889
 20
13.61295762544273
 30
0.0
 40
2.112
  1
AUFTRAGS.NR.:
 51
15.0
  7
ROMANS8
100
AcDbText
  0
TEXT
  5
2B4
330
27D
100
AcDbEntity
  8
08-99
100
AcDbText
 10
325.5034639747472
 20
13.61092941740929
 30
0.0
 40
2.112
  1
Sonder-Nr:
 51
15.0
  7
ROMANS8
100
AcDbText
  0
TEXT
  5
2B5
330
27D
100
AcDbEntity
  8
08-99
100
AcDbText
 10
308.6963072648131
 20
50.92370926842125
 30
0.0
 40
1.349999999999999
  1
Format
 51
15.0
  7
ROMANS8
100
AcDbText
  0
TEXT
  5
2B6
330
27D
100
AcDbEntity
  8
08-99
100
AcDbText
 10
307.3043795165026
 20
45.64161955447966
 30
0.0
 40
1.822499999999999
  1
Normen
 51
15.0
  7
ROMANS8
100
AcDbText
  0
TEXT
  5
2B7
330
27D
100
AcDbEntity
  8
08-99
100
AcDbText
 10
230.5000293736364
 20
34.05556859693707
 30
0.0
 40
1.6
  1
Zust.
 51
15.0
  7
ROMANS8
100
AcDbText
  0
TEXT
  5
2B8
330
27D
100
AcDbEntity
  8
08-99
100
AcDbText
 10
258.503180470904
 20
34.0555600128755
 30
0.0
 40
1.6
  1
Datum:
 51
15.0
  7
ROMANS8
100
AcDbText
  0
TEXT
  5
2B9
330
27D
100
AcDbEntity
  8
08-99
100
AcDbText
 10
270.5032133866668
 20
34.05556481932439
 30
0.0
 40
1.6
  1
Name:
 51
15.0
  7
ROMANS8
100
AcDbText
  0
TEXT
  5
2BA
330
27D
100
AcDbEntity
  8
08-99
100
AcDbText
 10
280.154554215326
 20
29.0381403293278
 30
0.0
 40
1.6
  1
Erst.
 51
15.0
  7
ROMANS8
100
AcDbText
  0
TEXT
  5
2BB
330
27D
100
AcDbEntity
  8
08-99
100
AcDbText
 10
279.5171801320455
 20
24.19745182079998
 30
0.0
 40
1.6
  1
Bearb.
 51
15.0
  7
ROMANS8
100
AcDbText
  0
TEXT
  5
2BC
330
27D
100
AcDbEntity
  8
08-99
100
AcDbText
 10
358.4308046815029
 20
42.61949825408587
 30
0.0
 40
2.0
  1
Zuschnittsbreite:
 51
15.0
  7
ROMANS8
100
AcDbText
  0
TEXT
  5
2BD
330
27D
100
AcDbEntity
  8
08-99
100
AcDbText
 10
324.984994543767
 20
42.73762438949257
 30
0.0
 40
2.0
  1
Zuschnittslänge:
 51
15.0
  7
ROMANS8
100
AcDbText
  0
LINE
  5
2BE
330
27D
100
AcDbEntity
  8
06-99
100
AcDbLine
 10
302.7675395817348
 20
19.87656561071236
 30
0.0
 11
303.0090469137349
 21
20.08724790671238
 31
0.0
  0
LINE
  5
2C3
330
27D
100
AcDbEntity
  8
06-99
100
AcDbLine
 10
303.0090469137349
 20
20.08724790671238
 30
0.0
 11
302.9228515737349
 21
20.22625816271227
 31
0.0
  0
LINE
  5
2C4
330
27D
100
AcDbEntity
  8
06-99
100
AcDbLine
 10
302.9228515737349
 20
20.22625816271227
 30
0.0
 11
302.8242642057348
 21
20.35180719071241
 31
0.0
  0
LINE
  5
2C5
330
27D
100
AcDbEntity
  8
06-99
100
AcDbLine
 10
302.8242642057348
 20
20.35180719071241
 30
0.0
 11
302.713626953735
 21
20.4639413227124
 31
0.0
  0
LINE
  5
2C6
330
27D
100
AcDbEntity
  8
06-99
100
AcDbLine
 10
302.713626953735
 20
20.4639413227124
 30
0.0
 11
302.5912962177348
 21
20.56271401871226
 31
0.0
  0
LINE
  5
2C7
330
27D
100
AcDbEntity
  8
06-99
100
AcDbLine
 10
302.5912962177348
 20
20.56271401871226
 30
0.0
 11
302.4576141417349
 21
20.64816448271233
 31
0.0
  0
LINE
  5
2C8
330
27D
100
AcDbEntity
  8
06-99
100
AcDbLine
 10
302.4576141417349
 20
20.64816448271233
 30
0.0
 11
302.3129264337349
 21
20.7203390467123
 31
0.0
  0
LINE
  5
2C9
330
27D
100
AcDbEntity
  8
06-99
100
AcDbLine
 10
302.3129264337349
 20
20.7203390467123
 30
0.0
 11
302.1575859297349
 21
20.77929117071233
 31
0.0
  0
LINE
  5
2CA
330
27D
100
AcDbEntity
  8
06-99
100
AcDbLine
 10
302.1575859297349
 20
20.77929117071233
 30
0.0
 11
301.991934773735
 21
20.82506005871232
 31
0.0
  0
LINE
  5
2CB
330
27D
100
AcDbEntity
  8
06-99
100
AcDbLine
 10
301.991934773735
 20
20.82506005871232
 30
0.0
 11
301.8163222377349
 21
20.85769204271242
 31
0.0
  0
LINE
  5
2CC
330
27D
100
AcDbEntity
  8
06-99
100
AcDbLine
 10
301.8163222377349
 20
20.85769204271242
 30
0.0
 11
301.631097593735
 21
20.87724058271238
 31
0.0
  0
LINE
  5
2CD
330
27D
100
AcDbEntity
  8
06-99
100
AcDbLine
 10
301.631097593735
 20
20.87724058271238
 30
0.0
 11
301.436606549735
 21
20.88374488271234
 31
0.0
  0
LINE
  5
2CE
330
27D
100
AcDbEntity
  8
06-99
100
AcDbLine
 10
301.436606549735
 20
20.88374488271234
 30
0.0
 11
301.2756812577348
 21
20.87768251871233
 31
0.0
  0
LINE
  5
2CF
330
27D
100
AcDbEntity
  8
06-99
100
AcDbLine
 10
301.2756812577348
 20
20.87768251871233
 30
0.0
 11
301.1199415857348
 21
20.85975916271229
 31
0.0
  0
LINE
  5
2D0
330
27D
100
AcDbEntity
  8
06-99
100
AcDbLine
 10
301.1199415857348
 20
20.85975916271229
 30
0.0
 11
300.969718985735
 21
20.83036329071246
 31
0.0
  0
LINE
  5
2D1
330
27D
100
AcDbEntity
  8
06-99
100
AcDbLine
 10
300.969718985735
 20
20.83036329071246
 30
0.0
 11
300.825348473735
 21
20.78989050671231
 31
0.0
  0
LINE
  5
2D2
330
27D
100
AcDbEntity
  8
06-99
100
AcDbLine
 10
300.825348473735
 20
20.78989050671231
 30
0.0
 11
300.6871615017349
 21
20.73873641471243
 31
0.0
  0
LINE
  5
2D3
330
27D
100
AcDbEntity
  8
06-99
100
AcDbLine
 10
300.6871615017349
 20
20.73873641471243
 30
0.0
 11
300.5554823937349
 21
20.67729305471232
 31
0.0
  0
LINE
  5
2D4
330
27D
100
AcDbEntity
  8
06-99
100
AcDbLine
 10
300.5554823937349
 20
20.67729305471232
 30
0.0
 11
300.4306532937349
 21
20.60595246671232
 31
0.0
  0
LINE
  5
2D5
330
27D
100
AcDbEntity
  8
06-99
100
AcDbLine
 10
300.4306532937349
 20
20.60595246671232
 30
0.0
 11
300.3129985257349
 21
20.52510669071228
 31
0.0
  0
LINE
  5
2D6
330
27D
100
AcDbEntity
  8
06-99
100
AcDbLine
 10
300.3129985257349
 20
20.52510669071228
 30
0.0
 11
300.2028495417349
 21
20.43514776671236
 31
0.0
  0
LINE
  5
2D7
330
27D
100
AcDbEntity
  8
06-99
100
AcDbLine
 10
300.2028495417349
 20
20.43514776671236
 30
0.0
 11
300.1005449217349
 21
20.33647486271235
 31
0.0
  0
LINE
  5
2D8
330
27D
100
AcDbEntity
  8
06-99
100
AcDbLine
 10
300.1005449217349
 20
20.33647486271235
 30
0.0
 11
300.006405425735
 21
20.22947289071237
 31
0.0
  0
LINE
  5
2D9
330
27D
100
AcDbEntity
  8
06-99
100
AcDbLine
 10
300.006405425735
 20
20.22947289071237
 30
0.0
 11
299.920769633735
 21
20.11454458271237
 31
0.0
  0
LINE
  5
2DA
330
27D
100
AcDbEntity
  8
06-99
100
AcDbLine
 10
299.920769633735
 20
20.11454458271237
 30
0.0
 11
299.8439689977349
 21
19.99207485071235
 31
0.0
  0
LINE
  5
2DB
330
27D
100
AcDbEntity
  8
06-99
100
AcDbLine
 10
299.8439689977349
 20
19.99207485071235
 30
0.0
 11
299.7763314057349
 21
19.86245929871239
 31
0.0
  0
LINE
  5
2DC
330
27D
100
AcDbEntity
  8
06-99
100
AcDbLine
 10
299.7763314057349
 20
19.86245929871239
 30
0.0
 11
299.7181918737349
 21
19.72608996671232
 31
0.0
  0
LINE
  5
2DD
330
27D
100
AcDbEntity
  8
06-99
100
AcDbLine
 10
299.7181918737349
 20
19.72608996671232
 30
0.0
 11
299.6698782897349
 21
19.58336602271231
 31
0.0
  0
LINE
  5
2DE
330
27D
100
AcDbEntity
  8
06-99
100
AcDbLine
 10
299.6698782897349
 20
19.58336602271231
 30
0.0
 11
299.631722105735
 21
19.43467237871232
 31
0.0
  0
LINE
  5
2DF
330
27D
100
AcDbEntity
  8
06-99
100
AcDbLine
 10
299.631722105735
 20
19.43467237871232
 30
0.0
 11
299.6040619017348
 21
19.28040820271229
 31
0.0
  0
LINE
  5
2E0
330
27D
100
AcDbEntity
  8
06-99
100
AcDbLine
 10
299.6040619017348
 20
19.28040820271229
 30
0.0
 11
299.5872184377349
 21
19.12096197071235
 31
0.0
  0
LINE
  5
2E1
330
27D
100
AcDbEntity
  8
06-99
100
AcDbLine
 10
299.5872184377349
 20
19.12096197071235
 30
0.0
 11
299.5815338577349
 21
18.95672928671234
 31
0.0
  0
LINE
  5
2E2
330
27D
100
AcDbEntity
  8
06-99
100
AcDbLine
 10
299.5815338577349
 20
18.95672928671234
 30
0.0
 11
299.5871471577349
 21
18.7876246147124
 31
0.0
  0
LINE
  5
2E3
330
27D
100
AcDbEntity
  8
06-99
100
AcDbLine
 10
299.5871471577349
 20
18.7876246147124
 30
0.0
 11
299.603798165735
 21
18.62429005871234
 31
0.0
  0
LINE
  5
2E4
330
27D
100
AcDbEntity
  8
06-99
100
AcDbLine
 10
299.603798165735
 20
18.62429005871234
 30
0.0
 11
299.6311875057347
 21
18.46704281471233
 31
0.0
  0
LINE
  5
2E5
330
27D
100
AcDbEntity
  8
06-99
100
AcDbLine
 10
299.6311875057347
 20
18.46704281471233
 30
0.0
 11
299.6690158017348
 21
18.31619651471226
 31
0.0
  0
LINE
  5
2E6
330
27D
100
AcDbEntity
  8
06-99
100
AcDbLine
 10
299.6690158017348
 20
18.31619651471226
 30
0.0
 11
299.7169872417348
 21
18.17206479071234
 31
0.0
  0
LINE
  5
2E7
330
27D
100
AcDbEntity
  8
06-99
100
AcDbLine
 10
299.7169872417348
 20
18.17206479071234
 30
0.0
 11
299.774806013735
 21
18.03496127471237
 31
0.0
  0
LINE
  5
2E8
330
27D
100
AcDbEntity
  8
06-99
100
AcDbLine
 10
299.774806013735
 20
18.03496127471237
 30
0.0
 11
299.8421763057349
 21
17.90519603471233
 31
0.0
  0
LINE
  5
2E9
330
27D
100
AcDbEntity
  8
06-99
100
AcDbLine
 10
299.8421763057349
 20
17.90519603471233
 30
0.0
 11
299.9187987417349
 21
17.7830862667123
 31
0.0
  0
LINE
  5
2EA
330
27D
100
AcDbEntity
  8
06-99
100
AcDbLine
 10
299.9187987417349
 20
17.7830862667123
 30
0.0
 11
300.0043775097349
 21
17.66894203871231
 31
0.0
  0
LINE
  5
2EB
330
27D
100
AcDbEntity
  8
06-99
100
AcDbLine
 10
300.0043775097349
 20
17.66894203871231
 30
0.0
 11
300.0986203617349
 21
17.56308054671234
 31
0.0
  0
LINE
  5
2EC
330
27D
100
AcDbEntity
  8
06-99
100
AcDbLine
 10
300.0986203617349
 20
17.56308054671234
 30
0.0
 11
300.2012207937348
 21
17.46581185871235
 31
0.0
  0
LINE
  5
2ED
330
27D
100
AcDbEntity
  8
06-99
100
AcDbLine
 10
300.2012207937348
 20
17.46581185871235
 30
0.0
 11
300.3118936857348
 21
17.37745317071227
 31
0.0
  0
LINE
  5
2EE
330
27D
100
AcDbEntity
  8
06-99
100
AcDbLine
 10
300.3118936857348
 20
17.37745317071227
 30
0.0
 11
300.430332533735
 21
17.2983145507124
 31
0.0
  0
LINE
  5
2EF
330
27D
100
AcDbEntity
  8
06-99
100
AcDbLine
 10
300.430332533735
 20
17.2983145507124
 30
0.0
 11
300.5562450897348
 21
17.22870963071239
 31
0.0
  0
LINE
  5
2F0
330
27D
100
AcDbEntity
  8
06-99
100
AcDbLine
 10
300.5562450897348
 20
17.22870963071239
 30
0.0
 11
300.6893319777348
 21
17.1689556067123
 31
0.0
  0
LINE
  5
2F1
330
27D
100
AcDbEntity
  8
06-99
100
AcDbLine
 10
300.6893319777348
 20
17.1689556067123
 30
0.0
 11
300.8293009497348
 21
17.11936254671235
 31
0.0
  0
LINE
  5
2F2
330
27D
100
AcDbEntity
  8
06-99
100
AcDbLine
 10
300.8293009497348
 20
17.11936254671235
 30
0.0
 11
300.975849065735
 21
17.0802440827124
 31
0.0
  0
LINE
  5
2F3
330
27D
100
AcDbEntity
  8
06-99
100
AcDbLine
 10
300.975849065735
 20
17.0802440827124
 30
0.0
 11
301.1286876417348
 21
17.05191384671241
 31
0.0
  0
LINE
  5
2F4
330
27D
100
AcDbEntity
  8
06-99
100
AcDbLine
 10
301.1286876417348
 20
17.05191384671241
 30
0.0
 11
301.2875101737348
 21
17.03468547071236
 31
0.0
  0
LINE
  5
2F5
330
27D
100
AcDbEntity
  8
06-99
100
AcDbLine
 10
301.2875101737348
 20
17.03468547071236
 30
0.0
 11
301.4520279777349
 21
17.02887258671239
 31
0.0
  0
LINE
  5
2F6
330
27D
100
AcDbEntity
  8
06-99
100
AcDbLine
 10
301.4520279777349
 20
17.02887258671239
 30
0.0
 11
301.616025437735
 21
17.03412592271235
 31
0.0
  0
LINE
  5
2F7
330
27D
100
AcDbEntity
  8
06-99
100
AcDbLine
 10
301.616025437735
 20
17.03412592271235
 30
0.0
 11
301.7733582177349
 21
17.04976475471238
 31
0.0
  0
LINE
  5
2F8
330
27D
100
AcDbEntity
  8
06-99
100
AcDbLine
 10
301.7733582177349
 20
17.04976475471238
 30
0.0
 11
301.9238374257349
 21
17.07559662671235
 31
0.0
  0
LINE
  5
2F9
330
27D
100
AcDbEntity
  8
06-99
100
AcDbLine
 10
301.9238374257349
 20
17.07559662671235
 30
0.0
 11
302.0672741697348
 21
17.11142908271239
 31
0.0
  0
LINE
  5
2FA
330
27D
100
AcDbEntity
  8
06-99
100
AcDbLine
 10
302.0672741697348
 20
17.11142908271239
 30
0.0
 11
302.203483121735
 21
17.15707323071234
 31
0.0
  0
LINE
  5
2FB
330
27D
100
AcDbEntity
  8
06-99
100
AcDbLine
 10
302.203483121735
 20
17.15707323071234
 30
0.0
 11
302.3322718257348
 21
17.21234017871234
 31
0.0
  0
LINE
  5
2FC
330
27D
100
AcDbEntity
  8
06-99
100
AcDbLine
 10
302.3322718257348
 20
17.21234017871234
 30
0.0
 11
302.4534549537349
 21
17.27703747071234
 31
0.0
  0
LINE
  5
2FD
330
27D
100
AcDbEntity
  8
06-99
100
AcDbLine
 10
302.4534549537349
 20
17.27703747071234
 30
0.0
 11
302.5668364857349
 21
17.35097977871237
 31
0.0
  0
LINE
  5
2FE
330
27D
100
AcDbEntity
  8
06-99
100
AcDbLine
 10
302.5668364857349
 20
17.35097977871237
 30
0.0
 11
302.6722382217349
 21
17.43397464671233
 31
0.0
  0
LINE
  5
2FF
330
27D
100
AcDbEntity
  8
06-99
100
AcDbLine
 10
302.6722382217349
 20
17.43397464671233
 30
0.0
 11
302.7694605777349
 21
17.52582605471235
 31
0.0
  0
LINE
  5
300
330
27D
100
AcDbEntity
  8
06-99
100
AcDbLine
 10
302.7694605777349
 20
17.52582605471235
 30
0.0
 11
302.8583217897349
 21
17.62635580271234
 31
0.0
  0
LINE
  5
301
330
27D
100
AcDbEntity
  8
06-99
100
AcDbLine
 10
302.8583217897349
 20
17.62635580271234
 30
0.0
 11
302.938632965735
 21
17.73536074271232
 31
0.0
  0
LINE
  5
302
330
27D
100
AcDbEntity
  8
06-99
100
AcDbLine
 10
302.938632965735
 20
17.73536074271232
 30
0.0
 11
303.0102016497349
 21
17.85266267471235
 31
0.0
  0
LINE
  5
303
330
27D
100
AcDbEntity
  8
06-99
100
AcDbLine
 10
303.0102016497349
 20
17.85266267471235
 30
0.0
 11
303.0728389497349
 21
17.97806201471235
 31
0.0
  0
LINE
  5
304
330
27D
100
AcDbEntity
  8
06-99
100
AcDbLine
 10
303.0728389497349
 20
17.97806201471235
 30
0.0
 11
303.126359537735
 21
18.11137343471228
 31
0.0
  0
LINE
  5
305
330
27D
100
AcDbEntity
  8
06-99
100
AcDbLine
 10
303.126359537735
 20
18.11137343471228
 30
0.0
 11
303.1705745217348
 21
18.25240447871232
 31
0.0
  0
LINE
  5
306
330
27D
100
AcDbEntity
  8
06-99
100
AcDbLine
 10
303.1705745217348
 20
18.25240447871232
 30
0.0
 11
303.2052878817349
 21
18.40096625471233
 31
0.0
  0
LINE
  5
307
330
27D
100
AcDbEntity
  8
06-99
100
AcDbLine
 10
303.2052878817349
 20
18.40096625471233
 30
0.0
 11
303.2303214177349
 21
18.55686987071237
 31
0.0
  0
LINE
  5
308
330
27D
100
AcDbEntity
  8
06-99
100
AcDbLine
 10
303.2303214177349
 20
18.55686987071237
 30
0.0
 11
303.245479109735
 21
18.7199264347123
 31
0.0
  0
LINE
  5
309
330
27D
100
AcDbEntity
  8
06-99
100
AcDbLine
 10
303.245479109735
 20
18.7199264347123
 30
0.0
 11
303.2505720657348
 21
18.88993992671231
 31
0.0
  0
LINE
  5
30A
330
27D
100
AcDbEntity
  8
06-99
100
AcDbLine
 10
303.2505720657348
 20
18.88993992671231
 30
0.0
 11
303.2505720657348
 21
18.88993992671231
 31
0.0
  0
LINE
  5
30B
330
27D
100
AcDbEntity
  8
06-99
100
AcDbLine
 10
303.2505720657348
 20
18.88993992671231
 30
0.0
 11
303.2505720657348
 21
18.94132211471236
 31
0.0
  0
LINE
  5
30C
330
27D
100
AcDbEntity
  8
06-99
100
AcDbLine
 10
303.2505720657348
 20
18.94132211471236
 30
0.0
 11
301.6164638097349
 21
18.94132211471236
 31
0.0
  0
LINE
  5
30D
330
27D
100
AcDbEntity
  8
06-99
100
AcDbLine
 10
301.6164638097349
 20
18.94132211471236
 30
0.0
 11
301.6164638097349
 21
18.65355049871232
 31
0.0
  0
LINE
  5
30E
330
27D
100
AcDbEntity
  8
06-99
100
AcDbLine
 10
301.6164638097349
 20
18.65355049871232
 30
0.0
 11
302.8857253857347
 21
18.65355049871232
 31
0.0
  0
LINE
  5
30F
330
27D
100
AcDbEntity
  8
06-99
100
AcDbLine
 10
302.8857253857347
 20
18.65355049871232
 30
0.0
 11
302.8749870537348
 21
18.49100715071233
 31
0.0
  0
LINE
  5
310
330
27D
100
AcDbEntity
  8
06-99
100
AcDbLine
 10
302.8749870537348
 20
18.49100715071233
 30
0.0
 11
302.8476547377348
 21
18.33636162671234
 31
0.0
  0
LINE
  5
311
330
27D
100
AcDbEntity
  8
06-99
100
AcDbLine
 10
302.8476547377348
 20
18.33636162671234
 30
0.0
 11
302.804434109735
 21
18.19027683071238
 31
0.0
  0
LINE
  5
312
330
27D
100
AcDbEntity
  8
06-99
100
AcDbLine
 10
302.804434109735
 20
18.19027683071238
 30
0.0
 11
302.7460308417349
 21
18.05341923071233
 31
0.0
  0
LINE
  5
313
330
27D
100
AcDbEntity
  8
06-99
100
AcDbLine
 10
302.7460308417349
 20
18.05341923071233
 30
0.0
 11
302.673157733735
 21
17.92644460271236
 31
0.0
  0
LINE
  5
314
330
27D
100
AcDbEntity
  8
06-99
100
AcDbLine
 10
302.673157733735
 20
17.92644460271236
 30
0.0
 11
302.586524021735
 21
17.81002654271236
 31
0.0
  0
LINE
  5
315
330
27D
100
AcDbEntity
  8
06-99
100
AcDbLine
 10
302.586524021735
 20
17.81002654271236
 30
0.0
 11
302.4868282497349
 21
17.70481726271237
 31
0.0
  0
LINE
  5
316
330
27D
100
AcDbEntity
  8
06-99
100
AcDbLine
 10
302.4868282497349
 20
17.70481726271237
 30
0.0
 11
302.3747867817349
 21
17.61149035871233
 31
0.0
  0
LINE
  5
317
330
27D
100
AcDbEntity
  8
06-99
100
AcDbLine
 10
302.3747867817349
 20
17.61149035871233
 30
0.0
 11
302.2511052897348
 21
17.53069804271234
 31
0.0
  0
LINE
  5
318
330
27D
100
AcDbEntity
  8
06-99
100
AcDbLine
 10
302.2511052897348
 20
17.53069804271234
 30
0.0
 11
302.116489445735
 21
17.46311034671237
 31
0.0
  0
LINE
  5
319
330
27D
100
AcDbEntity
  8
06-99
100
AcDbLine
 10
302.116489445735
 20
17.46311034671237
 30
0.0
 11
301.9716484857348
 21
17.40938661071232
 31
0.0
  0
LINE
  5
31A
330
27D
100
AcDbEntity
  8
06-99
100
AcDbLine
 10
301.9716484857348
 20
17.40938661071232
 30
0.0
 11
301.8172916457349
 21
17.37019330271244
 31
0.0
  0
LINE
  5
31B
330
27D
100
AcDbEntity
  8
06-99
100
AcDbLine
 10
301.8172916457349
 20
17.37019330271244
 30
0.0
 11
301.654124597735
 21
17.3461897627123
 31
0.0
  0
LINE
  5
31C
330
27D
100
AcDbEntity
  8
06-99
100
AcDbLine
 10
301.654124597735
 20
17.3461897627123
 30
0.0
 11
301.482856577735
 21
17.33804245871238
 31
0.0
  0
LINE
  5
31D
330
27D
100
AcDbEntity
  8
06-99
100
AcDbLine
 10
301.482856577735
 20
17.33804245871238
 30
0.0
 11
301.318196213735
 21
17.34599374271232
 31
0.0
  0
LINE
  5
31E
330
27D
100
AcDbEntity
  8
06-99
100
AcDbLine
 10
301.318196213735
 20
17.34599374271232
 30
0.0
 11
301.1599011537348
 21
17.36937714671228
 31
0.0
  0
LINE
  5
31F
330
27D
100
AcDbEntity
  8
06-99
100
AcDbLine
 10
301.1599011537348
 20
17.36937714671228
 30
0.0
 11
301.0085630217349
 21
17.40748343471233
 31
0.0
  0
LINE
  5
320
330
27D
100
AcDbEntity
  8
06-99
100
AcDbLine
 10
301.0085630217349
 20
17.40748343471233
 30
0.0
 11
300.8647698777347
 21
17.45960693471232
 31
0.0
  0
LINE
  5
321
330
27D
100
AcDbEntity
  8
06-99
100
AcDbLine
 10
300.8647698777347
 20
17.45960693471232
 30
0.0
 11
300.7291026537349
 21
17.52503841071234
 31
0.0
  0
LINE
  5
322
330
27D
100
AcDbEntity
  8
06-99
100
AcDbLine
 10
300.7291026537349
 20
17.52503841071234
 30
0.0
 11
300.6021529737349
 21
17.6030686267124
 31
0.0
  0
LINE
  5
323
330
27D
100
AcDbEntity
  8
06-99
100
AcDbLine
 10
300.6021529737349
 20
17.6030686267124
 30
0.0
 11
300.4845053337349
 21
17.69299547471234
 31
0.0
  0
LINE
  5
324
330
27D
100
AcDbEntity
  8
06-99
100
AcDbLine
 10
300.4845053337349
 20
17.69299547471234
 30
0.0
 11
300.3767513577348
 21
17.79410615471244
 31
0.0
  0
LINE
  5
325
330
27D
100
AcDbEntity
  8
06-99
100
AcDbLine
 10
300.3767513577348
 20
17.79410615471244
 30
0.0
 11
300.279475541735
 21
17.90569499471235
 31
0.0
  0
LINE
  5
326
330
27D
100
AcDbEntity
  8
06-99
100
AcDbLine
 10
300.279475541735
 20
17.90569499471235
 30
0.0
 11
300.1932623817348
 21
18.02705632271232
 31
0.0
  0
LINE
  5
327
330
27D
100
AcDbEntity
  8
06-99
100
AcDbLine
 10
300.1932623817348
 20
18.02705632271232
 30
0.0
 11
300.1187035017349
 21
18.15747733871234
 31
0.0
  0
LINE
  5
328
330
27D
100
AcDbEntity
  8
06-99
100
AcDbLine
 10
300.1187035017349
 20
18.15747733871234
 30
0.0
 11
300.0563833977349
 21
18.29625593471235
 31
0.0
  0
LINE
  5
329
330
27D
100
AcDbEntity
  8
06-99
100
AcDbLine
 10
300.0563833977349
 20
18.29625593471235
 30
0.0
 11
300.0068901297349
 21
18.44268287471232
 31
0.0
  0
LINE
  5
32A
330
27D
100
AcDbEntity
  8
06-99
100
AcDbLine
 10
300.0068901297349
 20
18.44268287471232
 30
0.0
 11
299.9708117577347
 21
18.59604535871239
 31
0.0
  0
LINE
  5
32B
330
27D
100
AcDbEntity
  8
06-99
100
AcDbLine
 10
299.9708117577347
 20
18.59604535871239
 30
0.0
 11
299.9487327777348
 21
18.75564484271246
 31
0.0
  0
LINE
  5
32C
330
27D
100
AcDbEntity
  8
06-99
100
AcDbLine
 10
299.9487327777348
 20
18.75564484271246
 30
0.0
 11
299.9412448137349
 21
18.92076852671226
 31
0.0
  0
LINE
  5
32D
330
27D
100
AcDbEntity
  8
06-99
100
AcDbLine
 10
299.9412448137349
 20
18.92076852671226
 30
0.0
 11
299.947631501735
 21
19.08914257871237
 31
0.0
  0
LINE
  5
32E
330
27D
100
AcDbEntity
  8
06-99
100
AcDbLine
 10
299.947631501735
 20
19.08914257871237
 30
0.0
 11
299.9665349577349
 21
19.25115489071231
 31
0.0
  0
LINE
  5
32F
330
27D
100
AcDbEntity
  8
06-99
100
AcDbLine
 10
299.9665349577349
 20
19.25115489071231
 30
0.0
 11
299.997556013735
 21
19.40630650271231
 31
0.0
  0
LINE
  5
330
330
27D
100
AcDbEntity
  8
06-99
100
AcDbLine
 10
299.997556013735
 20
19.40630650271231
 30
0.0
 11
300.0402990657349
 21
19.55410201871234
 31
0.0
  0
LINE
  5
331
330
27D
100
AcDbEntity
  8
06-99
100
AcDbLine
 10
300.0402990657349
 20
19.55410201871234
 30
0.0
 11
300.0943720737348
 21
19.69404604271233
 31
0.0
  0
LINE
  5
332
330
27D
100
AcDbEntity
  8
06-99
100
AcDbLine
 10
300.0943720737348
 20
19.69404604271233
 30
0.0
 11
300.1593758697349
 21
19.82564674271236
 31
0.0
  0
LINE
  5
333
330
27D
100
AcDbEntity
  8
06-99
100
AcDbLine
 10
300.1593758697349
 20
19.82564674271236
 30
0.0
 11
300.2349148497349
 21
19.94840159471238
 31
0.0
  0
LINE
  5
334
330
27D
100
AcDbEntity
  8
06-99
100
AcDbLine
 10
300.2349148497349
 20
19.94840159471238
 30
0.0
 11
300.3205969737349
 21
20.06182233071235
 31
0.0
  0
LINE
  5
335
330
27D
100
AcDbEntity
  8
06-99
100
AcDbLine
 10
300.3205969737349
 20
20.06182233071235
 30
0.0
 11
300.4160230737348
 21
20.16540642671242
 31
0.0
  0
LINE
  5
336
330
27D
100
AcDbEntity
  8
06-99
100
AcDbLine
 10
300.4160230737348
 20
20.16540642671242
 30
0.0
 11
300.5208046737348
 21
20.2586620507123
 31
0.0
  0
LINE
  5
337
330
27D
100
AcDbEntity
  8
06-99
100
AcDbLine
 10
300.5208046737348
 20
20.2586620507123
 30
0.0
 11
300.634535477735
 21
20.34109024271237
 31
0.0
  0
LINE
  5
338
330
27D
100
AcDbEntity
  8
06-99
100
AcDbLine
 10
300.634535477735
 20
20.34109024271237
 30
0.0
 11
300.756830573735
 21
20.41219917071237
 31
0.0
  0
LINE
  5
339
330
27D
100
AcDbEntity
  8
06-99
100
AcDbLine
 10
300.756830573735
 20
20.41219917071237
 30
0.0
 11
300.8872872297347
 21
20.47148987471235
 31
0.0
  0
LINE
  5
33A
330
27D
100
AcDbEntity
  8
06-99
100
AcDbLine
 10
300.8872872297347
 20
20.47148987471235
 30
0.0
 11
301.025513405735
 21
20.51846695871234
 31
0.0
  0
LINE
  5
33B
330
27D
100
AcDbEntity
  8
06-99
100
AcDbLine
 10
301.025513405735
 20
20.51846695871234
 30
0.0
 11
301.171117061735
 21
20.55263502671232
 31
0.0
  0
LINE
  5
33C
330
27D
100
AcDbEntity
  8
06-99
100
AcDbLine
 10
301.171117061735
 20
20.55263502671232
 30
0.0
 11
301.323695465735
 21
20.57350224671234
 31
0.0
  0
LINE
  5
33D
330
27D
100
AcDbEntity
  8
06-99
100
AcDbLine
 10
301.323695465735
 20
20.57350224671234
 30
0.0
 11
301.482856577735
 21
20.58056609471237
 31
0.0
  0
LINE
  5
33E
330
27D
100
AcDbEntity
  8
06-99
100
AcDbLine
 10
301.482856577735
 20
20.58056609471237
 30
0.0
 11
301.6605611817349
 21
20.57164896671236
 31
0.0
  0
LINE
  5
33F
330
27D
100
AcDbEntity
  8
06-99
100
AcDbLine
 10
301.6605611817349
 20
20.57164896671236
 30
0.0
 11
301.830314501735
 21
20.54501163071234
 31
0.0
  0
LINE
  5
340
330
27D
100
AcDbEntity
  8
06-99
100
AcDbLine
 10
301.830314501735
 20
20.54501163071234
 30
0.0
 11
301.9917779577349
 21
20.50082159471236
 31
0.0
  0
LINE
  5
341
330
27D
100
AcDbEntity
  8
06-99
100
AcDbLine
 10
301.9917779577349
 20
20.50082159471236
 30
0.0
 11
302.1446129697349
 21
20.43924636671233
 31
0.0
  0
LINE
  5
342
330
27D
100
AcDbEntity
  8
06-99
100
AcDbLine
 10
302.1446129697349
 20
20.43924636671233
 30
0.0
 11
302.2884809577349
 21
20.36046058271233
 31
0.0
  0
LINE
  5
343
330
27D
100
AcDbEntity
  8
06-99
100
AcDbLine
 10
302.2884809577349
 20
20.36046058271233
 30
0.0
 11
302.423046905735
 21
20.2646281867124
 31
0.0
  0
LINE
  5
344
330
27D
100
AcDbEntity
  8
06-99
100
AcDbLine
 10
302.423046905735
 20
20.2646281867124
 30
0.0
 11
302.5479722337349
 21
20.15192381471235
 31
0.0
  0
LINE
  5
345
330
27D
100
AcDbEntity
  8
06-99
100
AcDbLine
 10
302.5479722337349
 20
20.15192381471235
 30
0.0
 11
302.662914797735
 21
20.02251141071241
 31
0.0
  0
LINE
  5
346
330
27D
100
AcDbEntity
  8
06-99
100
AcDbLine
 10
302.662914797735
 20
20.02251141071241
 30
0.0
 11
302.7675395817348
 21
19.87656561071236
 31
0.0
  0
LINE
  5
347
330
27D
100
AcDbEntity
  8
06-99
100
AcDbLine
 10
299.4389952417348
 20
13.25281458671242
 30
0.0
 11
301.3222627377349
 21
13.25281458671242
 31
0.0
  0
LINE
  5
348
330
27D
100
AcDbEntity
  8
06-99
100
AcDbLine
 10
301.3222627377349
 20
13.25281458671242
 30
0.0
 11
301.4675990937349
 21
14.00768047871236
 31
0.0
  0
LINE
  5
349
330
27D
100
AcDbEntity
  8
06-99
100
AcDbLine
 10
301.4675990937349
 20
14.00768047871236
 30
0.0
 11
300.5648699697349
 21
14.00768047871236
 31
0.0
  0
LINE
  5
34A
330
27D
100
AcDbEntity
  8
06-99
100
AcDbLine
 10
300.5648699697349
 20
14.00768047871236
 30
0.0
 11
300.6210528657348
 21
14.29950792671229
 31
0.0
  0
LINE
  5
34B
330
27D
100
AcDbEntity
  8
06-99
100
AcDbLine
 10
300.6210528657348
 20
14.29950792671229
 30
0.0
 11
301.4187152697349
 21
14.29950792671229
 31
0.0
  0
LINE
  5
34C
330
27D
100
AcDbEntity
  8
06-99
100
AcDbLine
 10
301.4187152697349
 20
14.29950792671229
 30
0.0
 11
301.5558009657348
 21
15.01156305071231
 31
0.0
  0
LINE
  5
34D
330
27D
100
AcDbEntity
  8
06-99
100
AcDbLine
 10
301.5558009657348
 20
15.01156305071231
 30
0.0
 11
300.7581385617348
 21
15.01156305071231
 31
0.0
  0
LINE
  5
34E
330
27D
100
AcDbEntity
  8
06-99
100
AcDbLine
 10
300.7581385617348
 20
15.01156305071231
 30
0.0
 11
300.8098450737348
 21
15.28005699071229
 31
0.0
  0
LINE
  5
34F
330
27D
100
AcDbEntity
  8
06-99
100
AcDbLine
 10
300.8098450737348
 20
15.28005699071229
 30
0.0
 11
301.6892264337348
 21
15.28005699071229
 31
0.0
  0
LINE
  5
350
330
27D
100
AcDbEntity
  8
06-99
100
AcDbLine
 10
301.6892264337348
 20
15.28005699071229
 30
0.0
 11
301.8345520977349
 21
16.03490862671236
 31
0.0
  0
LINE
  5
351
330
27D
100
AcDbEntity
  8
06-99
100
AcDbLine
 10
301.8345520977349
 20
16.03490862671236
 30
0.0
 11
299.9746323657349
 21
16.03490862671236
 31
0.0
  0
LINE
  5
352
330
27D
100
AcDbEntity
  8
06-99
100
AcDbLine
 10
299.9746323657349
 20
16.03490862671236
 30
0.0
 11
299.4389952417348
 21
13.25281458671242
 31
0.0
  0
LINE
  5
353
330
27D
100
AcDbEntity
  8
06-99
100
AcDbLine
 10
285.6086116857349
 20
13.88042785871232
 30
0.0
 11
298.0658608857348
 21
13.88042785871232
 31
0.0
  0
LINE
  5
354
330
27D
100
AcDbEntity
  8
06-99
100
AcDbLine
 10
298.0658608857348
 20
13.88042785871232
 30
0.0
 11
297.9422827497349
 21
13.25209822271233
 31
0.0
  0
LINE
  5
355
330
27D
100
AcDbEntity
  8
06-99
100
AcDbLine
 10
297.9422827497349
 20
13.25209822271233
 30
0.0
 11
285.4850371137349
 21
13.25209822271233
 31
0.0
  0
LINE
  5
356
330
27D
100
AcDbEntity
  8
06-99
100
AcDbLine
 10
285.4850371137349
 20
13.25209822271233
 30
0.0
 11
285.6086116857349
 21
13.88042785871232
 31
0.0
  0
LINE
  5
357
330
27D
100
AcDbEntity
  8
06-99
100
AcDbLine
 10
291.3458426577349
 20
17.02887258671239
 30
0.0
 11
292.3221826377348
 21
20.10266933471235
 31
0.0
  0
LINE
  5
358
330
27D
100
AcDbEntity
  8
06-99
100
AcDbLine
 10
292.3221826377348
 20
20.10266933471235
 30
0.0
 11
293.3396476137348
 21
17.02887258671239
 31
0.0
  0
LINE
  5
359
330
27D
100
AcDbEntity
  8
06-99
100
AcDbLine
 10
293.3396476137348
 20
17.02887258671239
 30
0.0
 11
294.5677984497349
 21
20.80153409471234
 31
0.0
  0
LINE
  5
35A
330
27D
100
AcDbEntity
  8
06-99
100
AcDbLine
 10
294.5677984497349
 20
20.80153409471234
 30
0.0
 11
294.2235089217348
 21
20.80153409471234
 31
0.0
  0
LINE
  5
35B
330
27D
100
AcDbEntity
  8
06-99
100
AcDbLine
 10
294.2235089217348
 20
20.80153409471234
 30
0.0
 11
293.3396476137348
 21
17.89303210271231
 31
0.0
  0
LINE
  5
35C
330
27D
100
AcDbEntity
  8
06-99
100
AcDbLine
 10
293.3396476137348
 20
17.89303210271231
 30
0.0
 11
292.3221826377348
 21
20.94541277471228
 31
0.0
  0
LINE
  5
35D
330
27D
100
AcDbEntity
  8
06-99
100
AcDbLine
 10
292.3221826377348
 20
20.94541277471228
 30
0.0
 11
291.3458426577349
 21
17.86733922671237
 31
0.0
  0
LINE
  5
35E
330
27D
100
AcDbEntity
  8
06-99
100
AcDbLine
 10
291.3458426577349
 20
17.86733922671237
 30
0.0
 11
290.426009897735
 21
20.80153409471234
 31
0.0
  0
LINE
  5
35F
330
27D
100
AcDbEntity
  8
06-99
100
AcDbLine
 10
290.426009897735
 20
20.80153409471234
 30
0.0
 11
290.0765810817349
 21
20.80153409471234
 31
0.0
  0
LINE
  5
360
330
27D
100
AcDbEntity
  8
06-99
100
AcDbLine
 10
290.0765810817349
 20
20.80153409471234
 30
0.0
 11
291.3458426577349
 21
17.02887258671239
 31
0.0
  0
LINE
  5
361
330
27D
100
AcDbEntity
  8
06-99
100
AcDbLine
 10
296.324415641735
 20
18.65868622271239
 30
0.0
 11
296.9770339377348
 21
20.2568337187123
 31
0.0
  0
LINE
  5
362
330
27D
100
AcDbEntity
  8
06-99
100
AcDbLine
 10
296.9770339377348
 20
20.2568337187123
 30
0.0
 11
297.6039629217348
 21
18.65868622271239
 31
0.0
  0
LINE
  5
363
330
27D
100
AcDbEntity
  8
06-99
100
AcDbLine
 10
297.6039629217348
 20
18.65868622271239
 30
0.0
 11
296.324415641735
 21
18.65868622271239
 31
0.0
  0
LINE
  5
364
330
27D
100
AcDbEntity
  8
06-99
100
AcDbLine
 10
295.3831810617349
 20
17.12736016271231
 30
0.0
 11
295.7231937897349
 21
17.12736016271231
 31
0.0
  0
LINE
  5
365
330
27D
100
AcDbEntity
  8
06-99
100
AcDbLine
 10
295.7231937897349
 20
17.12736016271231
 30
0.0
 11
296.2113619977348
 21
18.37092886271233
 31
0.0
  0
LINE
  5
366
330
27D
100
AcDbEntity
  8
06-99
100
AcDbLine
 10
296.2113619977348
 20
18.37092886271233
 30
0.0
 11
297.711863021735
 21
18.37092886271233
 31
0.0
  0
LINE
  5
367
330
27D
100
AcDbEntity
  8
06-99
100
AcDbLine
 10
297.711863021735
 20
18.37092886271233
 30
0.0
 11
298.1794918977348
 21
17.12736016271231
 31
0.0
  0
LINE
  5
368
330
27D
100
AcDbEntity
  8
06-99
100
AcDbLine
 10
298.1794918977348
 20
17.12736016271231
 30
0.0
 11
298.5443385777348
 21
17.12736016271231
 31
0.0
  0
LINE
  5
369
330
27D
100
AcDbEntity
  8
06-99
100
AcDbLine
 10
298.5443385777348
 20
17.12736016271231
 30
0.0
 11
296.9975910897349
 21
20.94541277471228
 31
0.0
  0
LINE
  5
36A
330
27D
100
AcDbEntity
  8
06-99
100
AcDbLine
 10
296.9975910897349
 20
20.94541277471228
 30
0.0
 11
295.3831810617349
 21
17.12736016271231
 31
0.0
  0
LINE
  5
36B
330
27D
100
AcDbEntity
  8
06-99
100
AcDbLine
 10
307.9298046897347
 20
13.25281458671242
 30
0.0
 11
309.0043792017348
 21
13.25281458671242
 31
0.0
  0
LINE
  5
36C
330
27D
100
AcDbEntity
  8
06-99
100
AcDbLine
 10
309.0043792017348
 20
13.25281458671242
 30
0.0
 11
309.1574066697349
 21
13.60301322671233
 31
0.0
  0
LINE
  5
36D
330
27D
100
AcDbEntity
  8
06-99
100
AcDbLine
 10
309.1574066697349
 20
13.60301322671233
 30
0.0
 11
309.9122725617349
 21
13.60301322671233
 31
0.0
  0
LINE
  5
36E
330
27D
100
AcDbEntity
  8
06-99
100
AcDbLine
 10
309.9122725617349
 20
13.60301322671233
 30
0.0
 11
309.9343444137348
 21
13.25281458671242
 31
0.0
  0
LINE
  5
36F
330
27D
100
AcDbEntity
  8
06-99
100
AcDbLine
 10
309.9343444137348
 20
13.25281458671242
 30
0.0
 11
311.0082738417347
 21
13.25281458671242
 31
0.0
  0
LINE
  5
370
330
27D
100
AcDbEntity
  8
06-99
100
AcDbLine
 10
311.0082738417347
 20
13.25281458671242
 30
0.0
 11
310.5711492417348
 21
16.03490862671236
 31
0.0
  0
LINE
  5
371
330
27D
100
AcDbEntity
  8
06-99
100
AcDbLine
 10
310.5711492417348
 20
16.03490862671236
 30
0.0
 11
309.4583116257348
 21
16.03490862671236
 31
0.0
  0
LINE
  5
372
330
27D
100
AcDbEntity
  8
06-99
100
AcDbLine
 10
309.4583116257348
 20
16.03490862671236
 30
0.0
 11
307.9298046897347
 21
13.25281458671242
 31
0.0
  0
LINE
  5
373
330
27D
100
AcDbEntity
  8
06-99
100
AcDbLine
 10
305.0434565217349
 20
14.66137866671232
 30
0.0
 11
305.0784799497348
 21
14.66137866671232
 31
0.0
  0
LINE
  5
374
330
27D
100
AcDbEntity
  8
06-99
100
AcDbLine
 10
305.0784799497348
 20
14.66137866671232
 30
0.0
 11
305.0642239497349
 21
14.48699927471239
 31
0.0
  0
LINE
  5
375
330
27D
100
AcDbEntity
  8
06-99
100
AcDbLine
 10
305.0642239497349
 20
14.48699927471239
 30
0.0
 11
305.0637998337348
 21
14.33510159471234
 31
0.0
  0
LINE
  5
376
330
27D
100
AcDbEntity
  8
06-99
100
AcDbLine
 10
305.0637998337348
 20
14.33510159471234
 30
0.0
 11
305.0678984337348
 21
14.20222854671237
 31
0.0
  0
LINE
  5
377
330
27D
100
AcDbEntity
  8
06-99
100
AcDbLine
 10
305.0678984337348
 20
14.20222854671237
 30
0.0
 11
305.0952307497349
 21
13.25281458671242
 31
0.0
  0
LINE
  5
378
330
27D
100
AcDbEntity
  8
06-99
100
AcDbLine
 10
305.0952307497349
 20
13.25281458671242
 30
0.0
 11
305.9668283337347
 21
13.25281458671242
 31
0.0
  0
LINE
  5
379
330
27D
100
AcDbEntity
  8
06-99
100
AcDbLine
 10
305.9668283337347
 20
13.25281458671242
 30
0.0
 11
307.3156882857347
 21
16.03490862671236
 31
0.0
  0
LINE
  5
37A
330
27D
100
AcDbEntity
  8
06-99
100
AcDbLine
 10
307.3156882857347
 20
16.03490862671236
 30
0.0
 11
306.3118057137349
 21
16.03490862671236
 31
0.0
  0
LINE
  5
37B
330
27D
100
AcDbEntity
  8
06-99
100
AcDbLine
 10
306.3118057137349
 20
16.03490862671236
 30
0.0
 11
305.8579124937348
 21
14.8092312067123
 31
0.0
  0
LINE
  5
37C
330
27D
100
AcDbEntity
  8
06-99
100
AcDbLine
 10
305.8579124937348
 20
14.8092312067123
 30
0.0
 11
305.8078097817349
 21
14.66872763471229
 31
0.0
  0
LINE
  5
37D
330
27D
100
AcDbEntity
  8
06-99
100
AcDbLine
 10
305.8078097817349
 20
14.66872763471229
 30
0.0
 11
305.7488398377348
 21
14.48671415471227
 31
0.0
  0
LINE
  5
37E
330
27D
100
AcDbEntity
  8
06-99
100
AcDbLine
 10
305.7488398377348
 20
14.48671415471227
 30
0.0
 11
305.6900267097347
 21
14.26059973871241
 31
0.0
  0
LINE
  5
37F
330
27D
100
AcDbEntity
  8
06-99
100
AcDbLine
 10
305.6900267097347
 20
14.26059973871241
 30
0.0
 11
305.6666932017348
 21
14.26059973871241
 31
0.0
  0
LINE
  5
380
330
27D
100
AcDbEntity
  8
06-99
100
AcDbLine
 10
305.6666932017348
 20
14.26059973871241
 30
0.0
 11
305.6884193457348
 21
14.45803464671235
 31
0.0
  0
LINE
  5
381
330
27D
100
AcDbEntity
  8
06-99
100
AcDbLine
 10
305.6884193457348
 20
14.45803464671235
 30
0.0
 11
305.6929777017349
 21
14.6156953147123
 31
0.0
  0
LINE
  5
382
330
27D
100
AcDbEntity
  8
06-99
100
AcDbLine
 10
305.6929777017349
 20
14.6156953147123
 30
0.0
 11
305.6919370137348
 21
14.73531384671236
 31
0.0
  0
LINE
  5
383
330
27D
100
AcDbEntity
  8
06-99
100
AcDbLine
 10
305.6919370137348
 20
14.73531384671236
 30
0.0
 11
305.6775527097348
 21
16.03490862671236
 31
0.0
  0
LINE
  5
384
330
27D
100
AcDbEntity
  8
06-99
100
AcDbLine
 10
305.6775527097348
 20
16.03490862671236
 30
0.0
 11
304.9732849257348
 21
16.03490862671236
 31
0.0
  0
LINE
  5
385
330
27D
100
AcDbEntity
  8
06-99
100
AcDbLine
 10
304.9732849257348
 20
16.03490862671236
 30
0.0
 11
304.4584829457349
 21
14.73531384671236
 31
0.0
  0
LINE
  5
386
330
27D
100
AcDbEntity
  8
06-99
100
AcDbLine
 10
304.4584829457349
 20
14.73531384671236
 30
0.0
 11
304.4113811217347
 21
14.6156953147123
 31
0.0
  0
LINE
  5
387
330
27D
100
AcDbEntity
  8
06-99
100
AcDbLine
 10
304.4113811217347
 20
14.6156953147123
 30
0.0
 11
304.355226737735
 21
14.45803464671235
 31
0.0
  0
LINE
  5
388
330
27D
100
AcDbEntity
  8
06-99
100
AcDbLine
 10
304.355226737735
 20
14.45803464671235
 30
0.0
 11
304.3009220697348
 21
14.26059973871241
 31
0.0
  0
LINE
  5
389
330
27D
100
AcDbEntity
  8
06-99
100
AcDbLine
 10
304.3009220697348
 20
14.26059973871241
 30
0.0
 11
304.2775885617348
 21
14.26059973871241
 31
0.0
  0
LINE
  5
38A
330
27D
100
AcDbEntity
  8
06-99
100
AcDbLine
 10
304.2775885617348
 20
14.26059973871241
 30
0.0
 11
304.3058439537349
 21
14.48671415471227
 31
0.0
  0
LINE
  5
38B
330
27D
100
AcDbEntity
  8
06-99
100
AcDbLine
 10
304.3058439537349
 20
14.48671415471227
 30
0.0
 11
304.3169636337349
 21
14.66872763471229
 31
0.0
  0
LINE
  5
38C
330
27D
100
AcDbEntity
  8
06-99
100
AcDbLine
 10
304.3169636337349
 20
14.66872763471229
 30
0.0
 11
304.3209588777348
 21
14.8092312067123
 31
0.0
  0
LINE
  5
38D
330
27D
100
AcDbEntity
  8
06-99
100
AcDbLine
 10
304.3209588777348
 20
14.8092312067123
 30
0.0
 11
304.3390319217348
 21
16.03490862671236
 31
0.0
  0
LINE
  5
38E
330
27D
100
AcDbEntity
  8
06-99
100
AcDbLine
 10
304.3390319217348
 20
16.03490862671236
 30
0.0
 11
303.3345042657348
 21
16.03490862671236
 31
0.0
  0
LINE
  5
38F
330
27D
100
AcDbEntity
  8
06-99
100
AcDbLine
 10
303.3345042657348
 20
16.03490862671236
 30
0.0
 11
303.6127350537349
 21
13.25281458671242
 31
0.0
  0
LINE
  5
390
330
27D
100
AcDbEntity
  8
06-99
100
AcDbLine
 10
303.6127350537349
 20
13.25281458671242
 30
0.0
 11
304.4843290737348
 21
13.25281458671242
 31
0.0
  0
LINE
  5
391
330
27D
100
AcDbEntity
  8
06-99
100
AcDbLine
 10
304.4843290737348
 20
13.25281458671242
 30
0.0
 11
304.8772386897349
 21
14.20222854671237
 31
0.0
  0
LINE
  5
392
330
27D
100
AcDbEntity
  8
06-99
100
AcDbLine
 10
304.8772386897349
 20
14.20222854671237
 30
0.0
 11
304.9325127657348
 21
14.33510159471234
 31
0.0
  0
LINE
  5
393
330
27D
100
AcDbEntity
  8
06-99
100
AcDbLine
 10
304.9325127657348
 20
14.33510159471234
 30
0.0
 11
304.9905774537349
 21
14.48699927471239
 31
0.0
  0
LINE
  5
394
330
27D
100
AcDbEntity
  8
06-99
100
AcDbLine
 10
304.9905774537349
 20
14.48699927471239
 30
0.0
 11
305.0434565217349
 21
14.66137866671232
 31
0.0
  0
LINE
  5
395
330
27D
100
AcDbEntity
  8
06-99
100
AcDbLine
 10
309.4520674977348
 20
14.26448449871236
 30
0.0
 11
309.5983590057348
 21
14.57965971071235
 31
0.0
  0
LINE
  5
396
330
27D
100
AcDbEntity
  8
06-99
100
AcDbLine
 10
309.5983590057348
 20
14.57965971071235
 30
0.0
 11
309.6731103417349
 21
14.74409554271244
 31
0.0
  0
LINE
  5
397
330
27D
100
AcDbEntity
  8
06-99
100
AcDbLine
 10
309.6731103417349
 20
14.74409554271244
 30
0.0
 11
309.7541521377349
 21
14.94571102271237
 31
0.0
  0
LINE
  5
398
330
27D
100
AcDbEntity
  8
06-99
100
AcDbLine
 10
309.7541521377349
 20
14.94571102271237
 30
0.0
 11
309.8288286297349
 21
15.19056495071243
 31
0.0
  0
LINE
  5
399
330
27D
100
AcDbEntity
  8
06-99
100
AcDbLine
 10
309.8288286297349
 20
15.19056495071243
 30
0.0
 11
309.8482880697349
 21
15.19056495071243
 31
0.0
  0
LINE
  5
39A
330
27D
100
AcDbEntity
  8
06-99
100
AcDbLine
 10
309.8482880697349
 20
15.19056495071243
 30
0.0
 11
309.8286646857348
 21
14.94571102271237
 31
0.0
  0
LINE
  5
39B
330
27D
100
AcDbEntity
  8
06-99
100
AcDbLine
 10
309.8286646857348
 20
14.94571102271237
 30
0.0
 11
309.8320718697348
 21
14.74409554271244
 31
0.0
  0
LINE
  5
39C
330
27D
100
AcDbEntity
  8
06-99
100
AcDbLine
 10
309.8320718697348
 20
14.74409554271244
 30
0.0
 11
309.8435051817348
 21
14.57965971071235
 31
0.0
  0
LINE
  5
39D
330
27D
100
AcDbEntity
  8
06-99
100
AcDbLine
 10
309.8435051817348
 20
14.57965971071235
 30
0.0
 11
309.868410413735
 21
14.26448449871236
 31
0.0
  0
LINE
  5
39E
330
27D
100
AcDbEntity
  8
06-99
100
AcDbLine
 10
309.868410413735
 20
14.26448449871236
 30
0.0
 11
309.4520674977348
 21
14.26448449871236
 31
0.0
  0
LINE
  5
39F
330
27D
100
AcDbEntity
  8
06-99
100
AcDbLine
 10
312.586705289735
 20
13.25281458671242
 30
0.0
 11
313.5672400977347
 21
13.25281458671242
 31
0.0
  0
LINE
  5
3A0
330
27D
100
AcDbEntity
  8
06-99
100
AcDbLine
 10
313.5672400977347
 20
13.25281458671242
 30
0.0
 11
313.7440358817348
 21
14.17110413471232
 31
0.0
  0
LINE
  5
3A1
330
27D
100
AcDbEntity
  8
06-99
100
AcDbLine
 10
313.7440358817348
 20
14.17110413471232
 30
0.0
 11
314.053626305735
 21
13.25281458671242
 31
0.0
  0
LINE
  5
3A2
330
27D
100
AcDbEntity
  8
06-99
100
AcDbLine
 10
314.053626305735
 20
13.25281458671242
 30
0.0
 11
315.1742370057348
 21
13.25281458671242
 31
0.0
  0
LINE
  5
3A3
330
27D
100
AcDbEntity
  8
06-99
100
AcDbLine
 10
315.1742370057348
 20
13.25281458671242
 30
0.0
 11
314.6490673497349
 21
14.38511520671233
 31
0.0
  0
LINE
  5
3A4
330
27D
100
AcDbEntity
  8
06-99
100
AcDbLine
 10
314.6490673497349
 20
14.38511520671233
 30
0.0
 11
314.8084280457349
 21
14.42380955471236
 31
0.0
  0
LINE
  5
3A5
330
27D
100
AcDbEntity
  8
06-99
100
AcDbLine
 10
314.8084280457349
 20
14.42380955471236
 30
0.0
 11
314.9537002497348
 21
14.49881749871235
 31
0.0
  0
LINE
  5
3A6
330
27D
100
AcDbEntity
  8
06-99
100
AcDbLine
 10
314.9537002497348
 20
14.49881749871235
 30
0.0
 11
315.0813484737348
 21
14.60690292671233
 31
0.0
  0
LINE
  5
3A7
330
27D
100
AcDbEntity
  8
06-99
100
AcDbLine
 10
315.0813484737348
 20
14.60690292671233
 30
0.0
 11
315.1878301017348
 21
14.74481903471235
 31
0.0
  0
LINE
  5
3A8
330
27D
100
AcDbEntity
  8
06-99
100
AcDbLine
 10
315.1878301017348
 20
14.74481903471235
 30
0.0
 11
315.2695989537348
 21
14.90932258271232
 31
0.0
  0
LINE
  5
3A9
330
27D
100
AcDbEntity
  8
06-99
100
AcDbLine
 10
315.2695989537348
 20
14.90932258271232
 30
0.0
 11
315.3231124137347
 21
15.09717033071234
 31
0.0
  0
LINE
  5
3AA
330
27D
100
AcDbEntity
  8
06-99
100
AcDbLine
 10
315.3231124137347
 20
15.09717033071234
 30
0.0
 11
315.3445997697348
 21
15.26809264271236
 31
0.0
  0
LINE
  5
3AB
330
27D
100
AcDbEntity
  8
06-99
100
AcDbLine
 10
315.3445997697348
 20
15.26809264271236
 30
0.0
 11
315.3403015857348
 21
15.42330127871241
 31
0.0
  0
LINE
  5
3AC
330
27D
100
AcDbEntity
  8
06-99
100
AcDbLine
 10
315.3403015857348
 20
15.42330127871241
 30
0.0
 11
315.3102285537349
 21
15.56226163871236
 31
0.0
  0
LINE
  5
3AD
330
27D
100
AcDbEntity
  8
06-99
100
AcDbLine
 10
315.3102285537349
 20
15.56226163871236
 30
0.0
 11
315.2543913657347
 21
15.68443555871226
 31
0.0
  0
LINE
  5
3AE
330
27D
100
AcDbEntity
  8
06-99
100
AcDbLine
 10
315.2543913657347
 20
15.68443555871226
 30
0.0
 11
315.1728078417348
 21
15.78928843871239
 31
0.0
  0
LINE
  5
3AF
330
27D
100
AcDbEntity
  8
06-99
100
AcDbLine
 10
315.1728078417348
 20
15.78928843871239
 30
0.0
 11
315.0654922377348
 21
15.87627855071235
 31
0.0
  0
LINE
  5
3B0
330
27D
100
AcDbEntity
  8
06-99
100
AcDbLine
 10
315.0654922377348
 20
15.87627855071235
 30
0.0
 11
314.9324516817348
 21
15.94487485871235
 31
0.0
  0
LINE
  5
3B1
330
27D
100
AcDbEntity
  8
06-99
100
AcDbLine
 10
314.9324516817348
 20
15.94487485871235
 30
0.0
 11
314.7737075577347
 21
15.9945356347124
 31
0.0
  0
LINE
  5
3B2
330
27D
100
AcDbEntity
  8
06-99
100
AcDbLine
 10
314.7737075577347
 20
15.9945356347124
 30
0.0
 11
314.5892634297348
 21
16.02472627871236
 31
0.0
  0
LINE
  5
3B3
330
27D
100
AcDbEntity
  8
06-99
100
AcDbLine
 10
314.5892634297348
 20
16.02472627871236
 30
0.0
 11
314.3791442457348
 21
16.03490862671236
 31
0.0
  0
LINE
  5
3B4
330
27D
100
AcDbEntity
  8
06-99
100
AcDbLine
 10
314.3791442457348
 20
16.03490862671236
 30
0.0
 11
313.1223424137348
 21
16.03490862671236
 31
0.0
  0
LINE
  5
3B5
330
27D
100
AcDbEntity
  8
06-99
100
AcDbLine
 10
313.1223424137348
 20
16.03490862671236
 30
0.0
 11
312.586705289735
 21
13.25281458671242
 31
0.0
  0
LINE
  5
3B6
330
27D
100
AcDbEntity
  8
06-99
100
AcDbLine
 10
313.9650323937349
 20
15.31896517871234
 30
0.0
 11
314.1206829657349
 21
15.31896517871234
 31
0.0
  0
LINE
  5
3B7
330
27D
100
AcDbEntity
  8
06-99
100
AcDbLine
 10
314.1206829657349
 20
15.31896517871234
 30
0.0
 11
314.2773528417349
 21
15.28538517071229
 31
0.0
  0
LINE
  5
3B8
330
27D
100
AcDbEntity
  8
06-99
100
AcDbLine
 10
314.2773528417349
 20
15.28538517071229
 30
0.0
 11
314.3582200017347
 21
15.19041169871241
 31
0.0
  0
LINE
  5
3B9
330
27D
100
AcDbEntity
  8
06-99
100
AcDbLine
 10
314.3582200017347
 20
15.19041169871241
 30
0.0
 11
314.3632167297349
 21
15.04270171871235
 31
0.0
  0
LINE
  5
3BA
330
27D
100
AcDbEntity
  8
06-99
100
AcDbLine
 10
314.3632167297349
 20
15.04270171871235
 30
0.0
 11
314.3008645497348
 21
14.8970018347124
 31
0.0
  0
LINE
  5
3BB
330
27D
100
AcDbEntity
  8
06-99
100
AcDbLine
 10
314.3008645497348
 20
14.8970018347124
 30
0.0
 11
314.1832917537348
 21
14.80578125471237
 31
0.0
  0
LINE
  5
3BC
330
27D
100
AcDbEntity
  8
06-99
100
AcDbLine
 10
314.1832917537348
 20
14.80578125471237
 30
0.0
 11
314.0158122657348
 21
14.77422203471229
 31
0.0
  0
LINE
  5
3BD
330
27D
100
AcDbEntity
  8
06-99
100
AcDbLine
 10
314.0158122657348
 20
14.77422203471229
 30
0.0
 11
313.8601616937349
 21
14.77422203471229
 31
0.0
  0
LINE
  5
3BE
330
27D
100
AcDbEntity
  8
06-99
100
AcDbLine
 10
313.8601616937349
 20
14.77422203471229
 30
0.0
 11
313.9650323937349
 21
15.31896517871234
 31
0.0
  0
LINE
  5
3BF
330
27D
100
AcDbEntity
  8
06-99
100
AcDbLine
 10
309.579801257735
 20
17.12736016271231
 30
0.0
 11
311.3988989337349
 21
17.12736016271231
 31
0.0
  0
LINE
  5
3C0
330
27D
100
AcDbEntity
  8
06-99
100
AcDbLine
 10
311.3988989337349
 20
17.12736016271231
 30
0.0
 11
311.3988989337349
 21
17.44082465471229
 31
0.0
  0
LINE
  5
3C1
330
27D
100
AcDbEntity
  8
06-99
100
AcDbLine
 10
311.3988989337349
 20
17.44082465471229
 30
0.0
 11
309.913819337735
 21
17.44082465471229
 31
0.0
  0
LINE
  5
3C2
330
27D
100
AcDbEntity
  8
06-99
100
AcDbLine
 10
309.913819337735
 20
17.44082465471229
 30
0.0
 11
309.913819337735
 21
19.02353290271242
 31
0.0
  0
LINE
  5
3C3
330
27D
100
AcDbEntity
  8
06-99
100
AcDbLine
 10
309.913819337735
 20
19.02353290271242
 30
0.0
 11
311.3988989337349
 21
19.02353290271242
 31
0.0
  0
LINE
  5
3C4
330
27D
100
AcDbEntity
  8
06-99
100
AcDbLine
 10
311.3988989337349
 20
19.02353290271242
 30
0.0
 11
311.3988989337349
 21
19.3369973947124
 31
0.0
  0
LINE
  5
3C5
330
27D
100
AcDbEntity
  8
06-99
100
AcDbLine
 10
311.3988989337349
 20
19.3369973947124
 30
0.0
 11
309.913819337735
 21
19.3369973947124
 31
0.0
  0
LINE
  5
3C6
330
27D
100
AcDbEntity
  8
06-99
100
AcDbLine
 10
309.913819337735
 20
19.3369973947124
 30
0.0
 11
309.913819337735
 21
20.48806960271236
 31
0.0
  0
LINE
  5
3C7
330
27D
100
AcDbEntity
  8
06-99
100
AcDbLine
 10
309.913819337735
 20
20.48806960271236
 30
0.0
 11
311.3988989337349
 21
20.48806960271236
 31
0.0
  0
LINE
  5
3C8
330
27D
100
AcDbEntity
  8
06-99
100
AcDbLine
 10
311.3988989337349
 20
20.48806960271236
 30
0.0
 11
311.3988989337349
 21
20.80153409471234
 31
0.0
  0
LINE
  5
3C9
330
27D
100
AcDbEntity
  8
06-99
100
AcDbLine
 10
311.3988989337349
 20
20.80153409471234
 30
0.0
 11
309.579801257735
 21
20.80153409471234
 31
0.0
  0
LINE
  5
3CA
330
27D
100
AcDbEntity
  8
06-99
100
AcDbLine
 10
309.579801257735
 20
20.80153409471234
 30
0.0
 11
309.579801257735
 21
17.12736016271231
 31
0.0
  0
LINE
  5
3CB
330
27D
100
AcDbEntity
  8
06-99
100
AcDbLine
 10
304.853024873735
 20
17.12736016271231
 30
0.0
 11
305.1870465177349
 21
17.12736016271231
 31
0.0
  0
LINE
  5
3CC
330
27D
100
AcDbEntity
  8
06-99
100
AcDbLine
 10
305.1870465177349
 20
17.12736016271231
 30
0.0
 11
305.1870465177349
 21
20.09753361071233
 31
0.0
  0
LINE
  5
3CD
330
27D
100
AcDbEntity
  8
06-99
100
AcDbLine
 10
305.1870465177349
 20
20.09753361071233
 30
0.0
 11
307.7666661537348
 21
17.01858688271232
 31
0.0
  0
LINE
  5
3CE
330
27D
100
AcDbEntity
  8
06-99
100
AcDbLine
 10
307.7666661537348
 20
17.01858688271232
 30
0.0
 11
307.7666661537348
 21
20.80153409471234
 31
0.0
  0
LINE
  5
3CF
330
27D
100
AcDbEntity
  8
06-99
100
AcDbLine
 10
307.7666661537348
 20
20.80153409471234
 30
0.0
 11
307.4326587657349
 21
20.80153409471234
 31
0.0
  0
LINE
  5
3D0
330
27D
100
AcDbEntity
  8
06-99
100
AcDbLine
 10
307.4326587657349
 20
20.80153409471234
 30
0.0
 11
307.4326587657349
 21
17.88274639871235
 31
0.0
  0
LINE
  5
3D1
330
27D
100
AcDbEntity
  8
06-99
100
AcDbLine
 10
307.4326587657349
 20
17.88274639871235
 30
0.0
 11
304.853024873735
 21
20.95568422271231
 31
0.0
  0
LINE
  5
3D2
330
27D
100
AcDbEntity
  8
06-99
100
AcDbLine
 10
304.853024873735
 20
20.95568422271231
 30
0.0
 11
304.853024873735
 21
17.12736016271231
 31
0.0
  0
LINE
  5
3D3
330
27D
100
AcDbEntity
  8
06-99
100
AcDbLine
 10
313.448423465735
 20
20.50862675471228
 30
0.0
 11
313.7824308537349
 21
20.50862675471228
 31
0.0
  0
LINE
  5
3D4
330
27D
100
AcDbEntity
  8
06-99
100
AcDbLine
 10
313.7824308537349
 20
20.50862675471228
 30
0.0
 11
313.9866159777348
 21
20.50030837871236
 31
0.0
  0
LINE
  5
3D5
330
27D
100
AcDbEntity
  8
06-99
100
AcDbLine
 10
313.9866159777348
 20
20.50030837871236
 30
0.0
 11
314.1604465137349
 21
20.47385993471232
 31
0.0
  0
LINE
  5
3D6
330
27D
100
AcDbEntity
  8
06-99
100
AcDbLine
 10
314.1604465137349
 20
20.47385993471232
 30
0.0
 11
314.3048954337349
 21
20.42705748671227
 31
0.0
  0
LINE
  5
3D7
330
27D
100
AcDbEntity
  8
06-99
100
AcDbLine
 10
314.3048954337349
 20
20.42705748671227
 30
0.0
 11
314.4209178897349
 21
20.35767353471232
 31
0.0
  0
LINE
  5
3D8
330
27D
100
AcDbEntity
  8
06-99
100
AcDbLine
 10
314.4209178897349
 20
20.35767353471232
 30
0.0
 11
314.509479725735
 21
20.26348057871229
 31
0.0
  0
LINE
  5
3D9
330
27D
100
AcDbEntity
  8
06-99
100
AcDbLine
 10
314.509479725735
 20
20.26348057871229
 30
0.0
 11
314.5715432217348
 21
20.14225111871241
 31
0.0
  0
LINE
  5
3DA
330
27D
100
AcDbEntity
  8
06-99
100
AcDbLine
 10
314.5715432217348
 20
20.14225111871241
 30
0.0
 11
314.6080777857349
 21
19.99175052671228
 31
0.0
  0
LINE
  5
3DB
330
27D
100
AcDbEntity
  8
06-99
100
AcDbLine
 10
314.6080777857349
 20
19.99175052671228
 30
0.0
 11
314.6200421337348
 21
19.80976199471234
 31
0.0
  0
LINE
  5
3DC
330
27D
100
AcDbEntity
  8
06-99
100
AcDbLine
 10
314.6200421337348
 20
19.80976199471234
 30
0.0
 11
314.6074469577349
 21
19.63100957471232
 31
0.0
  0
LINE
  5
3DD
330
27D
100
AcDbEntity
  8
06-99
100
AcDbLine
 10
314.6074469577349
 20
19.63100957471232
 30
0.0
 11
314.5693763097349
 21
19.48586211071233
 31
0.0
  0
LINE
  5
3DE
330
27D
100
AcDbEntity
  8
06-99
100
AcDbLine
 10
314.5693763097349
 20
19.48586211071233
 30
0.0
 11
314.5054167657349
 21
19.37130445871241
 31
0.0
  0
LINE
  5
3DF
330
27D
100
AcDbEntity
  8
06-99
100
AcDbLine
 10
314.5054167657349
 20
19.37130445871241
 30
0.0
 11
314.4151370817349
 21
19.28432860271238
 31
0.0
  0
LINE
  5
3E0
330
27D
100
AcDbEntity
  8
06-99
100
AcDbLine
 10
314.4151370817349
 20
19.28432860271238
 30
0.0
 11
314.298123833735
 21
19.22192296271237
 31
0.0
  0
LINE
  5
3E1
330
27D
100
AcDbEntity
  8
06-99
100
AcDbLine
 10
314.298123833735
 20
19.22192296271237
 30
0.0
 11
314.1539493417349
 21
19.18107239471232
 31
0.0
  0
LINE
  5
3E2
330
27D
100
AcDbEntity
  8
06-99
100
AcDbLine
 10
314.1539493417349
 20
19.18107239471232
 30
0.0
 11
313.9821894897348
 21
19.15877244671242
 31
0.0
  0
LINE
  5
3E3
330
27D
100
AcDbEntity
  8
06-99
100
AcDbLine
 10
313.9821894897348
 20
19.15877244671242
 30
0.0
 11
313.7824308537349
 21
19.15200797471237
 31
0.0
  0
LINE
  5
3E4
330
27D
100
AcDbEntity
  8
06-99
100
AcDbLine
 10
313.7824308537349
 20
19.15200797471237
 30
0.0
 11
313.448423465735
 21
19.15200797471237
 31
0.0
  0
LINE
  5
3E5
330
27D
100
AcDbEntity
  8
06-99
100
AcDbLine
 10
313.448423465735
 20
19.15200797471237
 30
0.0
 11
313.448423465735
 21
20.50862675471228
 31
0.0
  0
LINE
  5
3E6
330
27D
100
AcDbEntity
  8
06-99
100
AcDbLine
 10
315.3445997697348
 20
17.12736016271231
 30
0.0
 11
314.0239560057348
 21
18.87965422271236
 31
0.0
  0
LINE
  5
3E7
330
27D
100
AcDbEntity
  8
06-99
100
AcDbLine
 10
314.0239560057348
 20
18.87965422271236
 30
0.0
 11
314.212373993735
 21
18.8922529627124
 31
0.0
  0
LINE
  5
3E8
330
27D
100
AcDbEntity
  8
06-99
100
AcDbLine
 10
314.212373993735
 20
18.8922529627124
 30
0.0
 11
314.3829007017349
 21
18.92942191871231
 31
0.0
  0
LINE
  5
3E9
330
27D
100
AcDbEntity
  8
06-99
100
AcDbLine
 10
314.3829007017349
 20
18.92942191871231
 30
0.0
 11
314.5343992137349
 21
18.99023088671242
 31
0.0
  0
LINE
  5
3EA
330
27D
100
AcDbEntity
  8
06-99
100
AcDbLine
 10
314.5343992137349
 20
18.99023088671242
 30
0.0
 11
314.6657219217349
 21
19.07375679071236
 31
0.0
  0
LINE
  5
3EB
330
27D
100
AcDbEntity
  8
06-99
100
AcDbLine
 10
314.6657219217349
 20
19.07375679071236
 30
0.0
 11
314.7757283457349
 21
19.17905873471233
 31
0.0
  0
LINE
  5
3EC
330
27D
100
AcDbEntity
  8
06-99
100
AcDbLine
 10
314.7757283457349
 20
19.17905873471233
 30
0.0
 11
314.8632744417348
 21
19.30521720671237
 31
0.0
  0
LINE
  5
3ED
330
27D
100
AcDbEntity
  8
06-99
100
AcDbLine
 10
314.8632744417348
 20
19.30521720671237
 30
0.0
 11
314.9272232937349
 21
19.4512948747124
 31
0.0
  0
LINE
  5
3EE
330
27D
100
AcDbEntity
  8
06-99
100
AcDbLine
 10
314.9272232937349
 20
19.4512948747124
 30
0.0
 11
314.9664308577349
 21
19.61636153471238
 31
0.0
  0
LINE
  5
3EF
330
27D
100
AcDbEntity
  8
06-99
100
AcDbLine
 10
314.9664308577349
 20
19.61636153471238
 30
0.0
 11
314.9797530897347
 21
19.79949054671237
 31
0.0
  0
LINE
  5
3F0
330
27D
100
AcDbEntity
  8
06-99
100
AcDbLine
 10
314.9797530897347
 20
19.79949054671237
 30
0.0
 11
314.969937833735
 21
19.97455422671237
 31
0.0
  0
LINE
  5
3F1
330
27D
100
AcDbEntity
  8
06-99
100
AcDbLine
 10
314.969937833735
 20
19.97455422671237
 30
0.0
 11
314.940481373735
 21
20.13261762671238
 31
0.0
  0
LINE
  5
3F2
330
27D
100
AcDbEntity
  8
06-99
100
AcDbLine
 10
314.940481373735
 20
20.13261762671238
 30
0.0
 11
314.8913551977349
 21
20.27374846271237
 31
0.0
  0
LINE
  5
3F3
330
27D
100
AcDbEntity
  8
06-99
100
AcDbLine
 10
314.8913551977349
 20
20.27374846271237
 30
0.0
 11
314.822541485735
 21
20.39801445071225
 31
0.0
  0
LINE
  5
3F4
330
27D
100
AcDbEntity
  8
06-99
100
AcDbLine
 10
314.822541485735
 20
20.39801445071225
 30
0.0
 11
314.7340152897349
 21
20.50548687071239
 31
0.0
  0
LINE
  5
3F5
330
27D
100
AcDbEntity
  8
06-99
100
AcDbLine
 10
314.7340152897349
 20
20.50548687071239
 30
0.0
 11
314.625751661735
 21
20.59623700271237
 31
0.0
  0
LINE
  5
3F6
330
27D
100
AcDbEntity
  8
06-99
100
AcDbLine
 10
314.625751661735
 20
20.59623700271237
 30
0.0
 11
314.4977292177349
 21
20.67032899871231
 31
0.0
  0
LINE
  5
3F7
330
27D
100
AcDbEntity
  8
06-99
100
AcDbLine
 10
314.4977292177349
 20
20.67032899871231
 30
0.0
 11
314.3499230097348
 21
20.72783413871235
 31
0.0
  0
LINE
  5
3F8
330
27D
100
AcDbEntity
  8
06-99
100
AcDbLine
 10
314.3499230097348
 20
20.72783413871235
 30
0.0
 11
314.1823116537348
 21
20.76882726671238
 31
0.0
  0
LINE
  5
3F9
330
27D
100
AcDbEntity
  8
06-99
100
AcDbLine
 10
314.1823116537348
 20
20.76882726671238
 30
0.0
 11
313.9948737657348
 21
20.79336897071238
 31
0.0
  0
LINE
  5
3FA
330
27D
100
AcDbEntity
  8
06-99
100
AcDbLine
 10
313.9948737657348
 20
20.79336897071238
 30
0.0
 11
313.7875808337349
 21
20.80153409471234
 31
0.0
  0
LINE
  5
3FB
330
27D
100
AcDbEntity
  8
06-99
100
AcDbLine
 10
313.7875808337349
 20
20.80153409471234
 30
0.0
 11
313.7875808337349
 21
20.80153409471234
 31
0.0
  0
LINE
  5
3FC
330
27D
100
AcDbEntity
  8
06-99
100
AcDbLine
 10
313.7875808337349
 20
20.80153409471234
 30
0.0
 11
313.1144053857349
 21
20.80153409471234
 31
0.0
  0
LINE
  5
3FD
330
27D
100
AcDbEntity
  8
06-99
100
AcDbLine
 10
313.1144053857349
 20
20.80153409471234
 30
0.0
 11
313.1144053857349
 21
17.12736016271231
 31
0.0
  0
LINE
  5
3FE
330
27D
100
AcDbEntity
  8
06-99
100
AcDbLine
 10
313.1144053857349
 20
17.12736016271231
 30
0.0
 11
313.448423465735
 21
17.12736016271231
 31
0.0
  0
LINE
  5
3FF
330
27D
100
AcDbEntity
  8
06-99
100
AcDbLine
 10
313.448423465735
 20
17.12736016271231
 30
0.0
 11
313.448423465735
 21
18.87965422271236
 31
0.0
  0
LINE
  5
400
330
27D
100
AcDbEntity
  8
06-99
100
AcDbLine
 10
313.448423465735
 20
18.87965422271236
 30
0.0
 11
313.6488378777349
 21
18.87965422271236
 31
0.0
  0
LINE
  5
401
330
27D
100
AcDbEntity
  8
06-99
100
AcDbLine
 10
313.6488378777349
 20
18.87965422271236
 30
0.0
 11
314.9386387857348
 21
17.12736016271231
 31
0.0
  0
LINE
  5
402
330
27D
100
AcDbEntity
  8
06-99
100
AcDbLine
 10
314.9386387857348
 20
17.12736016271231
 30
0.0
 11
315.3445997697348
 21
17.12736016271231
 31
0.0
  0
TEXT
  5
403
330
27D
100
AcDbEntity
  8
06-99
100
AcDbText
 10
294.6083578687944
 20
10.63320974709819
 30
0.0
 40
1.4256
  1
GmbH & Co KG
 41
1.199203187251
 51
15.0
  7
ROMAND8
 72
     5
 11
315.0419578687945
 21
10.63320974709819
 31
0.0
100
AcDbText
  0
TEXT
  5
405
330
27D
100
AcDbEntity
  8
06-99
100
AcDbText
 10
294.7098146233783
 20
8.391016474674643
 30
0.0
 40
1.4256
  1
72774 Reutlingen
 50
0.5663244663116128
 41
1.087840993687879
 51
15.0
  7
ROMAND8
 72
     5
 11
314.9434146233783
 21
8.591016474674631
 31
0.0
100
AcDbText
  0
TEXT
  5
406
330
27D
100
AcDbEntity
  8
08-99
100
AcDbText
 10
282.4141179695723
 20
49.4500923918223
 30
0.0
 40
2.25
  1
Zul. Abw.
 51
15.0
  7
ROMANS8
100
AcDbText
  0
TEXT
  5
407
330
27D
100
AcDbEntity
  8
08-99
100
AcDbText
 10
332.2099260900184
 20
50.28616492075241
 30
0.0
 40
2.0
  1
Mat. Art.
 51
15.0
  7
ROMANS8
100
AcDbText
  0
TEXT
  5
408
330
27D
100
AcDbEntity
  8
08-99
100
AcDbText
 10
364.4865307401076
 20
50.40431414472369
 30
0.0
 40
2.0
  1
Oberfläche:
 51
15.0
  7
ROMANS8
100
AcDbText
  0
TEXT
  5
409
330
27D
100
AcDbEntity
  8
08-99
100
AcDbText
 10
393.7625376083154
 20
42.73764747805694
 30
0.0
 40
2.0
  1
Blech Dicke:
 51
15.0
  7
ROMANS8
100
AcDbText
  0
TEXT
  5
40A
330
27D
100
AcDbEntity
  8
08-99
100
AcDbText
 10
396.4380277982925
 20
50.28616492075252
 30
0.0
 40
2.0
  1
Maßstab:
 51
15.0
  7
ROMANS8
100
AcDbText
  0
LINE
  5
40B
330
27D
100
AcDbEntity
  8
01-99
100
AcDbLine
 10
323.9999997697348
 20
47.88888965037898
 30
0.0
 11
300.9999997697348
 21
47.88888965037898
 31
0.0
  0
LINE
  5
40C
330
27D
100
AcDbEntity
  8
01-99
100
AcDbLine
 10
323.9999997697348
 20
45.33333409471225
 30
0.0
 11
300.9999997697348
 21
45.33333409471225
 31
0.0
  0
LINE
  5
40D
330
27D
100
AcDbEntity
  8
01-99
100
AcDbLine
 10
323.9999997697349
 20
41.50000076137894
 30
0.0
 11
300.9999997697347
 21
41.50000076137897
 31
0.0
  0
ATTDEF
  5
40E
330
27D
100
AcDbEntity
  8
06-99
100
AcDbText
 10
325.495446508912
 20
27.18783945866119
 30
0.0
 40
4.5
  1

 41
0.9
  7
ROMANS8
100
AcDbAttributeDefinition
280
     0
  3
Benennung/Teil
  2
TEILE
 70
     0
280
     0
  0
ATTDEF
  5
40F
330
27D
100
AcDbEntity
  8
06-99
100
AcDbText
 10
325.495446508912
 20
19.89177436492207
 30
0.0
 40
4.5
  1

 41
0.9
  7
ROMANS8
100
AcDbAttributeDefinition
280
     0
  3
Benennung/Teil2
  2
TEILE2
 70
     0
280
     0
  0
ATTDEF
  5
410
330
27D
100
AcDbEntity
  8
06-99
100
AcDbText
 10
400.3473859814493
 20
46.33333409471231
 30
0.0
 40
3.375
  1

  7
ROMANS8
100
AcDbAttributeDefinition
280
     0
  3
Maßstab
  2
:
 70
     0
280
     0
  0
ATTDEF
  5
411
330
27D
100
AcDbEntity
  8
06-99
100
AcDbText
 10
301.9970675691022
 20
28.44168622941026
 30
0.0
 40
2.5
  1

 41
0.9
  7
ROMANS8
100
AcDbAttributeDefinition
280
     0
  3
Name
  2
NAME
 70
     0
280
     0
  0
ATTDEF
  5
412
330
27D
100
AcDbEntity
  8
06-99
100
AcDbText
 10
288.4931462216289
 20
28.46123593549021
 30
0.0
 40
2.5
  1

 50
359.9144597696142
 41
0.9542572414211148
  7
ROMANS8
 72
     5
 11
299.7397368901736
 21
28.44444522804565
 31
0.0
100
AcDbAttributeDefinition
280
     0
  3
Datum
  2
DATUM
 70
     0
280
     0
  0
ATTDEF
  5
413
330
27D
100
AcDbEntity
  8
06-99
100
AcDbText
 10
387.5063437368931
 20
8.492900561667681
 30
0.0
 40
2.99376
  1

  7
ROMANS8
100
AcDbAttributeDefinition
280
     0
  3
Ident-Nummer
  2
ID.NR
 70
     0
280
     0
  0
ATTDEF
  5
414
330
27D
100
AcDbEntity
  8
06-99
100
AcDbText
 10
325.7312660254454
 20
38.66666740582343
 30
0.0
 40
3.0
  1

 41
0.9
  7
ROMANS8
100
AcDbAttributeDefinition
280
     0
  3
Zuschnitts.Länge
  2
LÄNGE
 70
     0
280
     0
  0
ATTDEF
  5
415
330
27D
100
AcDbEntity
  8
06-99
100
AcDbText
 10
359.1808046815046
 20
38.6781046318238
 30
0.0
 40
3.0
  1

 41
0.9
  7
ROMANS8
100
AcDbAttributeDefinition
280
     0
  3
Zuschnitts Breite
  2
BREITE
 70
     0
280
     0
  0
ATTDEF
  5
416
330
27D
100
AcDbEntity
  8
06-99
100
AcDbText
 10
399.6090918964667
 20
38.66666742804574
 30
0.0
 40
3.09375
  1

  7
ROMANS8
100
AcDbAttributeDefinition
280
     0
  3
Blech.Dicke
  2
1.0
 70
     0
280
     0
  0
ATTDEF
  5
417
330
27D
100
AcDbEntity
  8
06-99
100
AcDbText
 10
373.1277853711375
 20
46.33333409471243
 30
0.0
 40
3.0
  1

  7
ROMANS8
 72
     1
 11
373.1277853711375
 21
46.33333409471243
 31
0.0
100
AcDbAttributeDefinition
280
     0
  3
Oberfläche
  2
IV
 70
     0
280
     0
  0
ATTDEF
  5
418
330
27D
100
AcDbEntity
  8
06-99
100
AcDbText
 10
332.2747403058506
 20
46.33333409471219
 30
0.0
 40
3.375
  1
1.4301
  7
ROMANS8
100
AcDbAttributeDefinition
280
     0
  3
Mat.Art
  2
1.4301
 70
     0
280
     0
  0
ATTDEF
  5
419
330
27D
100
AcDbEntity
  8
06-99
100
AcDbText
 10
355.0006336566149
 20
8.504397365733609
 30
0.0
 40
3.168
  1

 41
0.9
  7
ROMANS8
100
AcDbAttributeDefinition
280
     0
  3
Auftrags Nr.
  2
AUFTRAGS.NR.
 70
     0
280
     0
  0
ATTDEF
  5
41A
330
27D
100
AcDbEntity
  8
06-99
100
AcDbText
 10
325.4999997697348
 20
8.500000761378998
 30
0.0
 40
3.168
  1

 41
0.9
  7
ROMANS8
100
AcDbAttributeDefinition
280
     0
  3
Sonder-NR,WPS
  2
SONDER-NR
 70
     0
280
     0
  0
ATTDEF
  5
41B
330
27D
100
AcDbEntity
  8
06-99
100
AcDbText
 10
255.4997507647431
 20
7.601810830638839
 30
0.0
 40
1.5
  1

 41
0.9
  7
ROMANS8
100
AcDbAttributeDefinition
280
     0
  3
ERSETZT.Durch
  2
ERSETZT.DURCH
 70
     0
280
     0
  0
ATTDEF
  5
41C
330
27D
100
AcDbEntity
  8
06-99
100
AcDbText
 10
230.4994675499334
 20
7.597457159251405
 30
0.0
 40
1.5
  1

 41
0.9
  7
ROMANS8
100
AcDbAttributeDefinition
280
     0
  3
ERSETZT.Für
  2
ERSETZT.FÜR
 70
     0
280
     0
  0
ATTDEF
  5
41D
330
27D
100
AcDbEntity
  8
06-99
100
AcDbText
 10
309.0037152733153
 20
48.66851190138698
 30
0.0
 40
1.287
  1
DIN A3
  7
ROMANS8
 72
     1
 11
312.2518581304581
 21
48.66851190138698
 31
0.0
100
AcDbAttributeDefinition
280
     0
  3
Format
  2
FORMAT
 70
     0
280
     0
  0
ATTDEF
  5
41E
330
27D
100
AcDbEntity
  8
06-99
100
AcDbText
 10
304.9914283411633
 20
38.39666742804565
 30
0.0
 40
2.34
  1
DIN 2768
  7
ROMANS8
 72
     1
 11
313.0142854840205
 21
38.39666742804565
 31
0.0
100
AcDbAttributeDefinition
280
     0
  3
Norm / Kanten
  2
NORM2
 70
     0
280
     0
  0
ATTDEF
  5
41F
330
27D
100
AcDbEntity
  8
06-99
100
AcDbText
 10
301.8157140554491
 20
42.23000076137895
 30
0.0
 40
2.34
  1
DIN 6930-M
  7
ROMANS8
 72
     1
 11
312.5128569125919
 21
42.23000076137895
 31
0.0
100
AcDbAttributeDefinition
280
     0
  3
Norm / Fräsen
  2
NORM1
 70
     0
280
     0
  0
ENDBLK
  5
420
330
27D
100
AcDbEntity
  8
0
100
AcDbBlockEnd
  0
BLOCK
  5
23E
330
23D
100
AcDbEntity
  8
0
100
AcDbBlockBegin
  2
*D1
 70
     1
 10
0.0
 20
0.0
 30
0.0
  3
*D1
  1

  0
LINE
  5
23F
330
23D
100
AcDbEntity
  8
09-01
 62
     4
440
 16777216
370
    -2
100
AcDbLine
 10
895.8404526683553
 20
843.923696130161
 30
0.0
 11
1031.157096656545
 21
843.923696130161
 31
0.0
  0
LINE
  5
240
330
23D
100
AcDbEntity
  8
09-01
 62
     4
440
 16777216
370
    -2
100
AcDbLine
 10
895.8404526683553
 20
800.9236961301683
 30
0.0
 11
1031.157096656545
 21
800.9236961301683
 31
0.0
  0
LINE
  5
241
330
23D
100
AcDbEntity
  8
09-01
 62
     4
440
 16777216
370
    -2
100
AcDbLine
 10
1021.157096656545
 20
868.923696130161
 30
0.0
 11
1021.157096656545
 21
893.923696130161
 31
0.0
  0
LINE
  5
242
330
23D
100
AcDbEntity
  8
09-01
 62
     4
440
 16777216
370
    -2
100
AcDbLine
 10
1021.157096656545
 20
775.9236961301683
 30
0.0
 11
1021.157096656545
 21
750.9236961301683
 31
0.0
  0
MTEXT
  5
243
330
23D
100
AcDbEntity
  8
09-01
 62
     1
440
 16777216
100
AcDbMText
 10
997.976089787233
 20
896.3879844794574
 30
0.0
 40
25.0
 41
0.0
 46
0.0
 71
     5
 72
     1
  1
8.6
 11
0.0000000000000001
 21
1.0
 31
0.0
 73
     1
 44
1.0
  0
LINE
  5
244
330
23D
100
AcDbEntity
  8
09-01
 62
     4
440
 16777216
370
    -2
100
AcDbLine
 10
1021.157096656545
 20
843.923696130161
 30
0.0
 11
1021.157096656545
 21
800.9236961301683
 31
0.0
  0
SOLID
  5
245
330
23D
100
AcDbEntity
  8
09-01
 62
     4
440
 16777216
100
AcDbTrace
 10
1016.990429989878
 20
868.923696130161
 30
0.0
 11
1025.323763323211
 21
868.923696130161
 31
0.0
 12
1021.157096656545
 22
843.923696130161
 32
0.0
 13
1021.157096656545
 23
843.923696130161
 33
0.0
  0
SOLID
  5
246
330
23D
100
AcDbEntity
  8
09-01
 62
     4
440
 16777216
100
AcDbTrace
 10
1016.990429989878
 20
775.9236961301683
 30
0.0
 11
1025.323763323211
 21
775.9236961301683
 31
0.0
 12
1021.157096656545
 22
800.9236961301683
 32
0.0
 13
1021.157096656545
 23
800.9236961301683
 33
0.0
  0
POINT
  5
247
330
23D
100
AcDbEntity
  8
DEFPOINTS
 62
     0
440
 16777216
100
AcDbPoint
 10
885.8404526683553
 20
843.923696130161
 30
0.0
  0
POINT
  5
248
330
23D
100
AcDbEntity
  8
DEFPOINTS
 62
     0
440
 16777216
100
AcDbPoint
 10
885.8404526683553
 20
800.9236961301683
 30
0.0
  0
POINT
  5
249
330
23D
100
AcDbEntity
  8
DEFPOINTS
 62
     0
440
 16777216
100
AcDbPoint
 10
1021.157096656545
 20
800.9236961301683
 30
0.0
  0
ENDBLK
  5
24A
330
23D
100
AcDbEntity
  8
0
100
AcDbBlockEnd
  0
BLOCK
  5
22F
330
22E
100
AcDbEntity
  8
0
100
AcDbBlockBegin
  2
*D2
 70
     1
 10
0.0
 20
0.0
 30
0.0
  3
*D2
  1

  0
LINE
  5
230
330
22E
100
AcDbEntity
  8
09-01
 62
     4
440
 16777216
370
    -2
100
AcDbLine
 10
635.8404526683552
 20
781.9236961301592
 30
0.0
 11
635.8404526683552
 21
559.7488655428658
 31
0.0
  0
LINE
  5
231
330
22E
100
AcDbEntity
  8
09-01
 62
     4
440
 16777216
370
    -2
100
AcDbLine
 10
885.8404526683553
 20
781.9236961301592
 30
0.0
 11
885.8404526683553
 21
559.7488655428658
 31
0.0
  0
LINE
  5
232
330
22E
100
AcDbEntity
  8
09-01
 62
     4
440
 16777216
370
    -2
100
AcDbLine
 10
660.8404526683552
 20
569.7488655428657
 30
0.0
 11
860.8404526683553
 21
569.7488655428657
 31
0.0
  0
SOLID
  5
233
330
22E
100
AcDbEntity
  8
09-01
 62
     4
440
 16777216
100
AcDbTrace
 10
660.8404526683552
 20
573.9155322095324
 30
0.0
 11
660.8404526683552
 21
565.5821988761991
 31
0.0
 12
635.8404526683552
 22
569.7488655428657
 32
0.0
 13
635.8404526683552
 23
569.7488655428657
 33
0.0
  0
SOLID
  5
234
330
22E
100
AcDbEntity
  8
09-01
 62
     4
440
 16777216
100
AcDbTrace
 10
860.8404526683553
 20
573.9155322095324
 30
0.0
 11
860.8404526683553
 21
565.5821988761991
 31
0.0
 12
885.8404526683553
 22
569.7488655428657
 32
0.0
 13
885.8404526683553
 23
569.7488655428657
 33
0.0
  0
MTEXT
  5
235
330
22E
100
AcDbEntity
  8
09-01
 62
     1
440
 16777216
100
AcDbMText
 10
760.8404526683552
 20
592.2488655428658
 30
0.0
 40
25.0
 41
0.0
 46
0.0
 71
     5
 72
     1
  1
50
 73
     1
 44
1.0
  0
POINT
  5
236
330
22E
100
AcDbEntity
  8
DEFPOINTS
 62
     0
440
 16777216
100
AcDbPoint
 10
635.8404526683552
 20
791.9236961301592
 30
0.0
  0
POINT
  5
237
330
22E
100
AcDbEntity
  8
DEFPOINTS
 62
     0
440
 16777216
100
AcDbPoint
 10
885.8404526683553
 20
791.9236961301592
 30
0.0
  0
POINT
  5
238
330
22E
100
AcDbEntity
  8
DEFPOINTS
 62
     0
440
 16777216
100
AcDbPoint
 10
885.8404526683553
 20
569.7488655428657
 30
0.0
  0
ENDBLK
  5
239
330
22E
100
AcDbEntity
  8
0
100
AcDbBlockEnd
  0
BLOCK
  5
1FC
330
1FB
100
AcDbEntity
  8
0
100
AcDbBlockBegin
  2
*D3
 70
     1
 10
0.0
 20
0.0
 30
0.0
  3
*D3
  1

  0
LINE
  5
1FD
330
1FB
100
AcDbEntity
  8
09-01
 62
     4
440
 16777216
370
    -2
100
AcDbLine
 10
623.5733487705176
 20
959.6908000279892
 30
0.0
 11
597.0936405735596
 21
986.1705082249477
 31
0.0
  0
LINE
  5
1FE
330
1FB
100
AcDbEntity
  8
09-01
 62
     4
440
 16777216
370
    -2
100
AcDbLine
 10
562.5902837145857
 20
822.423696130161
 30
0.0
 11
529.26749020854
 21
822.423696130161
 31
0.0
  0
ARC
  5
1FF
330
1FB
100
AcDbEntity
  8
09-01
 62
     4
440
 16777216
370
    -2
100
AcDbCircle
 10
760.840452668346
 20
822.423696130161
 30
0.0
 40
221.572962459806
100
AcDbArc
 50
141.468096827798
 51
173.5319031722019
  0
SOLID
  5
200
330
1FB
100
AcDbEntity
  8
09-01
 62
     4
440
 16777216
100
AcDbTrace
 10
584.4046748461836
 20
963.2280137084926
 30
0.0
 11
590.6202745092526
 21
957.6772691392569
 31
0.0
 12
604.1647083854249
 22
979.0994404130824
 32
0.0
 13
604.1647083854249
 23
979.0994404130824
 33
0.0
  0
SOLID
  5
201
330
1FB
100
AcDbEntity
  8
09-01
 62
     4
440
 16777216
100
AcDbTrace
 10
544.8378917428274
 20
847.1488197467968
 30
0.0
 11
536.5178299463894
 21
847.6189432921529
 31
0.0
 12
539.26749020854
 22
822.423696130161
 32
0.0
 13
539.26749020854
 23
822.423696130161
 33
0.0
  0
MTEXT
  5
202
330
1FB
100
AcDbEntity
  8
09-01
 62
     1
440
 16777216
100
AcDbMText
 10
535.3464382123356
 20
915.8263751517953
 30
0.0
 40
25.0
 41
0.0
 46
0.0
 71
     5
 72
     1
  1
45\U+00B0
 11
0.3826834323650898
 21
0.9238795325112867
 31
0.0
 73
     1
 44
1.0
  0
POINT
  5
203
330
1FB
100
AcDbEntity
  8
DEFPOINTS
 62
     0
440
 16777216
100
AcDbPoint
 10
568.9526383863783
 20
933.2101773600641
 30
0.0
  0
POINT
  5
204
330
1FB
100
AcDbEntity
  8
DEFPOINTS
 62
     0
440
 16777216
100
AcDbPoint
 10
944.9654526683531
 20
822.4236961301608
 30
0.0
  0
POINT
  5
205
330
1FB
100
AcDbEntity
  8
DEFPOINTS
 62
     0
440
 16777216
100
AcDbPoint
 10
891.0364887543272
 20
692.2276600441796
 30
0.0
  0
POINT
  5
206
330
1FB
100
AcDbEntity
  8
DEFPOINTS
 62
     0
440
 16777216
100
AcDbPoint
 10
630.6444165823831
 20
952.6197322161239
 30
0.0
  0
POINT
  5
207
330
1FB
100
AcDbEntity
  8
DEFPOINTS
 62
     0
440
 16777216
100
AcDbPoint
 10
572.5902837145858
 20
822.423696130161
 30
0.0
  0
ENDBLK
  5
208
330
1FB
100
AcDbEntity
  8
0
100
AcDbBlockEnd
  0
BLOCK
  5
1EB
330
1EA
100
AcDbEntity
  8
0
100
AcDbBlockBegin
  2
*D4
 70
     1
 10
0.0
 20
0.0
 30
0.0
  3
*D4
  1

  0
LINE
  5
1EC
330
1EA
100
AcDbEntity
  8
09-01
 62
     4
440
 16777216
370
    -2
100
AcDbLine
 10
760.8404526683552
 20
1016.548696130164
 30
0.0
 11
760.8404526683553
 21
1131.190878621621
 31
0.0
  0
LINE
  5
1ED
330
1EA
100
AcDbEntity
  8
09-01
 62
     4
440
 16777216
370
    -2
100
AcDbLine
 10
562.5902837145859
 20
822.423696130161
 30
0.0
 11
452.0732701768954
 21
822.4236961301606
 31
0.0
  0
ARC
  5
1EE
330
1EA
100
AcDbEntity
  8
09-01
 62
     4
440
 16777216
370
    -2
100
AcDbCircle
 10
760.8404526683552
 20
822.4236961301611
 30
0.0
 40
298.7671824914598
100
AcDbArc
 50
94.7957499847144
 51
175.2042500152857
  0
SOLID
  5
1EF
330
1EA
100
AcDbEntity
  8
09-01
 62
     4
440
 16777216
100
AcDbTrace
 10
735.688015614504
 20
1124.307931935756
 30
0.0
 11
736.0366705966144
 21
1115.981895414824
 31
0.0
 12
760.8404526683552
 22
1121.190878621621
 32
0.0
 13
760.8404526683552
 23
1121.190878621621
 33
0.0
  0
SOLID
  5
1F0
330
1EA
100
AcDbEntity
  8
09-01
 62
     4
440
 16777216
100
AcDbTrace
 10
467.282253383692
 20
847.2274782019018
 30
0.0
 11
458.95621686276
 21
847.576133184012
 31
0.0
 12
462.0732701768956
 22
822.4236961301608
 32
0.0
 13
462.0732701768956
 23
822.4236961301608
 33
0.0
  0
MTEXT
  5
1F1
330
1EA
100
AcDbEntity
  8
09-01
 62
     1
440
 16777216
100
AcDbMText
 10
533.6702493559479
 20
1049.593899442568
 30
0.0
 40
25.0
 41
0.0
 46
0.0
 71
     5
 72
     1
  1
90\U+00B0
 11
0.7071067811865476
 21
0.7071067811865475
 31
0.0
 73
     1
 44
1.0
  0
POINT
  5
1F2
330
1EA
100
AcDbEntity
  8
DEFPOINTS
 62
     0
440
 16777216
100
AcDbPoint
 10
611.4568614226254
 20
1081.163665984866
 30
0.0
  0
POINT
  5
1F3
330
1EA
100
AcDbEntity
  8
DEFPOINTS
 62
     0
440
 16777216
100
AcDbPoint
 10
944.9654526683534
 20
822.4236961301611
 30
0.0
  0
POINT
  5
1F4
330
1EA
100
AcDbEntity
  8
DEFPOINTS
 62
     0
440
 16777216
100
AcDbPoint
 10
760.8404526683552
 20
638.2986961301573
 30
0.0
  0
POINT
  5
1F5
330
1EA
100
AcDbEntity
  8
DEFPOINTS
 62
     0
440
 16777216
100
AcDbPoint
 10
760.8404526683552
 20
1006.548696130164
 30
0.0
  0
POINT
  5
1F6
330
1EA
100
AcDbEntity
  8
DEFPOINTS
 62
     0
440
 16777216
100
AcDbPoint
 10
572.5902837145858
 20
822.423696130161
 30
0.0
  0
ENDBLK
  5
1F7
330
1EA
100
AcDbEntity
  8
0
100
AcDbBlockEnd
  0
BLOCK
  5
147
330
146
100
AcDbEntity
  8
0
100
AcDbBlockBegin
  2
*D5
 70
     1
 10
0.0
 20
0.0
 30
0.0
  3
*D5
  1

  0
LINE
  5
148
330
146
100
AcDbEntity
  8
0
 62
     4
370
    -2
100
AcDbLine
 10
1906.641651399326
 20
2320.329378513651
 30
0.0
 11
1731.371653505785
 21
2320.329378513651
 31
0.0
  0
LINE
  5
149
330
146
100
AcDbEntity
  8
0
 62
     4
370
    -2
100
AcDbLine
 10
2810.141651399327
 20
1420.329378513651
 30
0.0
 11
1731.371653505784
 21
1420.329378513651
 31
0.0
  0
LINE
  5
14A
330
146
100
AcDbEntity
  8
0
 62
     4
370
    -2
100
AcDbLine
 10
1741.371653505785
 20
2295.329378513651
 30
0.0
 11
1741.371653505785
 21
1445.329378513651
 31
0.0
  0
SOLID
  5
14B
330
146
100
AcDbEntity
  8
0
 62
     4
100
AcDbTrace
 10
1737.204986839118
 20
2295.329378513651
 30
0.0
 11
1745.538320172451
 21
2295.329378513651
 31
0.0
 12
1741.371653505785
 22
2320.329378513651
 32
0.0
 13
1741.371653505785
 23
2320.329378513651
 33
0.0
  0
SOLID
  5
14C
330
146
100
AcDbEntity
  8
0
 62
     4
100
AcDbTrace
 10
1737.204986839118
 20
1445.329378513651
 30
0.0
 11
1745.538320172451
 21
1445.329378513651
 31
0.0
 12
1741.371653505785
 22
1420.329378513651
 32
0.0
 13
1741.371653505785
 23
1420.329378513651
 33
0.0
  0
MTEXT
  5
14D
330
146
100
AcDbEntity
  8
0
 62
     1
100
AcDbMText
 10
1718.871653505784
 20
1870.329378513651
 30
0.0
 40
25.0
 41
0.0
 46
0.0
 71
     5
 72
     1
  1
L1
 11
0.0000000000000001
 21
1.0
 31
0.0
 73
     1
 44
1.0
  0
POINT
  5
14E
330
146
100
AcDbEntity
  8
DEFPOINTS
 62
     0
100
AcDbPoint
 10
1916.641651399326
 20
2320.329378513651
 30
0.0
  0
POINT
  5
14F
330
146
100
AcDbEntity
  8
DEFPOINTS
 62
     0
100
AcDbPoint
 10
2820.141651399326
 20
1420.329378513651
 30
0.0
  0
POINT
  5
150
330
146
100
AcDbEntity
  8
DEFPOINTS
 62
     0
100
AcDbPoint
 10
1741.371653505785
 20
1420.329378513651
 30
0.0
  0
ENDBLK
  5
151
330
146
100
AcDbEntity
  8
0
100
AcDbBlockEnd
  0
BLOCK
  5
135
330
134
100
AcDbEntity
  8
0
100
AcDbBlockBegin
  2
*D6
 70
     1
 10
0.0
 20
0.0
 30
0.0
  3
*D6
  1

  0
LINE
  5
136
330
134
100
AcDbEntity
  8
0
 62
     4
370
    -2
100
AcDbLine
 10
1938.141651399334
 20
2312.329378513648
 30
0.0
 11
1938.141651399334
 21
2494.370756301041
 31
0.0
  0
LINE
  5
137
330
134
100
AcDbEntity
  8
0
 62
     4
370
    -2
100
AcDbLine
 10
2838.141651399331
 20
2107.32937851364
 30
0.0
 11
2838.141651399331
 21
2494.370756301041
 31
0.0
  0
LINE
  5
138
330
134
100
AcDbEntity
  8
0
 62
     4
370
    -2
100
AcDbLine
 10
1963.141651399334
 20
2484.370756301041
 30
0.0
 11
2813.141651399331
 21
2484.370756301041
 31
0.0
  0
SOLID
  5
139
330
134
100
AcDbEntity
  8
0
 62
     4
100
AcDbTrace
 10
1963.141651399334
 20
2488.537422967708
 30
0.0
 11
1963.141651399334
 21
2480.204089634375
 31
0.0
 12
1938.141651399334
 22
2484.370756301041
 32
0.0
 13
1938.141651399334
 23
2484.370756301041
 33
0.0
  0
SOLID
  5
13A
330
134
100
AcDbEntity
  8
0
 62
     4
100
AcDbTrace
 10
2813.141651399331
 20
2488.537422967708
 30
0.0
 11
2813.141651399331
 21
2480.204089634375
 31
0.0
 12
2838.141651399331
 22
2484.370756301041
 32
0.0
 13
2838.141651399331
 23
2484.370756301041
 33
0.0
  0
MTEXT
  5
13B
330
134
100
AcDbEntity
  8
0
 62
     1
100
AcDbMText
 10
2388.141651399332
 20
2506.870756301041
 30
0.0
 40
25.0
 41
0.0
 46
0.0
 71
     5
 72
     1
  1
L3
 73
     1
 44
1.0
  0
POINT
  5
13C
330
134
100
AcDbEntity
  8
DEFPOINTS
 62
     0
100
AcDbPoint
 10
1938.141651399334
 20
2302.329378513647
 30
0.0
  0
POINT
  5
13D
330
134
100
AcDbEntity
  8
DEFPOINTS
 62
     0
100
AcDbPoint
 10
2838.141651399331
 20
2097.32937851364
 30
0.0
  0
POINT
  5
13E
330
134
100
AcDbEntity
  8
DEFPOINTS
 62
     0
100
AcDbPoint
 10
2838.141651399331
 20
2484.370756301041
 30
0.0
  0
ENDBLK
  5
13F
330
134
100
AcDbEntity
  8
0
100
AcDbBlockEnd
  0
BLOCK
  5
F1
330
F0
100
AcDbEntity
  8
0
100
AcDbBlockBegin
  2
*D7
 70
     1
 10
0.0
 20
0.0
 30
0.0
  3
*D7
  1

  0
LINE
  5
F2
330
F0
100
AcDbEntity
  8
0
 62
     4
370
    -2
100
AcDbLine
 10
1906.641651399326
 20
2320.329378513651
 30
0.0
 11
1809.690890911304
 21
2320.329378513651
 31
0.0
  0
LINE
  5
F3
330
F0
100
AcDbEntity
  8
0
 62
     4
370
    -2
100
AcDbLine
 10
2016.641651399334
 20
2213.829378513648
 30
0.0
 11
1809.690890911304
 21
2213.829378513648
 31
0.0
  0
LINE
  5
F4
330
F0
100
AcDbEntity
  8
0
 62
     4
370
    -2
100
AcDbLine
 10
1819.690890911304
 20
2295.329378513651
 30
0.0
 11
1819.690890911304
 21
2238.829378513647
 31
0.0
  0
SOLID
  5
F5
330
F0
100
AcDbEntity
  8
0
 62
     4
100
AcDbTrace
 10
1815.524224244638
 20
2295.329378513651
 30
0.0
 11
1823.857557577971
 21
2295.329378513651
 31
0.0
 12
1819.690890911304
 22
2320.329378513651
 32
0.0
 13
1819.690890911304
 23
2320.329378513651
 33
0.0
  0
SOLID
  5
F6
330
F0
100
AcDbEntity
  8
0
 62
     4
100
AcDbTrace
 10
1815.524224244638
 20
2238.829378513647
 30
0.0
 11
1823.857557577971
 21
2238.829378513647
 31
0.0
 12
1819.690890911304
 22
2213.829378513648
 32
0.0
 13
1819.690890911304
 23
2213.829378513648
 33
0.0
  0
MTEXT
  5
F7
330
F0
100
AcDbEntity
  8
0
 62
     1
100
AcDbMText
 10
1797.190890911304
 20
2267.07937851365
 30
0.0
 40
25.0
 41
0.0
 46
0.0
 71
     5
 72
     1
  1
106
 11
0.0000000000000001
 21
1.0
 31
0.0
 73
     1
 44
1.0
  0
POINT
  5
F8
330
F0
100
AcDbEntity
  8
DEFPOINTS
 62
     0
100
AcDbPoint
 10
1916.641651399326
 20
2320.329378513651
 30
0.0
  0
POINT
  5
F9
330
F0
100
AcDbEntity
  8
DEFPOINTS
 62
     0
100
AcDbPoint
 10
2026.641651399334
 20
2213.829378513648
 30
0.0
  0
POINT
  5
FA
330
F0
100
AcDbEntity
  8
DEFPOINTS
 62
     0
100
AcDbPoint
 10
1819.690890911304
 20
2213.829378513648
 30
0.0
  0
ENDBLK
  5
FB
330
F0
100
AcDbEntity
  8
0
100
AcDbBlockEnd
  0
BLOCK
  5
E2
330
E1
100
AcDbEntity
  8
0
100
AcDbBlockBegin
  2
*D8
 70
     1
 10
0.0
 20
0.0
 30
0.0
  3
*D8
  1

  0
LINE
  5
E3
330
E1
100
AcDbEntity
  8
0
 62
     4
370
    -2
100
AcDbLine
 10
2838.14165139933
 20
1388.829378513644
 30
0.0
 11
2838.14165139933
 21
1295.815720458885
 31
0.0
  0
LINE
  5
E4
330
E1
100
AcDbEntity
  8
0
 62
     4
370
    -2
100
AcDbLine
 10
2731.641651399328
 20
1498.829378513651
 30
0.0
 11
2731.641651399328
 21
1295.815720458885
 31
0.0
  0
LINE
  5
E5
330
E1
100
AcDbEntity
  8
0
 62
     4
370
    -2
100
AcDbLine
 10
2813.14165139933
 20
1305.815720458885
 30
0.0
 11
2756.641651399328
 21
1305.815720458885
 31
0.0
  0
SOLID
  5
E6
330
E1
100
AcDbEntity
  8
0
 62
     4
100
AcDbTrace
 10
2813.14165139933
 20
1309.982387125552
 30
0.0
 11
2813.14165139933
 21
1301.649053792218
 31
0.0
 12
2838.14165139933
 22
1305.815720458885
 32
0.0
 13
2838.14165139933
 23
1305.815720458885
 33
0.0
  0
SOLID
  5
E7
330
E1
100
AcDbEntity
  8
0
 62
     4
100
AcDbTrace
 10
2756.641651399328
 20
1309.982387125552
 30
0.0
 11
2756.641651399328
 21
1301.649053792218
 31
0.0
 12
2731.641651399328
 22
1305.815720458885
 32
0.0
 13
2731.641651399328
 23
1305.815720458885
 33
0.0
  0
MTEXT
  5
E8
330
E1
100
AcDbEntity
  8
0
 62
     1
100
AcDbMText
 10
2784.891651399329
 20
1328.315720458885
 30
0.0
 40
25.0
 41
0.0
 46
0.0
 71
     5
 72
     1
  1
106
 73
     1
 44
1.0
  0
POINT
  5
E9
330
E1
100
AcDbEntity
  8
DEFPOINTS
 62
     0
100
AcDbPoint
 10
2838.14165139933
 20
1398.829378513644
 30
0.0
  0
POINT
  5
EA
330
E1
100
AcDbEntity
  8
DEFPOINTS
 62
     0
100
AcDbPoint
 10
2731.641651399328
 20
1508.829378513651
 30
0.0
  0
POINT
  5
EB
330
E1
100
AcDbEntity
  8
DEFPOINTS
 62
     0
100
AcDbPoint
 10
2731.641651399328
 20
1305.815720458885
 30
0.0
  0
ENDBLK
  5
EC
330
E1
100
AcDbEntity
  8
0
100
AcDbBlockEnd
  0
BLOCK
  5
D3
330
D2
100
AcDbEntity
  8
0
100
AcDbBlockBegin
  2
*D9
 70
     1
 10
0.0
 20
0.0
 30
0.0
  3
*D9
  1

  0
LINE
  5
D4
330
D2
100
AcDbEntity
  8
0
 62
     4
370
    -2
100
AcDbLine
 10
1916.641651399326
 20
2330.329378513651
 30
0.0
 11
1916.641651399326
 21
2568.675806733726
 31
0.0
  0
LINE
  5
D5
330
D2
100
AcDbEntity
  8
0
 62
     4
370
    -2
100
AcDbLine
 10
2838.141651399331
 20
2182.329378513642
 30
0.0
 11
2838.141651399331
 21
2568.675806733726
 31
0.0
  0
LINE
  5
D6
330
D2
100
AcDbEntity
  8
0
 62
     4
370
    -2
100
AcDbLine
 10
1941.641651399326
 20
2558.675806733726
 30
0.0
 11
2813.141651399331
 21
2558.675806733726
 31
0.0
  0
SOLID
  5
D7
330
D2
100
AcDbEntity
  8
0
 62
     4
100
AcDbTrace
 10
1941.641651399326
 20
2562.842473400392
 30
0.0
 11
1941.641651399326
 21
2554.50914006706
 31
0.0
 12
1916.641651399326
 22
2558.675806733726
 32
0.0
 13
1916.641651399326
 23
2558.675806733726
 33
0.0
  0
SOLID
  5
D8
330
D2
100
AcDbEntity
  8
0
 62
     4
100
AcDbTrace
 10
2813.141651399331
 20
2562.842473400392
 30
0.0
 11
2813.141651399331
 21
2554.50914006706
 31
0.0
 12
2838.141651399331
 22
2558.675806733726
 32
0.0
 13
2838.141651399331
 23
2558.675806733726
 33
0.0
  0
MTEXT
  5
D9
330
D2
100
AcDbEntity
  8
0
 62
     1
100
AcDbMText
 10
2377.391651399328
 20
2581.175806733726
 30
0.0
 40
25.0
 41
0.0
 46
0.0
 71
     5
 72
     1
  1
L4
 73
     1
 44
1.0
  0
POINT
  5
DA
330
D2
100
AcDbEntity
  8
DEFPOINTS
 62
     0
100
AcDbPoint
 10
1916.641651399326
 20
2320.329378513651
 30
0.0
  0
POINT
  5
DB
330
D2
100
AcDbEntity
  8
DEFPOINTS
 62
     0
100
AcDbPoint
 10
2838.141651399331
 20
2172.329378513642
 30
0.0
  0
POINT
  5
DC
330
D2
100
AcDbEntity
  8
DEFPOINTS
 62
     0
100
AcDbPoint
 10
2838.141651399331
 20
2558.675806733726
 30
0.0
  0
ENDBLK
  5
DD
330
D2
100
AcDbEntity
  8
0
100
AcDbBlockEnd
  0
BLOCK
  5
C4
330
C3
100
AcDbEntity
  8
0
100
AcDbBlockBegin
  2
*D10
 70
     1
 10
0.0
 20
0.0
 30
0.0
  3
*D10
  1

  0
LINE
  5
C5
330
C3
100
AcDbEntity
  8
0
 62
     4
370
    -2
100
AcDbLine
 10
1906.641651399326
 20
2320.329378513651
 30
0.0
 11
1656.485311570121
 21
2320.329378513651
 31
0.0
  0
LINE
  5
C6
330
C3
100
AcDbEntity
  8
0
 62
     4
370
    -2
100
AcDbLine
 10
2815.541651399332
 20
1398.829378513644
 30
0.0
 11
1656.48531157012
 21
1398.829378513644
 31
0.0
  0
LINE
  5
C7
330
C3
100
AcDbEntity
  8
0
 62
     4
370
    -2
100
AcDbLine
 10
1666.485311570121
 20
2295.329378513651
 30
0.0
 11
1666.485311570121
 21
1423.829378513644
 31
0.0
  0
SOLID
  5
C8
330
C3
100
AcDbEntity
  8
0
 62
     4
100
AcDbTrace
 10
1662.318644903454
 20
2295.329378513651
 30
0.0
 11
1670.651978236788
 21
2295.329378513651
 31
0.0
 12
1666.485311570121
 22
2320.329378513651
 32
0.0
 13
1666.485311570121
 23
2320.329378513651
 33
0.0
  0
SOLID
  5
C9
330
C3
100
AcDbEntity
  8
0
 62
     4
100
AcDbTrace
 10
1662.318644903454
 20
1423.829378513644
 30
0.0
 11
1670.651978236787
 21
1423.829378513644
 31
0.0
 12
1666.485311570121
 22
1398.829378513644
 32
0.0
 13
1666.485311570121
 23
1398.829378513644
 33
0.0
  0
MTEXT
  5
CA
330
C3
100
AcDbEntity
  8
0
 62
     1
100
AcDbMText
 10
1643.985311570121
 20
1859.579378513648
 30
0.0
 40
25.0
 41
0.0
 46
0.0
 71
     5
 72
     1
  1
L2
 11
0.0000000000000001
 21
1.0
 31
0.0
 73
     1
 44
1.0
  0
POINT
  5
CB
330
C3
100
AcDbEntity
  8
DEFPOINTS
 62
     0
100
AcDbPoint
 10
1916.641651399326
 20
2320.329378513651
 30
0.0
  0
POINT
  5
CC
330
C3
100
AcDbEntity
  8
DEFPOINTS
 62
     0
100
AcDbPoint
 10
2825.541651399332
 20
1398.829378513644
 30
0.0
  0
POINT
  5
CD
330
C3
100
AcDbEntity
  8
DEFPOINTS
 62
     0
100
AcDbPoint
 10
1666.485311570121
 20
1398.829378513644
 30
0.0
  0
ENDBLK
  5
CE
330
C3
100
AcDbEntity
  8
0
100
AcDbBlockEnd
  0
BLOCK
  5
AE
330
AD
100
AcDbEntity
  8
0
100
AcDbBlockBegin
  2
*D11
 70
     1
 10
0.0
 20
0.0
 30
0.0
  3
*D11
  1

  0
LINE
  5
AF
330
AD
100
AcDbEntity
  8
0
 62
     4
370
    -2
100
AcDbLine
 10
1944.141651399349
 20
2764.017791973093
 30
0.0
 11
1815.004390876367
 21
2764.017791973093
 31
0.0
  0
LINE
  5
B0
330
AD
100
AcDbEntity
  8
0
 62
     4
370
    -2
100
AcDbLine
 10
1944.141651399349
 20
2732.017791973093
 30
0.0
 11
1815.004390876367
 21
2732.017791973093
 31
0.0
  0
LINE
  5
B1
330
AD
100
AcDbEntity
  8
0
 62
     4
370
    -2
100
AcDbLine
 10
1825.004390876367
 20
2789.017791973093
 30
0.0
 11
1825.004390876367
 21
2814.017791973093
 31
0.0
  0
LINE
  5
B2
330
AD
100
AcDbEntity
  8
0
 62
     4
370
    -2
100
AcDbLine
 10
1825.004390876367
 20
2707.017791973093
 30
0.0
 11
1825.004390876367
 21
2682.017791973093
 31
0.0
  0
LINE
  5
B3
330
AD
100
AcDbEntity
  8
0
 62
     4
370
    -2
100
AcDbLine
 10
1825.004390876367
 20
2764.017791973093
 30
0.0
 11
1825.004390876367
 21
2732.017791973093
 31
0.0
  0
SOLID
  5
B4
330
AD
100
AcDbEntity
  8
0
 62
     4
100
AcDbTrace
 10
1820.837724209701
 20
2789.017791973093
 30
0.0
 11
1829.171057543034
 21
2789.017791973093
 31
0.0
 12
1825.004390876367
 22
2764.017791973093
 32
0.0
 13
1825.004390876367
 23
2764.017791973093
 33
0.0
  0
SOLID
  5
B5
330
AD
100
AcDbEntity
  8
0
 62
     4
100
AcDbTrace
 10
1820.837724209701
 20
2707.017791973093
 30
0.0
 11
1829.171057543034
 21
2707.017791973093
 31
0.0
 12
1825.004390876367
 22
2732.017791973093
 32
0.0
 13
1825.004390876367
 23
2732.017791973093
 33
0.0
  0
MTEXT
  5
B6
330
AD
100
AcDbEntity
  8
0
 62
     1
100
AcDbMText
 10
1802.504390876367
 20
2748.017791973093
 30
0.0
 40
25.0
 41
0.0
 46
0.0
 71
     5
 72
     1
  1
%%c32
 11
0.0000000000000001
 21
1.0
 31
0.0
 73
     1
 44
1.0
  0
POINT
  5
B7
330
AD
100
AcDbEntity
  8
DEFPOINTS
 62
     0
100
AcDbPoint
 10
1954.141651399349
 20
2764.017791973093
 30
0.0
  0
POINT
  5
B8
330
AD
100
AcDbEntity
  8
DEFPOINTS
 62
     0
100
AcDbPoint
 10
1954.141651399349
 20
2732.017791973093
 30
0.0
  0
POINT
  5
B9
330
AD
100
AcDbEntity
  8
DEFPOINTS
 62
     0
100
AcDbPoint
 10
1825.004390876367
 20
2732.017791973093
 30
0.0
  0
ENDBLK
  5
BA
330
AD
100
AcDbEntity
  8
0
100
AcDbBlockEnd
  0
BLOCK
  5
7D
330
7C
100
AcDbEntity
  8
0
100
AcDbBlockBegin
  2
*D12
 70
     1
 10
0.0
 20
0.0
 30
0.0
  3
*D12
  1

  0
LINE
  5
7E
330
7C
100
AcDbEntity
  8
0
 62
     4
370
    -2
100
AcDbLine
 10
2861.802117133538
 20
2134.829378513648
 30
0.0
 11
2949.505290048488
 21
2134.829378513648
 31
0.0
  0
LINE
  5
7F
330
7C
100
AcDbEntity
  8
0
 62
     4
370
    -2
100
AcDbLine
 10
2700.360992377888
 20
2320.32937851365
 30
0.0
 11
2949.505290048488
 21
2320.32937851365
 31
0.0
  0
LINE
  5
80
330
7C
100
AcDbEntity
  8
0
 62
     4
370
    -2
100
AcDbLine
 10
2939.505290048488
 20
2159.829378513648
 30
0.0
 11
2939.505290048488
 21
2295.32937851365
 31
0.0
  0
MTEXT
  5
81
330
7C
100
AcDbEntity
  8
0
 62
     1
100
AcDbMText
 10
2917.005290048488
 20
2196.59219226552
 30
0.0
 40
25.0
 41
0.0
 46
0.0
 71
     5
 72
     1
  1
185.5
 11
0.0000000000000001
 21
1.0
 31
0.0
 73
     1
 44
1.0
  0
SOLID
  5
82
330
7C
100
AcDbEntity
  8
0
 62
     4
100
AcDbTrace
 10
2935.338623381822
 20
2159.829378513648
 30
0.0
 11
2943.671956715155
 21
2159.829378513648
 31
0.0
 12
2939.505290048488
 22
2134.829378513648
 32
0.0
 13
2939.505290048488
 23
2134.829378513648
 33
0.0
  0
SOLID
  5
83
330
7C
100
AcDbEntity
  8
0
 62
     4
100
AcDbTrace
 10
2935.338623381822
 20
2295.32937851365
 30
0.0
 11
2943.671956715155
 21
2295.32937851365
 31
0.0
 12
2939.505290048488
 22
2320.32937851365
 32
0.0
 13
2939.505290048488
 23
2320.32937851365
 33
0.0
  0
POINT
  5
84
330
7C
100
AcDbEntity
  8
DEFPOINTS
 62
     0
100
AcDbPoint
 10
2851.802117133538
 20
2134.829378513648
 30
0.0
  0
POINT
  5
85
330
7C
100
AcDbEntity
  8
DEFPOINTS
 62
     0
100
AcDbPoint
 10
2690.360992377888
 20
2320.32937851365
 30
0.0
  0
POINT
  5
86
330
7C
100
AcDbEntity
  8
DEFPOINTS
 62
     0
100
AcDbPoint
 10
2939.505290048488
 20
2320.32937851365
 30
0.0
  0
ENDBLK
  5
87
330
7C
100
AcDbEntity
  8
0
100
AcDbBlockEnd
  0
BLOCK
  5
6E
330
6D
100
AcDbEntity
  8
0
100
AcDbBlockBegin
  2
*D13
 70
     1
 10
0.0
 20
0.0
 30
0.0
  3
*D13
  1

  0
LINE
  5
6F
330
6D
100
AcDbEntity
  8
0
 62
     4
370
    -2
100
AcDbLine
 10
2838.141651399331
 20
2192.329378513642
 30
0.0
 11
2838.141651399331
 21
2408.870800949859
 31
0.0
  0
LINE
  5
70
330
6D
100
AcDbEntity
  8
0
 62
     4
370
    -2
100
AcDbLine
 10
2652.641651399331
 20
2338.379315009632
 30
0.0
 11
2652.641651399331
 21
2408.870800949859
 31
0.0
  0
LINE
  5
71
330
6D
100
AcDbEntity
  8
0
 62
     4
370
    -2
100
AcDbLine
 10
2813.141651399331
 20
2398.870800949859
 30
0.0
 11
2677.641651399331
 21
2398.870800949859
 31
0.0
  0
MTEXT
  5
72
330
6D
100
AcDbEntity
  8
0
 62
     1
100
AcDbMText
 10
2724.418781347706
 20
2421.370800949859
 30
0.0
 40
25.0
 41
0.0
 46
0.0
 71
     5
 72
     1
  1
185.5
 73
     1
 44
1.0
  0
SOLID
  5
73
330
6D
100
AcDbEntity
  8
0
 62
     4
100
AcDbTrace
 10
2813.141651399331
 20
2403.037467616525
 30
0.0
 11
2813.141651399331
 21
2394.704134283192
 31
0.0
 12
2838.141651399331
 22
2398.870800949859
 32
0.0
 13
2838.141651399331
 23
2398.870800949859
 33
0.0
  0
SOLID
  5
74
330
6D
100
AcDbEntity
  8
0
 62
     4
100
AcDbTrace
 10
2677.641651399331
 20
2403.037467616525
 30
0.0
 11
2677.641651399331
 21
2394.704134283192
 31
0.0
 12
2652.641651399331
 22
2398.870800949859
 32
0.0
 13
2652.641651399331
 23
2398.870800949859
 33
0.0
  0
POINT
  5
75
330
6D
100
AcDbEntity
  8
DEFPOINTS
 62
     0
100
AcDbPoint
 10
2838.141651399331
 20
2182.329378513642
 30
0.0
  0
POINT
  5
77
330
6D
100
AcDbEntity
  8
DEFPOINTS
 62
     0
100
AcDbPoint
 10
2652.641651399331
 20
2328.379315009632
 30
0.0
  0
POINT
  5
78
330
6D
100
AcDbEntity
  8
DEFPOINTS
 62
     0
100
AcDbPoint
 10
2652.641651399331
 20
2398.870800949859
 30
0.0
  0
ENDBLK
  5
79
330
6D
100
AcDbEntity
  8
0
100
AcDbBlockEnd
  0
ENDSEC
  0
SECTION
  2
ENTITIES
  0
TEXT
  5
66
330
2
100
AcDbEntity
  8
0
100
AcDbText
 10
3925.182576340432
 20
644.401317037493
 30
0.0
 40
32.38341493963675
  1
721.5
100
AcDbText
  0
TEXT
  5
67
330
2
100
AcDbEntity
  8
0
100
AcDbText
 10
3601.348426944066
 20
644.401317037493
 30
0.0
 40
32.38341493963675
  1
821.5
100
AcDbText
  0
TEXT
  5
68
330
2
100
AcDbEntity
  8
0
100
AcDbText
 10
3277.514277547698
 20
644.401317037493
 30
0.0
 40
32.38341493963675
  1
921.5
100
AcDbText
  0
TEXT
  5
69
330
2
100
AcDbEntity
  8
0
100
AcDbText
 10
3925.182576340432
 20
722.6612364749493
 30
0.0
 40
32.38341493963675
  1
700
100
AcDbText
  0
TEXT
  5
6A
330
2
100
AcDbEntity
  8
0
100
AcDbText
 10
3601.348426944066
 20
722.6612364749493
 30
0.0
 40
32.38341493963675
  1
800
100
AcDbText
  0
TEXT
  5
6B
330
2
100
AcDbEntity
  8
0
100
AcDbText
 10
3277.514277547698
 20
722.6612364749493
 30
0.0
 40
32.38341493963675
  1
900
100
AcDbText
  0
DIMENSION
  5
6C
330
2
100
AcDbEntity
  8
0
100
AcDbDimension
280
     0
  2
*D13
 10
2652.641651399331
 20
2398.870800949859
 30
0.0
 11
2724.418781347706
 21
2421.370800949859
 31
0.0
 70
   128
 71
     5
 42
185.5
 73
     0
 74
     0
 75
     0
  3
Wagner$0
100
AcDbAlignedDimension
 13
2838.141651399331
 23
2182.329378513642
 33
0.0
 14
2652.641651399331
 24
2328.379315009632
 34
0.0
100
AcDbRotatedDimension
1001
ACAD
1000
DSTYLE
1002
{
1070
    40
1040
10.0
1002
}
  0
DIMENSION
  5
7B
330
2
100
AcDbEntity
  8
0
100
AcDbDimension
280
     0
  2
*D12
 10
2939.505290048488
 20
2320.32937851365
 30
0.0
 11
2917.005290048488
 21
2196.59219226552
 31
0.0
 70
   128
 71
     5
 42
185.5000000000027
 73
     0
 74
     0
 75
     0
  3
Wagner$0
100
AcDbAlignedDimension
 13
2851.802117133538
 23
2134.829378513648
 33
0.0
 14
2690.360992377888
 24
2320.32937851365
 34
0.0
 50
90.0
100
AcDbRotatedDimension
1001
ACAD
1000
DSTYLE
1002
{
1070
    40
1040
10.0
1002
}
  0
LINE
  5
88
330
2
100
AcDbEntity
  8
0
100
AcDbLine
 10
2542.554423756023
 20
628.8256042904265
 30
0.0
 11
4129.99998466965
 21
628.8256042904265
 31
0.0
  0
TEXT
  5
89
330
2
100
AcDbEntity
  8
0
100
AcDbText
 10
3042.938818593213
 20
641.7026991258569
 30
0.0
 40
32.38341493963675
  1
L4
100
AcDbText
  0
LINE
  5
8A
330
2
100
AcDbEntity
  8
0
100
AcDbLine
 10
2761.159553554795
 20
1012.029347742795
 30
0.0
 11
3135.310011635827
 21
1012.029347742795
 31
0.0
  0
LINE
  5
8B
330
2
100
AcDbEntity
  8
0
100
AcDbLine
 10
4105.304329279958
 20
1012.029347742796
 30
0.0
 11
3829.353360118001
 21
1012.029347742796
 31
0.0
  0
LINE
  5
8C
330
2
100
AcDbEntity
  8
0
100
AcDbLine
 10
3781.470179883591
 20
1012.029347742796
 30
0.0
 11
3505.519210721633
 21
1012.029347742796
 31
0.0
  0
LINE
  5
8D
330
2
100
AcDbEntity
  8
0
100
AcDbLine
 10
3457.636030487223
 20
1012.029347742795
 30
0.0
 11
3181.685061325263
 21
1012.029347742795
 31
0.0
  0
TEXT
  5
8E
330
2
100
AcDbEntity
  8
0
100
AcDbText
 10
2561.771669066924
 20
988.7581972053125
 30
0.0
 40
32.38341493963675
  1
Ident.Nr.
 41
0.8
100
AcDbText
  0
TEXT
  5
8F
330
2
100
AcDbEntity
  8
0
100
AcDbText
 10
2766.341908436212
 20
1033.010032854242
 30
0.0
 40
32.38341493963675
  1
matt geschliffen
 41
0.8
100
AcDbText
  0
TEXT
  5
90
330
2
100
AcDbEntity
  8
0
100
AcDbText
 10
3871.131713858196
 20
1033.018623001693
 30
0.0
 40
32.38341493963675
  1
650 300
100
AcDbText
  0
TEXT
  5
91
330
2
100
AcDbEntity
  8
0
100
AcDbText
 10
3547.29756446183
 20
1033.018623001693
 30
0.0
 40
32.38341493963675
  1
650 200
100
AcDbText
  0
TEXT
  5
92
330
2
100
AcDbEntity
  8
0
100
AcDbText
 10
3223.463415065462
 20
1033.018623001693
 30
0.0
 40
32.38341493963675
  1
650 100
100
AcDbText
  0
TEXT
  5
93
330
2
100
AcDbEntity
  8
0
100
AcDbText
 10
3871.131713858196
 20
952.0600856526009
 30
0.0
 40
32.38341493963675
  1
650 310
100
AcDbText
  0
TEXT
  5
94
330
2
100
AcDbEntity
  8
0
100
AcDbText
 10
2766.341908436212
 20
956.9069321683585
 30
0.0
 40
32.38341493963675
  1
strukturiert
 41
0.8
100
AcDbText
  0
LINE
  5
95
330
2
100
AcDbEntity
  8
0
100
AcDbLine
 10
3158.497536480545
 20
628.8256042904265
 30
0.0
 11
3158.497536480545
 21
1092.987885091887
 31
0.0
  0
LINE
  5
96
330
2
100
AcDbEntity
  8
0
100
AcDbLine
 10
4129.999984669646
 20
574.0354568266755
 30
0.0
 11
4129.999984669646
 21
1189.320340679775
 31
0.0
  0
LINE
  5
97
330
2
100
AcDbEntity
  8
0
100
AcDbLine
 10
3806.16583527328
 20
628.8256042904265
 30
0.0
 11
3806.165835273279
 21
1092.987885091888
 31
0.0
  0
LINE
  5
98
330
2
100
AcDbEntity
  8
0
100
AcDbLine
 10
3482.331685876913
 20
628.8256042904265
 30
0.0
 11
3482.331685876913
 21
1092.987885091888
 31
0.0
  0
LINE
  5
99
330
2
100
AcDbEntity
  8
0
100
AcDbLine
 10
2542.554423756023
 20
704.3869058162465
 30
0.0
 11
4129.99998466965
 21
704.3869058162465
 31
0.0
  0
LINE
  5
9A
330
2
100
AcDbEntity
  8
0
100
AcDbLine
 10
2542.554423756023
 20
779.9482073420652
 30
0.0
 11
4129.99998466965
 21
779.948207342067
 31
0.0
  0
LINE
  5
9B
330
2
100
AcDbEntity
  8
0
100
AcDbLine
 10
2542.554423756023
 20
855.5095088678838
 30
0.0
 11
4129.99998466965
 21
855.5095088678847
 31
0.0
  0
LINE
  5
9C
330
2
100
AcDbEntity
  8
0
100
AcDbLine
 10
2542.554423756023
 20
931.0708103937033
 30
0.0
 11
4129.99998466965
 21
931.0708103937043
 31
0.0
  0
LINE
  5
9D
330
2
100
AcDbEntity
  8
0
100
AcDbLine
 10
2542.554423756023
 20
1092.987885091887
 30
0.0
 11
4129.99998466965
 21
1092.987885091888
 31
0.0
  0
LINE
  5
9E
330
2
100
AcDbEntity
  8
0
100
AcDbLine
 10
2542.554423756023
 20
628.8256042904265
 30
0.0
 11
2542.554423756023
 21
1092.987885091887
 31
0.0
  0
TEXT
  5
9F
330
2
100
AcDbEntity
  8
0
100
AcDbText
 10
3925.182576340432
 20
795.523920089133
 30
0.0
 40
32.38341493963675
  1
721.5
100
AcDbText
  0
TEXT
  5
A0
330
2
100
AcDbEntity
  8
0
100
AcDbText
 10
3925.182576340432
 20
873.7838395265873
 30
0.0
 40
32.38341493963675
  1
700
100
AcDbText
  0
TEXT
  5
A1
330
2
100
AcDbEntity
  8
0
100
AcDbText
 10
3547.29756446183
 20
952.0600856526009
 30
0.0
 40
32.38341493963675
  1
650 210
100
AcDbText
  0
TEXT
  5
A2
330
2
100
AcDbEntity
  8
0
100
AcDbText
 10
3601.348426944066
 20
795.523920089133
 30
0.0
 40
32.38341493963675
  1
821.5
100
AcDbText
  0
TEXT
  5
A3
330
2
100
AcDbEntity
  8
0
100
AcDbText
 10
3601.348426944066
 20
873.7838395265873
 30
0.0
 40
32.38341493963675
  1
800
100
AcDbText
  0
TEXT
  5
A4
330
2
100
AcDbEntity
  8
0
100
AcDbText
 10
3223.463415065462
 20
952.0600856526009
 30
0.0
 40
32.38341493963675
  1
650 110
100
AcDbText
  0
TEXT
  5
A5
330
2
100
AcDbEntity
  8
0
100
AcDbText
 10
3277.514277547698
 20
795.523920089133
 30
0.0
 40
32.38341493963675
  1
921.5
100
AcDbText
  0
TEXT
  5
A6
330
2
100
AcDbEntity
  8
0
100
AcDbText
 10
3277.514277547698
 20
873.7838395265873
 30
0.0
 40
32.38341493963675
  1
900
100
AcDbText
  0
TEXT
  5
A7
330
2
100
AcDbEntity
  8
0
100
AcDbText
 10
3042.938818593213
 20
717.2640006516769
 30
0.0
 40
32.38341493963675
  1
L3
100
AcDbText
  0
TEXT
  5
A8
330
2
100
AcDbEntity
  8
0
100
AcDbText
 10
3042.938818593213
 20
795.523920089133
 30
0.0
 40
32.38341493963675
  1
L2
100
AcDbText
  0
TEXT
  5
A9
330
2
100
AcDbEntity
  8
0
100
AcDbText
 10
3042.938818593213
 20
873.7838395265873
 30
0.0
 40
32.38341493963675
  1
L1
100
AcDbText
  0
DIMENSION
  5
AA
102
{ACAD_XDICTIONARY
360
AB
102
}
102
{ACAD_REACTORS
330
AC
102
}
330
2
100
AcDbEntity
  8
0
100
AcDbDimension
280
     0
  2
*D11
 10
1825.004390876367
 20
2732.017791973093
 30
0.0
 11
1802.504390876367
 21
2748.017791973093
 31
0.0
  1
%%c<>
 71
     5
 42
32.0
 73
     0
 74
     0
 75
     0
  3
Wagner$0
100
AcDbAlignedDimension
 13
1954.141651399349
 23
2764.017791973093
 33
0.0
 14
1954.141651399349
 24
2732.017791973093
 34
0.0
 50
90.0
100
AcDbRotatedDimension
1001
ACAD
1000
DSTYLE
1002
{
1070
    40
1040
10.0
1002
}
  0
TEXT
  5
BB
330
2
100
AcDbEntity
  8
02-01
100
AcDbText
 10
2436.370343176585
 20
2495.278079517902
 30
0.0
 40
25.0
  1
%%P5
100
AcDbText
  0
TEXT
  5
BF
330
2
100
AcDbEntity
  8
02-01
100
AcDbText
 10
1646.932419827814
 20
1913.56523257487
 30
0.0
 40
25.0
  1
%%P5
 50
90.0
100
AcDbText
  0
DIMENSION
  5
C0
102
{ACAD_XDICTIONARY
360
C1
102
}
102
{ACAD_REACTORS
330
C2
102
}
330
2
100
AcDbEntity
  8
0
100
AcDbDimension
280
     0
  2
*D10
 10
1666.485311570121
 20
1398.829378513644
 30
0.0
 11
1643.985311570121
 21
1859.579378513648
 31
0.0
  1
L2
 71
     5
 42
921.500000000007
 73
     0
 74
     0
 75
     0
  3
Wagner$0
100
AcDbAlignedDimension
 13
1916.641651399326
 23
2320.329378513651
 33
0.0
 14
2825.541651399332
 24
1398.829378513644
 34
0.0
 50
90.0
100
AcDbRotatedDimension
1001
ACAD
1000
DSTYLE
1002
{
1070
    40
1040
10.0
1002
}
  0
DIMENSION
  5
CF
102
{ACAD_XDICTIONARY
360
D0
102
}
102
{ACAD_REACTORS
330
D1
102
}
330
2
100
AcDbEntity
  8
0
100
AcDbDimension
280
     0
  2
*D9
 10
2838.141651399331
 20
2558.675806733726
 30
0.0
 11
2377.391651399328
 21
2581.175806733726
 31
0.0
  1
L4
 71
     5
 42
921.5000000000046
 73
     0
 74
     0
 75
     0
  3
Wagner$0
100
AcDbAlignedDimension
 13
1916.641651399326
 23
2320.329378513651
 33
0.0
 14
2838.141651399331
 24
2172.329378513642
 34
0.0
100
AcDbRotatedDimension
1001
ACAD
1000
DSTYLE
1002
{
1070
    40
1040
10.0
1002
}
  0
DIMENSION
  5
DE
102
{ACAD_XDICTIONARY
360
DF
102
}
102
{ACAD_REACTORS
330
E0
102
}
330
2
100
AcDbEntity
  8
0
100
AcDbDimension
280
     0
  2
*D8
 10
2731.641651399328
 20
1305.815720458885
 30
0.0
 11
2784.891651399329
 21
1328.315720458885
 31
0.0
  1
106
 71
     5
 42
106.5000000000018
 73
     0
 74
     0
 75
     0
  3
Wagner$0
100
AcDbAlignedDimension
 13
2838.14165139933
 23
1398.829378513644
 33
0.0
 14
2731.641651399328
 24
1508.829378513651
 34
0.0
 50
180.0
100
AcDbRotatedDimension
1001
ACAD
1000
DSTYLE
1002
{
1070
    40
1040
10.0
1002
}
  0
DIMENSION
  5
ED
102
{ACAD_XDICTIONARY
360
EE
102
}
102
{ACAD_REACTORS
330
EF
102
}
330
2
100
AcDbEntity
  8
0
100
AcDbDimension
280
     0
  2
*D7
 10
1819.690890911304
 20
2213.829378513648
 30
0.0
 11
1797.190890911304
 21
2267.07937851365
 31
0.0
  1
106
 71
     5
 42
106.5000000000036
 73
     0
 74
     0
 75
     0
  3
Wagner$0
100
AcDbAlignedDimension
 13
1916.641651399326
 23
2320.329378513651
 33
0.0
 14
2026.641651399334
 24
2213.829378513648
 34
0.0
 50
90.0
100
AcDbRotatedDimension
1001
ACAD
1000
DSTYLE
1002
{
1070
    40
1040
10.0
1002
}
  0
TEXT
  5
FC
330
2
100
AcDbEntity
  8
02-01
100
AcDbText
 10
1719.403189147249
 20
1913.56523257487
 30
0.0
 40
25.0
  1
%%P5
 50
90.0
100
AcDbText
  0
TEXT
  5
FD
330
2
100
AcDbEntity
  8
02-01
100
AcDbText
 10
2915.701270853126
 20
2268.891401379993
 30
0.0
 40
25.0
  1
%%P5
 50
90.0
100
AcDbText
  0
TEXT
  5
FE
330
2
100
AcDbEntity
  8
02-01
100
AcDbText
 10
2434.015900016001
 20
2571.007737194566
 30
0.0
 40
25.0
  1
%%P5
100
AcDbText
  0
TEXT
  5
FF
330
2
100
AcDbEntity
  8
02-01
100
AcDbText
 10
2788.136593181617
 20
2419.086143556434
 30
0.0
 40
25.0
  1
%%P5
100
AcDbText
  0
ARC
  5
100
330
2
100
AcDbEntity
  8
0
100
AcDbCircle
 10
609.3005528599315
 20
2748.017791973095
 30
0.0
 40
37.49999999999818
100
AcDbArc
 50
25.25620366153481
 51
334.7437963384652
  0
ARC
  5
101
330
2
100
AcDbEntity
  8
0
100
AcDbCircle
 10
609.3005528599315
 20
2748.017791973093
 30
0.0
 40
16.0
100
AcDbArc
 50
90.0
 51
270.0
  0
LINE
  5
102
330
2
100
AcDbEntity
  8
05-01
100
AcDbLine
 10
609.3005528599315
 20
2787.462333548555
 30
0.0
 11
609.3005528599315
 21
2708.573250397634
 31
0.0
  0
ARC
  5
107
330
2
100
AcDbEntity
  8
0
100
AcDbCircle
 10
1307.800552859913
 20
2748.017791973093
 30
0.0
 40
37.49999999999818
100
AcDbArc
 50
205.2562036615348
 51
334.7437963384364
  0
ARC
  5
108
330
2
100
AcDbEntity
  8
0
100
AcDbCircle
 10
1307.800552859913
 20
2748.017791973093
 30
0.0
 40
37.49999999999818
100
AcDbArc
 50
25.25620366156001
 51
154.7437963384652
  0
LINE
  5
109
330
2
100
AcDbEntity
  8
05-01
100
AcDbLine
 10
1307.800552859913
 20
2708.573250397634
 30
0.0
 11
1307.800552859913
 21
2787.462333548553
 31
0.0
  0
LINE
  5
10A
330
2
100
AcDbEntity
  8
0
100
AcDbLine
 10
2634.322499355047
 20
2302.755119020734
 30
0.0
 11
2634.141651399334
 21
2302.574271065021
 31
0.0
1001
AcDbBlockRepETag
1070
     1
1071
       12
1005
0
  0
LINE
  5
10C
330
2
100
AcDbEntity
  8
0
100
AcDbLine
 10
2636.641651399327
 20
2300.07427106502
 30
0.0
 11
2668.641651399329
 21
2300.074271065022
 31
0.0
  0
LINE
  5
10D
330
2
100
AcDbEntity
  8
0
100
AcDbLine
 10
2671.465227835675
 20
2302.755119020734
 30
0.0
 11
2633.818074962971
 21
2302.755119020734
 31
0.0
  0
LINE
  5
10E
330
2
100
AcDbEntity
  8
0
100
AcDbLine
 10
2685.141651399327
 20
2321.829378513635
 30
0.0
 11
2620.141651399328
 21
2321.829378513651
 31
0.0
  0
LINE
  5
10F
330
2
100
AcDbEntity
  8
0
100
AcDbLine
 10
2671.141651399327
 20
2302.57427106502
 30
0.0
 11
2668.641651399327
 21
2300.07427106502
 31
0.0
1001
AcDbBlockRepETag
1070
     1
1071
       15
1005
0
  0
LINE
  5
110
330
2
100
AcDbEntity
  8
0
100
AcDbLine
 10
2634.141651399327
 20
2302.57427106502
 30
0.0
 11
2636.641651399327
 21
2300.07427106502
 31
0.0
1001
AcDbBlockRepETag
1070
     1
1071
       14
1005
0
  0
LINE
  5
111
330
2
100
AcDbEntity
  8
0
100
AcDbLine
 10
2670.960803443615
 20
2302.755119020734
 30
0.0
 11
2671.141651399327
 21
2302.57427106502
 31
0.0
1001
AcDbBlockRepETag
1070
     1
1071
       12
1005
0
  0
LINE
  5
112
330
2
100
AcDbEntity
  8
0
100
AcDbLine
 10
2615.141651399324
 20
2320.329378513651
 30
0.0
 11
2690.141651399326
 21
2320.329378513651
 31
0.0
1001
AcDbBlockRepETag
1070
     1
1071
       26
1005
0
  0
LINE
  5
113
330
2
100
AcDbEntity
  8
0
100
AcDbLine
 10
2671.465227835675
 20
2302.755119020734
 30
0.0
 11
2670.960803443615
 21
2302.755119020734
 31
0.0
1001
AcDbBlockRepETag
1070
     1
1071
       25
1005
0
  0
LINE
  5
114
330
2
100
AcDbEntity
  8
0
  6
Continuous
 62
     7
370
    15
100
AcDbLine
 10
2690.141651399326
 20
2320.329378513651
 30
0.0
 11
2690.141651399324
 21
2307.729378513653
 31
0.0
1001
AcDbBlockRepETag
1070
     1
1071
       24
1005
0
  0
ARC
  5
115
330
2
100
AcDbEntity
  8
0
  6
Continuous
 62
     7
370
    15
100
AcDbCircle
 10
2687.741651399322
 20
2307.729378513653
 30
0.0
 40
2.400000000000005
100
AcDbArc
 50
270.0
 51
0.0
1001
AcDbBlockRepETag
1070
     1
1071
       22
1005
0
  0
LINE
  5
116
330
2
100
AcDbEntity
  8
0
  6
Continuous
 62
     7
370
    15
100
AcDbLine
 10
2674.780062692863
 20
2305.076191375657
 30
0.0
 11
2671.465227835675
 21
2302.755119020734
 31
0.0
1001
AcDbBlockRepETag
1070
     1
1071
       20
1005
0
  0
ARC
  5
117
330
2
100
AcDbEntity
  8
0
  6
Continuous
 62
     7
370
    15
100
AcDbCircle
 10
2675.583069703754
 20
2303.929378513652
 30
0.0
 40
1.400000000000005
100
AcDbArc
 50
90.0
 51
124.999999999981
1001
AcDbBlockRepETag
1070
     1
1071
       17
1005
0
  0
ARC
  5
118
330
2
100
AcDbEntity
  8
0
  6
Continuous
 62
     7
370
    15
100
AcDbCircle
 10
2629.700233094892
 20
2303.929378513652
 30
0.0
 40
1.400000000000006
100
AcDbArc
 50
55.00000000001893
 51
90.0
1001
AcDbBlockRepETag
1070
     1
1071
       10
1005
0
  0
LINE
  5
119
330
2
100
AcDbEntity
  8
0
  6
Continuous
 62
     7
370
    15
100
AcDbLine
 10
2633.818074962971
 20
2302.755119020734
 30
0.0
 11
2630.503240105785
 21
2305.076191375657
 31
0.0
1001
AcDbBlockRepETag
1070
     1
1071
        6
1005
0
  0
LINE
  5
11A
330
2
100
AcDbEntity
  8
0
  6
Continuous
 62
     7
370
    15
100
AcDbLine
 10
2687.741651399322
 20
2305.329378513651
 30
0.0
 11
2617.541651399325
 21
2305.329378513651
 31
0.0
1001
AcDbBlockRepETag
1070
     1
1071
        5
1005
0
  0
ARC
  5
11B
330
2
100
AcDbEntity
  8
0
  6
Continuous
 62
     7
370
    15
100
AcDbCircle
 10
2617.541651399325
 20
2307.729378513653
 30
0.0
 40
2.400000000000005
100
AcDbArc
 50
180.0
 51
270.0
1001
AcDbBlockRepETag
1070
     1
1071
        3
1005
0
  0
LINE
  5
11C
330
2
100
AcDbEntity
  8
0
  6
Continuous
 62
     7
370
    15
100
AcDbLine
 10
2615.141651399324
 20
2307.729378513653
 30
0.0
 11
2615.141651399324
 21
2320.329378513651
 31
0.0
1001
AcDbBlockRepETag
1070
     1
1071
        2
1005
0
  0
LINE
  5
11D
330
2
100
AcDbEntity
  8
0
100
AcDbLine
 10
2686.641651399327
 20
2320.829378513635
 30
0.0
 11
2686.641651399327
 21
2320.329378513635
 31
0.0
  0
LINE
  5
11E
330
2
100
AcDbEntity
  8
0
100
AcDbLine
 10
2686.641651399327
 20
2320.829378513635
 30
0.0
 11
2618.641651399328
 21
2320.829378513635
 31
0.0
  0
ARC
  5
11F
330
2
100
AcDbEntity
  8
0
100
AcDbCircle
 10
2685.141651399327
 20
2321.679378513636
 30
0.0
 40
0.15
100
AcDbArc
 50
10.00000000010767
 51
90.0
  0
LINE
  5
120
330
2
100
AcDbEntity
  8
0
100
AcDbLine
 10
2685.44384332471
 20
2320.829378513635
 30
0.0
 11
2685.289372562277
 21
2321.705425740284
 31
0.0
  0
LINE
  5
121
330
2
100
AcDbEntity
  8
0
100
AcDbLine
 10
2618.641651399328
 20
2320.829378513651
 30
0.0
 11
2618.641651399328
 21
2320.329378513651
 31
0.0
  0
LINE
  5
122
330
2
100
AcDbEntity
  8
0
100
AcDbLine
 10
2619.993930236378
 20
2321.705425740303
 30
0.0
 11
2619.83945947394
 21
2320.829378513635
 31
0.0
  0
ARC
  5
123
330
2
100
AcDbEntity
  8
0
100
AcDbCircle
 10
2620.141651399328
 20
2321.679378513652
 30
0.0
 40
0.15
100
AcDbArc
 50
90.0
 51
169.9999999998923
  0
LINE
  5
124
330
2
100
AcDbEntity
  8
0
100
AcDbLine
 10
2621.641651399328
 20
2320.329378513651
 30
0.0
 11
2683.641651399327
 21
2320.329378513653
 31
0.0
  0
LINE
  5
125
330
2
100
AcDbEntity
  8
09-01
100
AcDbLine
 10
2645.641651399332
 20
2293.32937851365
 30
0.0
 11
2659.641651399331
 21
2293.32937851365
 31
0.0
  0
LINE
  5
129
330
2
100
AcDbEntity
  8
0
100
AcDbLine
 10
2636.641651399331
 20
2299.329378513649
 30
0.0
 11
2668.641651399331
 21
2299.329378513649
 31
0.0
  0
LINE
  5
12A
330
2
100
AcDbEntity
  8
0
  6
Continuous
 62
     7
370
    15
100
AcDbLine
 10
2645.641651399332
 20
2293.32937851365
 30
0.0
 11
2636.641651399331
 21
2299.329378513649
 31
0.0
  0
LINE
  5
12B
330
2
100
AcDbEntity
  8
0
  6
Continuous
 62
     7
370
    15
100
AcDbLine
 10
2668.641651399331
 20
2299.329378513649
 30
0.0
 11
2659.641651399331
 21
2293.32937851365
 31
0.0
  0
LINE
  5
12C
330
2
100
AcDbEntity
  8
0
  6
Continuous
 62
     7
370
    15
100
AcDbLine
 10
2636.641651399331
 20
2299.329378513649
 30
0.0
 11
2636.641651399331
 21
2300.07427106502
 31
0.0
  0
LINE
  5
12D
330
2
100
AcDbEntity
  8
0
  6
Continuous
 62
     7
370
    15
100
AcDbLine
 10
2668.64165139933
 20
2300.074271065022
 30
0.0
 11
2668.641651399331
 21
2299.329378513649
 31
0.0
  0
ARC
  5
12E
330
2
100
AcDbEntity
  8
0
100
AcDbCircle
 10
1954.141651399349
 20
2748.017791973095
 30
0.0
 40
37.49999999999818
100
AcDbArc
 50
25.25620366153481
 51
334.7437963384652
  0
ARC
  5
12F
102
{ACAD_REACTORS
330
AC
102
}
330
2
100
AcDbEntity
  8
0
100
AcDbCircle
 10
1954.141651399349
 20
2748.017791973093
 30
0.0
 40
16.0
100
AcDbArc
 50
90.0
 51
270.0
  0
LINE
  5
130
330
2
100
AcDbEntity
  8
05-01
100
AcDbLine
 10
1954.141651399349
 20
2787.462333548555
 30
0.0
 11
1954.141651399349
 21
2708.573250397634
 31
0.0
  0
DIMENSION
  5
131
102
{ACAD_XDICTIONARY
360
132
102
}
102
{ACAD_REACTORS
330
133
102
}
330
2
100
AcDbEntity
  8
0
100
AcDbDimension
280
     0
  2
*D6
 10
2838.141651399331
 20
2484.370756301041
 30
0.0
 11
2388.141651399332
 21
2506.870756301041
 31
0.0
  1
L3
 71
     5
 42
899.9999999999973
 73
     0
 74
     0
 75
     0
  3
Wagner$0
100
AcDbAlignedDimension
 13
1938.141651399334
 23
2302.329378513647
 33
0.0
 14
2838.141651399331
 24
2097.32937851364
 34
0.0
 50
180.0
100
AcDbRotatedDimension
1001
ACAD
1000
DSTYLE
1002
{
1070
    40
1040
10.0
1002
}
  0
ARC
  5
140
330
2
100
AcDbEntity
  8
0
100
AcDbCircle
 10
2408.141651399333
 20
2748.017791973093
 30
0.0
 40
37.49999999999818
100
AcDbArc
 50
205.25620366156
 51
334.7437963384652
  0
ARC
  5
141
330
2
100
AcDbEntity
  8
0
100
AcDbCircle
 10
2408.141651399333
 20
2748.017791973093
 30
0.0
 40
37.49999999999818
100
AcDbArc
 50
25.25620366153481
 51
154.7437963384436
  0
LINE
  5
142
330
2
100
AcDbEntity
  8
05-01
100
AcDbLine
 10
2408.141651399333
 20
2708.573250397634
 30
0.0
 11
2408.141651399333
 21
2787.462333548553
 31
0.0
  0
DIMENSION
  5
143
102
{ACAD_XDICTIONARY
360
144
102
}
102
{ACAD_REACTORS
330
145
102
}
330
2
100
AcDbEntity
  8
0
100
AcDbDimension
280
     0
  2
*D5
 10
1741.371653505785
 20
1420.329378513651
 30
0.0
 11
1718.871653505784
 21
1870.329378513651
 31
0.0
  1
L1
 71
     5
 42
900.0000000000001
 73
     0
 74
     0
 75
     0
  3
Wagner$0
100
AcDbAlignedDimension
 13
1916.641651399326
 23
2320.329378513651
 33
0.0
 14
2820.141651399326
 24
1420.329378513651
 34
0.0
 50
90.0
100
AcDbRotatedDimension
1001
ACAD
1000
DSTYLE
1002
{
1070
    40
1040
10.0
1002
}
  0
LINE
  5
152
330
2
100
AcDbEntity
  8
0
100
AcDbLine
 10
2820.567391906414
 20
2116.510226469364
 30
0.0
 11
2820.386543950701
 21
2116.329378513651
 31
0.0
1001
AcDbBlockRepETag
1070
     1
1071
       12
1005
0
  0
LINE
  5
153
330
2
100
AcDbEntity
  8
0
100
AcDbLine
 10
2817.8865439507
 20
2118.829378513644
 30
0.0
 11
2817.886543950702
 21
2150.829378513646
 31
0.0
  0
LINE
  5
154
330
2
100
AcDbEntity
  8
0
100
AcDbLine
 10
2820.567391906413
 20
2153.652954949991
 30
0.0
 11
2820.567391906413
 21
2116.005802077288
 31
0.0
  0
LINE
  5
155
330
2
100
AcDbEntity
  8
0
100
AcDbLine
 10
2839.641651399315
 20
2167.329378513644
 30
0.0
 11
2839.641651399331
 21
2102.329378513644
 31
0.0
  0
LINE
  5
156
330
2
100
AcDbEntity
  8
0
100
AcDbLine
 10
2820.3865439507
 20
2153.329378513644
 30
0.0
 11
2817.8865439507
 21
2150.829378513644
 31
0.0
1001
AcDbBlockRepETag
1070
     1
1071
       15
1005
0
  0
LINE
  5
157
330
2
100
AcDbEntity
  8
0
100
AcDbLine
 10
2820.3865439507
 20
2116.329378513644
 30
0.0
 11
2817.8865439507
 21
2118.829378513644
 31
0.0
1001
AcDbBlockRepETag
1070
     1
1071
       14
1005
0
  0
LINE
  5
158
330
2
100
AcDbEntity
  8
0
100
AcDbLine
 10
2820.567391906413
 20
2153.148530557931
 30
0.0
 11
2820.3865439507
 21
2153.329378513644
 31
0.0
1001
AcDbBlockRepETag
1070
     1
1071
       12
1005
0
  0
LINE
  5
159
102
{ACAD_REACTORS
330
133
330
D1
102
}
330
2
100
AcDbEntity
  8
0
100
AcDbLine
 10
2838.141651399331
 20
2097.32937851364
 30
0.0
 11
2838.141651399331
 21
2172.329378513642
 31
0.0
1001
AcDbBlockRepETag
1070
     1
1071
       26
1005
0
  0
LINE
  5
15A
330
2
100
AcDbEntity
  8
0
100
AcDbLine
 10
2820.567391906413
 20
2153.652954949991
 30
0.0
 11
2820.567391906413
 21
2153.148530557931
 31
0.0
1001
AcDbBlockRepETag
1070
     1
1071
       25
1005
0
  0
LINE
  5
15B
330
2
100
AcDbEntity
  8
0
  6
Continuous
 62
     7
370
    15
100
AcDbLine
 10
2838.141651399331
 20
2172.329378513642
 30
0.0
 11
2825.541651399332
 21
2172.32937851364
 31
0.0
1001
AcDbBlockRepETag
1070
     1
1071
       24
1005
0
  0
ARC
  5
15C
330
2
100
AcDbEntity
  8
0
  6
Continuous
 62
     7
370
    15
100
AcDbCircle
 10
2825.541651399332
 20
2169.929378513639
 30
0.0
 40
2.400000000000005
100
AcDbArc
 50
90.0
 51
180.0
1001
AcDbBlockRepETag
1070
     1
1071
       22
1005
0
  0
LINE
  5
15D
330
2
100
AcDbEntity
  8
0
  6
Continuous
 62
     7
370
    15
100
AcDbLine
 10
2822.888464261337
 20
2156.967789807179
 30
0.0
 11
2820.567391906413
 21
2153.652954949991
 31
0.0
1001
AcDbBlockRepETag
1070
     1
1071
       20
1005
0
  0
ARC
  5
15E
330
2
100
AcDbEntity
  8
0
  6
Continuous
 62
     7
370
    15
100
AcDbCircle
 10
2821.741651399332
 20
2157.77079681807
 30
0.0
 40
1.400000000000005
100
AcDbArc
 50
325.0000000000069
 51
0.0
1001
AcDbBlockRepETag
1070
     1
1071
       17
1005
0
  0
ARC
  5
15F
330
2
100
AcDbEntity
  8
0
  6
Continuous
 62
     7
370
    15
100
AcDbCircle
 10
2821.741651399332
 20
2111.887960209208
 30
0.0
 40
1.400000000000006
100
AcDbArc
 50
0.0
 51
34.99999999999309
1001
AcDbBlockRepETag
1070
     1
1071
       10
1005
0
  0
LINE
  5
160
330
2
100
AcDbEntity
  8
0
  6
Continuous
 62
     7
370
    15
100
AcDbLine
 10
2820.567391906413
 20
2116.005802077288
 30
0.0
 11
2822.888464261337
 21
2112.690967220101
 31
0.0
1001
AcDbBlockRepETag
1070
     1
1071
        6
1005
0
  0
LINE
  5
161
330
2
100
AcDbEntity
  8
0
  6
Continuous
 62
     7
370
    15
100
AcDbLine
 10
2823.141651399331
 20
2169.929378513639
 30
0.0
 11
2823.141651399331
 21
2099.729378513642
 31
0.0
1001
AcDbBlockRepETag
1070
     1
1071
        5
1005
0
  0
ARC
  5
162
330
2
100
AcDbEntity
  8
0
  6
Continuous
 62
     7
370
    15
100
AcDbCircle
 10
2825.541651399332
 20
2099.729378513642
 30
0.0
 40
2.400000000000005
100
AcDbArc
 50
180.0
 51
270.0
1001
AcDbBlockRepETag
1070
     1
1071
        3
1005
0
  0
LINE
  5
163
330
2
100
AcDbEntity
  8
0
  6
Continuous
 62
     7
370
    15
100
AcDbLine
 10
2825.541651399332
 20
2097.32937851364
 30
0.0
 11
2838.141651399331
 21
2097.32937851364
 31
0.0
1001
AcDbBlockRepETag
1070
     1
1071
        2
1005
0
  0
LINE
  5
164
330
2
100
AcDbEntity
  8
0
100
AcDbLine
 10
2838.641651399314
 20
2168.829378513644
 30
0.0
 11
2838.141651399315
 21
2168.829378513644
 31
0.0
  0
LINE
  5
165
330
2
100
AcDbEntity
  8
0
100
AcDbLine
 10
2838.641651399314
 20
2168.829378513644
 30
0.0
 11
2838.641651399314
 21
2100.829378513644
 31
0.0
  0
ARC
  5
166
330
2
100
AcDbEntity
  8
0
100
AcDbCircle
 10
2839.491651399315
 20
2167.329378513644
 30
0.0
 40
0.15
100
AcDbArc
 50
0.0
 51
79.99999999994201
  0
LINE
  5
167
330
2
100
AcDbEntity
  8
0
100
AcDbLine
 10
2838.641651399314
 20
2167.631570439026
 30
0.0
 11
2839.517698625964
 21
2167.477099676594
 31
0.0
  0
LINE
  5
168
330
2
100
AcDbEntity
  8
0
100
AcDbLine
 10
2838.641651399331
 20
2100.829378513644
 30
0.0
 11
2838.141651399331
 21
2100.829378513644
 31
0.0
  0
LINE
  5
169
330
2
100
AcDbEntity
  8
0
100
AcDbLine
 10
2839.517698625983
 20
2102.181657350694
 30
0.0
 11
2838.641651399314
 21
2102.027186588256
 31
0.0
  0
ARC
  5
16A
330
2
100
AcDbEntity
  8
0
100
AcDbCircle
 10
2839.491651399331
 20
2102.329378513644
 30
0.0
 40
0.15
100
AcDbArc
 50
280.0000000000579
 51
0.0
  0
LINE
  5
16B
330
2
100
AcDbEntity
  8
0
100
AcDbLine
 10
2838.141651399331
 20
2103.829378513644
 30
0.0
 11
2838.141651399333
 21
2165.829378513644
 31
0.0
  0
ARC
  5
16C
330
2
100
AcDbEntity
  8
0
100
AcDbCircle
 10
2778.029145969278
 20
2134.829378513648
 30
0.0
 40
16.0000000000116
100
AcDbArc
 50
154.0555202276227
 51
205.9444797723773
  0
LINE
  5
16D
330
2
100
AcDbEntity
  8
09-01
100
AcDbLine
 10
2811.141651399329
 20
2127.829378513649
 30
0.0
 11
2811.141651399329
 21
2141.829378513648
 31
0.0
  0
LINE
  5
16E
330
2
100
AcDbEntity
  8
0
100
AcDbLine
 10
2817.141651399329
 20
2118.829378513648
 30
0.0
 11
2817.141651399329
 21
2150.829378513648
 31
0.0
  0
LINE
  5
16F
330
2
100
AcDbEntity
  8
0
  6
Continuous
 62
     7
370
    15
100
AcDbLine
 10
2811.141651399329
 20
2127.829378513649
 30
0.0
 11
2817.141651399329
 21
2118.829378513648
 31
0.0
  0
LINE
  5
170
330
2
100
AcDbEntity
  8
0
  6
Continuous
 62
     7
370
    15
100
AcDbLine
 10
2817.141651399329
 20
2150.829378513648
 30
0.0
 11
2811.141651399329
 21
2141.829378513648
 31
0.0
  0
LINE
  5
171
330
2
100
AcDbEntity
  8
0
  6
Continuous
 62
     7
370
    15
100
AcDbLine
 10
2817.141651399329
 20
2118.829378513648
 30
0.0
 11
2817.8865439507
 21
2118.829378513648
 31
0.0
  0
LINE
  5
172
330
2
100
AcDbEntity
  8
0
  6
Continuous
 62
     7
370
    15
100
AcDbLine
 10
2817.886543950702
 20
2150.829378513648
 30
0.0
 11
2817.141651399329
 21
2150.829378513648
 31
0.0
  0
LINE
  5
173
330
2
100
AcDbEntity
  8
0
  6
Continuous
 62
     7
370
    15
100
AcDbLine
 10
2763.641651399327
 20
2127.829378513648
 30
0.0
 11
2811.141651399331
 21
2127.829378513648
 31
0.0
  0
LINE
  5
174
330
2
100
AcDbEntity
  8
0
  6
Continuous
 62
     7
370
    15
100
AcDbLine
 10
2811.141651399329
 20
2141.829378513647
 30
0.0
 11
2763.641651399327
 21
2141.829378513648
 31
0.0
  0
LINE
  5
175
330
2
100
AcDbEntity
  8
05-01
100
AcDbLine
 10
2841.802117133538
 20
2134.829378513648
 30
0.0
 11
2760.641651399327
 21
2134.829378513648
 31
0.0
  0
LINE
  5
176
102
{ACAD_REACTORS
330
133
102
}
330
2
100
AcDbEntity
  8
0
100
AcDbLine
 10
1970.141651399334
 20
2302.329378513647
 30
0.0
 11
1938.141651399334
 21
2302.329378513647
 31
0.0
  0
LINE
  5
177
102
{ACAD_REACTORS
330
145
102
}
330
2
100
AcDbEntity
  8
0
100
AcDbLine
 10
2820.141651399326
 20
1452.329378513651
 30
0.0
 11
2820.141651399326
 21
1420.329378513651
 31
0.0
  0
LINE
  5
178
330
2
100
AcDbEntity
  8
05-01
100
AcDbLine
 10
2820.141651399326
 20
1436.329378513651
 30
0.0
 11
2841.871820117797
 21
1436.329378513651
 31
0.0
  0
LINE
  5
179
330
2
100
AcDbEntity
  8
0
100
AcDbLine
 10
2820.567391906412
 20
1418.010226469367
 30
0.0
 11
2820.386543950699
 21
1417.829378513654
 31
0.0
1001
AcDbBlockRepETag
1070
     1
1071
       12
1005
0
  0
LINE
  5
17A
330
2
100
AcDbEntity
  8
0
100
AcDbLine
 10
2817.886543950699
 20
1420.329378513647
 30
0.0
 11
2817.886543950701
 21
1452.329378513649
 31
0.0
  0
LINE
  5
17B
330
2
100
AcDbEntity
  8
0
100
AcDbLine
 10
2820.567391906412
 20
1455.152954949994
 30
0.0
 11
2820.567391906412
 21
1417.505802077291
 31
0.0
  0
LINE
  5
17C
330
2
100
AcDbEntity
  8
0
100
AcDbLine
 10
2839.641651399313
 20
1468.829378513647
 30
0.0
 11
2839.64165139933
 21
1403.829378513647
 31
0.0
  0
LINE
  5
17D
330
2
100
AcDbEntity
  8
0
100
AcDbLine
 10
2820.386543950699
 20
1454.829378513647
 30
0.0
 11
2817.886543950699
 21
1452.329378513647
 31
0.0
1001
AcDbBlockRepETag
1070
     1
1071
       15
1005
0
  0
LINE
  5
17E
330
2
100
AcDbEntity
  8
0
100
AcDbLine
 10
2820.386543950699
 20
1417.829378513647
 30
0.0
 11
2817.886543950699
 21
1420.329378513647
 31
0.0
1001
AcDbBlockRepETag
1070
     1
1071
       14
1005
0
  0
LINE
  5
17F
330
2
100
AcDbEntity
  8
0
100
AcDbLine
 10
2820.567391906412
 20
1454.648530557934
 30
0.0
 11
2820.386543950699
 21
1454.829378513647
 31
0.0
1001
AcDbBlockRepETag
1070
     1
1071
       12
1005
0
  0
LINE
  5
180
102
{ACAD_REACTORS
330
E0
102
}
330
2
100
AcDbEntity
  8
0
100
AcDbLine
 10
2838.14165139933
 20
1398.829378513644
 30
0.0
 11
2838.141651399329
 21
1473.829378513646
 31
0.0
1001
AcDbBlockRepETag
1070
     1
1071
       26
1005
0
  0
LINE
  5
181
330
2
100
AcDbEntity
  8
0
100
AcDbLine
 10
2820.567391906412
 20
1455.152954949994
 30
0.0
 11
2820.567391906412
 21
1454.648530557934
 31
0.0
1001
AcDbBlockRepETag
1070
     1
1071
       25
1005
0
  0
LINE
  5
182
330
2
100
AcDbEntity
  8
0
  6
Continuous
 62
     7
370
    15
100
AcDbLine
 10
2838.141651399329
 20
1473.829378513646
 30
0.0
 11
2825.541651399332
 21
1473.829378513643
 31
0.0
1001
AcDbBlockRepETag
1070
     1
1071
       24
1005
0
  0
ARC
  5
183
330
2
100
AcDbEntity
  8
0
  6
Continuous
 62
     7
370
    15
100
AcDbCircle
 10
2825.541651399332
 20
1471.429378513642
 30
0.0
 40
2.400000000000005
100
AcDbArc
 50
90.0
 51
180.0
1001
AcDbBlockRepETag
1070
     1
1071
       22
1005
0
  0
LINE
  5
184
330
2
100
AcDbEntity
  8
0
  6
Continuous
 62
     7
370
    15
100
AcDbLine
 10
2822.888464261336
 20
1458.467789807183
 30
0.0
 11
2820.567391906412
 21
1455.152954949994
 31
0.0
1001
AcDbBlockRepETag
1070
     1
1071
       20
1005
0
  0
ARC
  5
185
330
2
100
AcDbEntity
  8
0
  6
Continuous
 62
     7
370
    15
100
AcDbCircle
 10
2821.74165139933
 20
1459.270796818074
 30
0.0
 40
1.400000000000005
100
AcDbArc
 50
324.9999999999831
 51
0.0
1001
AcDbBlockRepETag
1070
     1
1071
       17
1005
0
  0
ARC
  5
186
330
2
100
AcDbEntity
  8
0
  6
Continuous
 62
     7
370
    15
100
AcDbCircle
 10
2821.74165139933
 20
1413.387960209212
 30
0.0
 40
1.400000000000006
100
AcDbArc
 50
0.0
 51
35.00000000001695
1001
AcDbBlockRepETag
1070
     1
1071
       10
1005
0
  0
LINE
  5
187
330
2
100
AcDbEntity
  8
0
  6
Continuous
 62
     7
370
    15
100
AcDbLine
 10
2820.567391906412
 20
1417.505802077291
 30
0.0
 11
2822.888464261336
 21
1414.190967220104
 31
0.0
1001
AcDbBlockRepETag
1070
     1
1071
        6
1005
0
  0
LINE
  5
188
330
2
100
AcDbEntity
  8
0
  6
Continuous
 62
     7
370
    15
100
AcDbLine
 10
2823.14165139933
 20
1471.429378513642
 30
0.0
 11
2823.14165139933
 21
1401.229378513645
 31
0.0
1001
AcDbBlockRepETag
1070
     1
1071
        5
1005
0
  0
ARC
  5
189
330
2
100
AcDbEntity
  8
0
  6
Continuous
 62
     7
370
    15
100
AcDbCircle
 10
2825.541651399332
 20
1401.229378513645
 30
0.0
 40
2.400000000000005
100
AcDbArc
 50
180.0
 51
270.0
1001
AcDbBlockRepETag
1070
     1
1071
        3
1005
0
  0
LINE
  5
18A
102
{ACAD_REACTORS
330
C2
102
}
330
2
100
AcDbEntity
  8
0
  6
Continuous
 62
     7
370
    15
100
AcDbLine
 10
2825.541651399332
 20
1398.829378513644
 30
0.0
 11
2838.14165139933
 21
1398.829378513644
 31
0.0
1001
AcDbBlockRepETag
1070
     1
1071
        2
1005
0
  0
LINE
  5
18B
330
2
100
AcDbEntity
  8
0
100
AcDbLine
 10
2838.641651399314
 20
1470.329378513647
 30
0.0
 11
2838.141651399314
 21
1470.329378513647
 31
0.0
  0
LINE
  5
18C
330
2
100
AcDbEntity
  8
0
100
AcDbLine
 10
2838.641651399314
 20
1470.329378513647
 30
0.0
 11
2838.641651399312
 21
1402.329378513647
 31
0.0
  0
ARC
  5
18D
330
2
100
AcDbEntity
  8
0
100
AcDbCircle
 10
2839.491651399314
 20
1468.829378513647
 30
0.0
 40
0.15
100
AcDbArc
 50
0.0
 51
79.99999999994201
  0
LINE
  5
18E
330
2
100
AcDbEntity
  8
0
100
AcDbLine
 10
2838.641651399314
 20
1469.13157043903
 30
0.0
 11
2839.517698625963
 21
1468.977099676597
 31
0.0
  0
LINE
  5
18F
330
2
100
AcDbEntity
  8
0
100
AcDbLine
 10
2838.64165139933
 20
1402.329378513647
 30
0.0
 11
2838.14165139933
 21
1402.329378513647
 31
0.0
  0
LINE
  5
190
330
2
100
AcDbEntity
  8
0
100
AcDbLine
 10
2839.517698625981
 20
1403.681657350698
 30
0.0
 11
2838.641651399314
 21
1403.527186588259
 31
0.0
  0
ARC
  5
191
330
2
100
AcDbEntity
  8
0
100
AcDbCircle
 10
2839.491651399331
 20
1403.829378513647
 30
0.0
 40
0.15
100
AcDbArc
 50
280.0000000000579
 51
0.0
  0
LINE
  5
192
330
2
100
AcDbEntity
  8
0
100
AcDbLine
 10
2838.14165139933
 20
1405.329378513647
 30
0.0
 11
2838.141651399332
 21
1467.329378513647
 31
0.0
  0
ARC
  5
193
330
2
100
AcDbEntity
  8
0
100
AcDbCircle
 10
2820.141651399326
 20
1508.829378513651
 30
0.0
 40
56.5
100
AcDbArc
 50
180.0
 51
270.0
  0
ARC
  5
194
330
2
100
AcDbEntity
  8
0
100
AcDbCircle
 10
2820.141651399326
 20
1508.829378513651
 30
0.0
 40
88.49999999999999
100
AcDbArc
 50
180.0
 51
270.0
  0
ARC
  5
195
330
2
100
AcDbEntity
  8
05-01
100
AcDbCircle
 10
2820.141651399326
 20
1508.829378513651
 30
0.0
 40
72.5
100
AcDbArc
 50
180.0
 51
270.0
  0
ARC
  5
196
330
2
100
AcDbEntity
  8
0
100
AcDbCircle
 10
2652.641651399331
 20
2260.216873083598
 30
0.0
 40
16.0000000000116
100
AcDbArc
 50
244.0555202276294
 51
295.9444797723706
  0
LINE
  5
197
330
2
100
AcDbEntity
  8
0
  6
Continuous
 62
     7
370
    15
100
AcDbLine
 10
2645.641651399331
 20
2245.829378513648
 30
0.0
 11
2645.641651399331
 21
2293.329378513651
 31
0.0
  0
LINE
  5
198
330
2
100
AcDbEntity
  8
0
  6
Continuous
 62
     7
370
    15
100
AcDbLine
 10
2659.64165139933
 20
2293.32937851365
 30
0.0
 11
2659.641651399331
 21
2245.829378513648
 31
0.0
  0
LINE
  5
199
330
2
100
AcDbEntity
  8
05-01
100
AcDbLine
 10
2652.641651399331
 20
2323.757055622124
 30
0.0
 11
2652.641651399331
 21
2242.829378513647
 31
0.0
  0
LINE
  5
19A
330
2
100
AcDbEntity
  8
0
100
AcDbLine
 10
2659.641651399333
 20
2245.829378513648
 30
0.0
 11
2675.141651399326
 21
2245.829378513648
 31
0.0
  0
LINE
  5
19B
330
2
100
AcDbEntity
  8
0
100
AcDbLine
 10
2026.641651399334
 20
2245.829378513648
 30
0.0
 11
2645.641651399331
 21
2245.829378513648
 31
0.0
  0
LINE
  5
19C
330
2
100
AcDbEntity
  8
0
100
AcDbLine
 10
2675.141651399326
 20
2213.829378513647
 30
0.0
 11
2026.641651399334
 21
2213.829378513648
 31
0.0
  0
LINE
  5
19D
330
2
100
AcDbEntity
  8
0
100
AcDbLine
 10
2763.641651399327
 20
2127.829378513648
 30
0.0
 11
2763.641651399328
 21
1508.829378513651
 31
0.0
  0
LINE
  5
19E
330
2
100
AcDbEntity
  8
0
100
AcDbLine
 10
2763.641651399327
 20
2157.329378513651
 30
0.0
 11
2763.641651399327
 21
2141.829378513648
 31
0.0
  0
LINE
  5
19F
102
{ACAD_REACTORS
330
E0
102
}
330
2
100
AcDbEntity
  8
0
100
AcDbLine
 10
2731.641651399328
 20
1508.829378513651
 30
0.0
 11
2731.641651399327
 21
2157.329378513651
 31
0.0
  0
LINE
  5
1A0
330
2
100
AcDbEntity
  8
05-01
100
AcDbLine
 10
2747.641651399327
 20
1508.829378513651
 30
0.0
 11
2747.641651399325
 21
2157.329378513651
 31
0.0
  0
ARC
  5
1A1
330
2
100
AcDbEntity
  8
0
100
AcDbCircle
 10
2675.141651399326
 20
2157.329378513651
 30
0.0
 40
56.5
100
AcDbArc
 50
0.0
 51
90.0
  0
ARC
  5
1A2
330
2
100
AcDbEntity
  8
0
100
AcDbCircle
 10
2675.141651399326
 20
2157.329378513651
 30
0.0
 40
88.49999999999999
100
AcDbArc
 50
0.0
 51
90.0
  0
ARC
  5
1A3
330
2
100
AcDbEntity
  8
05-01
100
AcDbCircle
 10
2675.141651399326
 20
2157.329378513651
 30
0.0
 40
72.5
100
AcDbArc
 50
0.0
 51
90.0
  0
LINE
  5
1A4
330
2
100
AcDbEntity
  8
05-01
100
AcDbLine
 10
1954.141651399334
 20
2302.329378513647
 30
0.0
 11
1954.141651399334
 21
2324.059547232117
 31
0.0
  0
LINE
  5
1A5
330
2
100
AcDbEntity
  8
0
100
AcDbLine
 10
1935.822499355048
 20
2302.755119020734
 30
0.0
 11
1935.641651399335
 21
2302.574271065021
 31
0.0
1001
AcDbBlockRepETag
1070
     1
1071
       12
1005
0
  0
LINE
  5
1A6
330
2
100
AcDbEntity
  8
0
100
AcDbLine
 10
1938.14165139933
 20
2300.074271065021
 30
0.0
 11
1970.141651399332
 21
2300.074271065023
 31
0.0
  0
LINE
  5
1A7
330
2
100
AcDbEntity
  8
0
100
AcDbLine
 10
1972.965227835677
 20
2302.755119020734
 30
0.0
 11
1935.318074962973
 21
2302.755119020734
 31
0.0
  0
LINE
  5
1A8
330
2
100
AcDbEntity
  8
0
100
AcDbLine
 10
1986.64165139933
 20
2321.829378513636
 30
0.0
 11
1921.64165139933
 21
2321.829378513652
 31
0.0
  0
LINE
  5
1A9
330
2
100
AcDbEntity
  8
0
100
AcDbLine
 10
1972.64165139933
 20
2302.574271065021
 30
0.0
 11
1970.14165139933
 21
2300.074271065021
 31
0.0
1001
AcDbBlockRepETag
1070
     1
1071
       15
1005
0
  0
LINE
  5
1AA
330
2
100
AcDbEntity
  8
0
100
AcDbLine
 10
1935.64165139933
 20
2302.574271065021
 30
0.0
 11
1938.14165139933
 21
2300.074271065021
 31
0.0
1001
AcDbBlockRepETag
1070
     1
1071
       14
1005
0
  0
LINE
  5
1AB
330
2
100
AcDbEntity
  8
0
100
AcDbLine
 10
1972.460803443617
 20
2302.755119020734
 30
0.0
 11
1972.64165139933
 21
2302.574271065021
 31
0.0
1001
AcDbBlockRepETag
1070
     1
1071
       12
1005
0
  0
LINE
  5
1AC
102
{ACAD_REACTORS
330
145
330
EF
330
D1
330
C2
102
}
330
2
100
AcDbEntity
  8
0
100
AcDbLine
 10
1916.641651399326
 20
2320.329378513651
 30
0.0
 11
1991.641651399328
 21
2320.32937851365
 31
0.0
1001
AcDbBlockRepETag
1070
     1
1071
       26
1005
0
  0
LINE
  5
1AD
330
2
100
AcDbEntity
  8
0
100
AcDbLine
 10
1972.965227835677
 20
2302.755119020734
 30
0.0
 11
1972.460803443617
 21
2302.755119020734
 31
0.0
1001
AcDbBlockRepETag
1070
     1
1071
       25
1005
0
  0
LINE
  5
1AE
330
2
100
AcDbEntity
  8
0
  6
Continuous
 62
     7
370
    15
100
AcDbLine
 10
1991.641651399328
 20
2320.32937851365
 30
0.0
 11
1991.641651399326
 21
2307.729378513653
 31
0.0
1001
AcDbBlockRepETag
1070
     1
1071
       24
1005
0
  0
ARC
  5
1AF
330
2
100
AcDbEntity
  8
0
  6
Continuous
 62
     7
370
    15
100
AcDbCircle
 10
1989.241651399325
 20
2307.729378513653
 30
0.0
 40
2.400000000000005
100
AcDbArc
 50
270.0
 51
0.0
1001
AcDbBlockRepETag
1070
     1
1071
       22
1005
0
  0
LINE
  5
1B0
330
2
100
AcDbEntity
  8
0
  6
Continuous
 62
     7
370
    15
100
AcDbLine
 10
1976.280062692865
 20
2305.076191375657
 30
0.0
 11
1972.965227835677
 21
2302.755119020734
 31
0.0
1001
AcDbBlockRepETag
1070
     1
1071
       20
1005
0
  0
ARC
  5
1B1
330
2
100
AcDbEntity
  8
0
  6
Continuous
 62
     7
370
    15
100
AcDbCircle
 10
1977.083069703756
 20
2303.929378513652
 30
0.0
 40
1.400000000000005
100
AcDbArc
 50
90.0
 51
124.9999999999808
1001
AcDbBlockRepETag
1070
     1
1071
       17
1005
0
  0
ARC
  5
1B2
330
2
100
AcDbEntity
  8
0
  6
Continuous
 62
     7
370
    15
100
AcDbCircle
 10
1931.200233094894
 20
2303.929378513652
 30
0.0
 40
1.400000000000006
100
AcDbArc
 50
55.00000000001918
 51
90.0
1001
AcDbBlockRepETag
1070
     1
1071
       10
1005
0
  0
LINE
  5
1B3
330
2
100
AcDbEntity
  8
0
  6
Continuous
 62
     7
370
    15
100
AcDbLine
 10
1935.318074962973
 20
2302.755119020734
 30
0.0
 11
1932.003240105787
 21
2305.076191375657
 31
0.0
1001
AcDbBlockRepETag
1070
     1
1071
        6
1005
0
  0
LINE
  5
1B4
330
2
100
AcDbEntity
  8
0
  6
Continuous
 62
     7
370
    15
100
AcDbLine
 10
1989.241651399325
 20
2305.329378513652
 30
0.0
 11
1919.041651399328
 21
2305.329378513651
 31
0.0
1001
AcDbBlockRepETag
1070
     1
1071
        5
1005
0
  0
ARC
  5
1B5
330
2
100
AcDbEntity
  8
0
  6
Continuous
 62
     7
370
    15
100
AcDbCircle
 10
1919.041651399328
 20
2307.729378513653
 30
0.0
 40
2.400000000000005
100
AcDbArc
 50
180.0
 51
270.0
1001
AcDbBlockRepETag
1070
     1
1071
        3
1005
0
  0
LINE
  5
1B6
330
2
100
AcDbEntity
  8
0
  6
Continuous
 62
     7
370
    15
100
AcDbLine
 10
1916.641651399326
 20
2307.729378513653
 30
0.0
 11
1916.641651399326
 21
2320.329378513651
 31
0.0
1001
AcDbBlockRepETag
1070
     1
1071
        2
1005
0
  0
LINE
  5
1B7
330
2
100
AcDbEntity
  8
0
100
AcDbLine
 10
1988.14165139933
 20
2320.829378513635
 30
0.0
 11
1988.14165139933
 21
2320.329378513635
 31
0.0
  0
LINE
  5
1B8
330
2
100
AcDbEntity
  8
0
100
AcDbLine
 10
1988.14165139933
 20
2320.829378513635
 30
0.0
 11
1920.14165139933
 21
2320.829378513634
 31
0.0
  0
ARC
  5
1B9
330
2
100
AcDbEntity
  8
0
100
AcDbCircle
 10
1986.64165139933
 20
2321.679378513636
 30
0.0
 40
0.15
100
AcDbArc
 50
10.00000000005806
 51
90.0
  0
LINE
  5
1BA
330
2
100
AcDbEntity
  8
0
100
AcDbLine
 10
1986.943843324712
 20
2320.829378513635
 30
0.0
 11
1986.78937256228
 21
2321.705425740284
 31
0.0
  0
LINE
  5
1BB
330
2
100
AcDbEntity
  8
0
100
AcDbLine
 10
1920.14165139933
 20
2320.829378513651
 30
0.0
 11
1920.14165139933
 21
2320.329378513651
 31
0.0
  0
LINE
  5
1BC
330
2
100
AcDbEntity
  8
0
100
AcDbLine
 10
1921.49393023638
 20
2321.705425740303
 30
0.0
 11
1921.339459473942
 21
2320.829378513635
 31
0.0
  0
ARC
  5
1BD
330
2
100
AcDbEntity
  8
0
100
AcDbCircle
 10
1921.64165139933
 20
2321.679378513652
 30
0.0
 40
0.15
100
AcDbArc
 50
90.0
 51
169.9999999999419
  0
LINE
  5
1BE
330
2
100
AcDbEntity
  8
0
100
AcDbLine
 10
1923.14165139933
 20
2320.329378513651
 30
0.0
 11
1985.14165139933
 21
2320.329378513653
 31
0.0
  0
LINE
  5
1BF
330
2
100
AcDbEntity
  8
05-01
100
AcDbLine
 10
2026.641651399334
 20
2229.829378513648
 30
0.0
 11
2675.141651399326
 21
2229.829378513648
 31
0.0
  0
ARC
  5
1C0
330
2
100
AcDbEntity
  8
0
100
AcDbCircle
 10
2026.641651399334
 20
2302.329378513647
 30
0.0
 40
56.5
100
AcDbArc
 50
180.0
 51
270.0
  0
ARC
  5
1C1
330
2
100
AcDbEntity
  8
0
100
AcDbCircle
 10
2026.641651399334
 20
2302.329378513647
 30
0.0
 40
88.49999999999999
100
AcDbArc
 50
180.0
 51
270.0
  0
ARC
  5
1C2
330
2
100
AcDbEntity
  8
05-01
100
AcDbCircle
 10
2026.641651399334
 20
2302.329378513647
 30
0.0
 40
72.5
100
AcDbArc
 50
180.0
 51
270.0
  0
LINE
  5
1C3
330
2
100
AcDbEntity
  8
0
100
AcDbLine
 10
609.3005528599315
 20
2732.017791973092
 30
0.0
 11
1402.800552859913
 21
2732.017791973092
 31
0.0
  0
LINE
  5
1C4
330
2
100
AcDbEntity
  8
0
100
AcDbLine
 10
1402.800552859913
 20
2764.017791973092
 30
0.0
 11
609.3005528599315
 21
2764.017791973092
 31
0.0
  0
LINE
  5
1C5
330
2
100
AcDbEntity
  8
05-01
100
AcDbLine
 10
1419.800552859916
 20
2748.017791973095
 30
0.0
 11
569.800552859936
 21
2748.017791973095
 31
0.0
  0
LINE
  5
1C6
330
2
100
AcDbEntity
  8
0
100
AcDbLine
 10
2817.88654395072
 20
2764.017791973097
 30
0.0
 11
2747.641651399344
 21
2764.017791973097
 31
0.0
  0
LINE
  5
1C7
330
2
100
AcDbEntity
  8
0
100
AcDbLine
 10
2747.641651399343
 20
2732.017791973097
 30
0.0
 11
2817.88654395072
 21
2732.017791973097
 31
0.0
  0
LINE
  5
1C8
330
2
100
AcDbEntity
  8
0
100
AcDbLine
 10
2820.567391906429
 20
2766.336944017379
 30
0.0
 11
2820.386543950717
 21
2766.517791973092
 31
0.0
1001
AcDbBlockRepETag
1070
     1
1071
       12
1005
0
  0
LINE
  5
1C9
330
2
100
AcDbEntity
  8
0
100
AcDbLine
 10
2817.886543950717
 20
2764.017791973099
 30
0.0
 11
2817.886543950718
 21
2732.017791973097
 31
0.0
  0
LINE
  5
1CA
330
2
100
AcDbEntity
  8
0
100
AcDbLine
 10
2820.567391906429
 20
2729.194215536752
 30
0.0
 11
2820.567391906429
 21
2766.841368409455
 31
0.0
  0
LINE
  5
1CB
330
2
100
AcDbEntity
  8
0
100
AcDbLine
 10
2839.641651399331
 20
2715.517791973099
 30
0.0
 11
2839.641651399347
 21
2780.517791973099
 31
0.0
  0
LINE
  5
1CC
330
2
100
AcDbEntity
  8
0
100
AcDbLine
 10
2820.386543950716
 20
2729.517791973099
 30
0.0
 11
2817.886543950717
 21
2732.017791973099
 31
0.0
1001
AcDbBlockRepETag
1070
     1
1071
       15
1005
0
  0
LINE
  5
1CD
330
2
100
AcDbEntity
  8
0
100
AcDbLine
 10
2820.386543950716
 20
2766.517791973099
 30
0.0
 11
2817.886543950717
 21
2764.017791973099
 31
0.0
1001
AcDbBlockRepETag
1070
     1
1071
       14
1005
0
  0
LINE
  5
1CE
330
2
100
AcDbEntity
  8
0
100
AcDbLine
 10
2820.567391906429
 20
2729.698639928812
 30
0.0
 11
2820.386543950716
 21
2729.517791973099
 31
0.0
1001
AcDbBlockRepETag
1070
     1
1071
       12
1005
0
  0
LINE
  5
1CF
330
2
100
AcDbEntity
  8
0
100
AcDbLine
 10
2838.141651399347
 20
2785.517791973103
 30
0.0
 11
2838.141651399347
 21
2710.517791973101
 31
0.0
1001
AcDbBlockRepETag
1070
     1
1071
       26
1005
0
  0
LINE
  5
1D0
330
2
100
AcDbEntity
  8
0
100
AcDbLine
 10
2820.567391906429
 20
2729.194215536752
 30
0.0
 11
2820.567391906429
 21
2729.698639928812
 31
0.0
1001
AcDbBlockRepETag
1070
     1
1071
       25
1005
0
  0
LINE
  5
1D1
330
2
100
AcDbEntity
  8
0
  6
Continuous
 62
     7
370
    15
100
AcDbLine
 10
2838.141651399347
 20
2710.517791973101
 30
0.0
 11
2825.541651399349
 21
2710.517791973102
 31
0.0
1001
AcDbBlockRepETag
1070
     1
1071
       24
1005
0
  0
ARC
  5
1D2
330
2
100
AcDbEntity
  8
0
  6
Continuous
 62
     7
370
    15
100
AcDbCircle
 10
2825.541651399349
 20
2712.917791973104
 30
0.0
 40
2.400000000000005
100
AcDbArc
 50
180.0
 51
270.0
1001
AcDbBlockRepETag
1070
     1
1071
       22
1005
0
  0
LINE
  5
1D3
330
2
100
AcDbEntity
  8
0
  6
Continuous
 62
     7
370
    15
100
AcDbLine
 10
2822.888464261353
 20
2725.879380679563
 30
0.0
 11
2820.567391906429
 21
2729.194215536752
 31
0.0
1001
AcDbBlockRepETag
1070
     1
1071
       20
1005
0
  0
ARC
  5
1D4
330
2
100
AcDbEntity
  8
0
  6
Continuous
 62
     7
370
    15
100
AcDbCircle
 10
2821.741651399348
 20
2725.076373668672
 30
0.0
 40
1.400000000000005
100
AcDbArc
 50
0.0
 51
34.9999999999931
1001
AcDbBlockRepETag
1070
     1
1071
       17
1005
0
  0
ARC
  5
1D5
330
2
100
AcDbEntity
  8
0
  6
Continuous
 62
     7
370
    15
100
AcDbCircle
 10
2821.741651399348
 20
2770.959210277534
 30
0.0
 40
1.400000000000006
100
AcDbArc
 50
325.0000000000069
 51
0.0
1001
AcDbBlockRepETag
1070
     1
1071
       10
1005
0
  0
LINE
  5
1D6
330
2
100
AcDbEntity
  8
0
  6
Continuous
 62
     7
370
    15
100
AcDbLine
 10
2820.567391906429
 20
2766.841368409455
 30
0.0
 11
2822.888464261353
 21
2770.156203266642
 31
0.0
1001
AcDbBlockRepETag
1070
     1
1071
        6
1005
0
  0
LINE
  5
1D7
330
2
100
AcDbEntity
  8
0
  6
Continuous
 62
     7
370
    15
100
AcDbLine
 10
2823.141651399348
 20
2712.917791973104
 30
0.0
 11
2823.141651399348
 21
2783.117791973101
 31
0.0
1001
AcDbBlockRepETag
1070
     1
1071
        5
1005
0
  0
ARC
  5
1D8
330
2
100
AcDbEntity
  8
0
  6
Continuous
 62
     7
370
    15
100
AcDbCircle
 10
2825.541651399349
 20
2783.117791973101
 30
0.0
 40
2.400000000000005
100
AcDbArc
 50
90.0
 51
180.0
1001
AcDbBlockRepETag
1070
     1
1071
        3
1005
0
  0
LINE
  5
1D9
330
2
100
AcDbEntity
  8
0
  6
Continuous
 62
     7
370
    15
100
AcDbLine
 10
2825.541651399349
 20
2785.517791973103
 30
0.0
 11
2838.141651399347
 21
2785.517791973103
 31
0.0
1001
AcDbBlockRepETag
1070
     1
1071
        2
1005
0
  0
LINE
  5
1DA
330
2
100
AcDbEntity
  8
0
100
AcDbLine
 10
2838.641651399331
 20
2714.017791973099
 30
0.0
 11
2838.141651399331
 21
2714.017791973099
 31
0.0
  0
LINE
  5
1DB
330
2
100
AcDbEntity
  8
0
100
AcDbLine
 10
2838.641651399331
 20
2714.017791973099
 30
0.0
 11
2838.64165139933
 21
2782.017791973099
 31
0.0
  0
ARC
  5
1DC
330
2
100
AcDbEntity
  8
0
100
AcDbCircle
 10
2839.491651399331
 20
2715.517791973099
 30
0.0
 40
0.15
100
AcDbArc
 50
280.0000000000579
 51
0.0
  0
LINE
  5
1DD
330
2
100
AcDbEntity
  8
0
100
AcDbLine
 10
2838.641651399331
 20
2715.215600047717
 30
0.0
 11
2839.51769862598
 21
2715.370070810149
 31
0.0
  0
LINE
  5
1DE
330
2
100
AcDbEntity
  8
0
100
AcDbLine
 10
2838.641651399348
 20
2782.017791973099
 30
0.0
 11
2838.141651399347
 21
2782.017791973099
 31
0.0
  0
LINE
  5
1DF
330
2
100
AcDbEntity
  8
0
100
AcDbLine
 10
2839.517698625999
 20
2780.665513136049
 30
0.0
 11
2838.641651399331
 21
2780.819983898487
 31
0.0
  0
ARC
  5
1E0
330
2
100
AcDbEntity
  8
0
100
AcDbCircle
 10
2839.491651399347
 20
2780.517791973099
 30
0.0
 40
0.15
100
AcDbArc
 50
0.0
 51
79.99999999994205
  0
LINE
  5
1E1
330
2
100
AcDbEntity
  8
0
100
AcDbLine
 10
2838.141651399347
 20
2779.017791973099
 30
0.0
 11
2838.141651399349
 21
2717.017791973099
 31
0.0
  0
LINE
  5
1E2
330
2
100
AcDbEntity
  8
05-01
100
AcDbLine
 10
2747.641651399343
 20
2765.017791973098
 30
0.0
 11
2747.641651399343
 21
2731.017791973093
 31
0.0
  0
ARC
  5
1E3
330
2
100
AcDbEntity
  8
0
100
AcDbCircle
 10
2747.641651399343
 20
2748.017791973095
 30
0.0
 40
16.00000000000227
100
AcDbArc
 50
90.0
 51
270.0
  0
LINE
  5
1E4
330
2
100
AcDbEntity
  8
0
100
AcDbLine
 10
1954.141651399349
 20
2732.017791973092
 30
0.0
 11
2747.641651399343
 21
2732.017791973092
 31
0.0
  0
LINE
  5
1E5
330
2
100
AcDbEntity
  8
0
100
AcDbLine
 10
2747.641651399343
 20
2764.017791973092
 30
0.0
 11
1954.141651399349
 21
2764.017791973092
 31
0.0
  0
ARC
  5
1E6
330
2
100
AcDbEntity
  8
0
100
AcDbCircle
 10
1402.800552859913
 20
2748.017791973095
 30
0.0
 40
16.0
100
AcDbArc
 50
270.0
 51
90.0
  0
DIMENSION
  5
1E7
102
{ACAD_XDICTIONARY
360
1E8
102
}
102
{ACAD_REACTORS
330
1E9
102
}
330
2
100
AcDbEntity
  8
09-01
100
AcDbDimension
280
     0
  2
*D4
 10
572.5902837145858
 20
822.423696130161
 30
0.0
 11
533.6702493559478
 21
1049.593899442568
 31
0.0
 70
     2
 71
     5
 42
1.570796326794897
 73
     0
 74
     0
 75
     0
  3
Wagner
100
AcDb2LineAngularDimension
 13
760.8404526683552
 23
638.2986961301574
 33
0.0
 14
760.8404526683552
 24
1006.548696130164
 34
0.0
 15
944.9654526683534
 25
822.423696130161
 35
0.0
 16
611.4568614226254
 26
1081.163665984866
 36
0.0
1001
ACAD
1000
DSTYLE
1002
{
1070
    40
1040
10.0
1002
}
  0
DIMENSION
  5
1F8
102
{ACAD_XDICTIONARY
360
1F9
102
}
102
{ACAD_REACTORS
330
1FA
102
}
330
2
100
AcDbEntity
  8
09-01
100
AcDbDimension
280
     0
  2
*D3
 10
572.5902837145858
 20
822.423696130161
 30
0.0
 11
535.3464382123356
 21
915.8263751517951
 31
0.0
 70
     2
 71
     5
 42
0.7853981633974489
 73
     0
 74
     0
 75
     0
  3
Wagner
100
AcDb2LineAngularDimension
 13
891.0364887543273
 23
692.2276600441798
 33
0.0
 14
630.6444165823831
 24
952.6197322161239
 34
0.0
 15
944.9654526683534
 25
822.423696130161
 35
0.0
 16
568.9526383863783
 26
933.2101773600641
 36
0.0
1001
ACAD
1000
DSTYLE
1002
{
1070
    40
1040
10.0
1002
}
  0
LINE
  5
209
330
2
100
AcDbEntity
  8
0
100
AcDbLine
 10
1473.04544541129
 20
2732.017791973092
 30
0.0
 11
1402.800552859913
 21
2732.017791973092
 31
0.0
  0
LINE
  5
20A
330
2
100
AcDbEntity
  8
0
100
AcDbLine
 10
1402.800552859913
 20
2764.017791973092
 30
0.0
 11
1473.04544541129
 21
2764.017791973092
 31
0.0
  0
LINE
  5
20B
330
2
100
AcDbEntity
  8
05-01
100
AcDbLine
 10
1385.80055285991
 20
2748.017791973095
 30
0.0
 11
1497.030721578383
 21
2748.017791973095
 31
0.0
  0
LINE
  5
20C
330
2
100
AcDbEntity
  8
0
100
AcDbLine
 10
1475.726293366999
 20
2729.698639928811
 30
0.0
 11
1475.545445411287
 21
2729.517791973098
 31
0.0
1001
AcDbBlockRepETag
1070
     1
1071
       12
1005
0
  0
LINE
  5
20D
330
2
100
AcDbEntity
  8
0
100
AcDbLine
 10
1473.045445411286
 20
2732.017791973091
 30
0.0
 11
1473.045445411288
 21
2764.017791973093
 31
0.0
  0
LINE
  5
20E
330
2
100
AcDbEntity
  8
0
100
AcDbLine
 10
1475.726293366999
 20
2766.841368409439
 30
0.0
 11
1475.726293366999
 21
2729.194215536735
 31
0.0
  0
LINE
  5
20F
330
2
100
AcDbEntity
  8
0
100
AcDbLine
 10
1494.8005528599
 20
2780.517791973091
 30
0.0
 11
1494.800552859917
 21
2715.517791973092
 31
0.0
  0
LINE
  5
210
330
2
100
AcDbEntity
  8
0
100
AcDbLine
 10
1475.545445411286
 20
2766.517791973092
 30
0.0
 11
1473.045445411286
 21
2764.017791973091
 31
0.0
1001
AcDbBlockRepETag
1070
     1
1071
       15
1005
0
  0
LINE
  5
211
330
2
100
AcDbEntity
  8
0
100
AcDbLine
 10
1475.545445411286
 20
2729.517791973091
 30
0.0
 11
1473.045445411286
 21
2732.017791973091
 31
0.0
1001
AcDbBlockRepETag
1070
     1
1071
       14
1005
0
  0
LINE
  5
212
330
2
100
AcDbEntity
  8
0
100
AcDbLine
 10
1475.726293366999
 20
2766.336944017379
 30
0.0
 11
1475.545445411286
 21
2766.517791973092
 31
0.0
1001
AcDbBlockRepETag
1070
     1
1071
       12
1005
0
  0
LINE
  5
213
330
2
100
AcDbEntity
  8
0
100
AcDbLine
 10
1493.300552859917
 20
2710.517791973088
 30
0.0
 11
1493.300552859916
 21
2785.51779197309
 31
0.0
1001
AcDbBlockRepETag
1070
     1
1071
       26
1005
0
  0
LINE
  5
214
330
2
100
AcDbEntity
  8
0
100
AcDbLine
 10
1475.726293366999
 20
2766.841368409439
 30
0.0
 11
1475.726293366999
 21
2766.336944017379
 31
0.0
1001
AcDbBlockRepETag
1070
     1
1071
       25
1005
0
  0
LINE
  5
215
330
2
100
AcDbEntity
  8
0
  6
Continuous
 62
     7
370
    15
100
AcDbLine
 10
1493.300552859916
 20
2785.51779197309
 30
0.0
 11
1480.700552859918
 21
2785.517791973088
 31
0.0
1001
AcDbBlockRepETag
1070
     1
1071
       24
1005
0
  0
ARC
  5
216
330
2
100
AcDbEntity
  8
0
  6
Continuous
 62
     7
370
    15
100
AcDbCircle
 10
1480.700552859918
 20
2783.117791973086
 30
0.0
 40
2.400000000000005
100
AcDbArc
 50
90.0
 51
180.0
1001
AcDbBlockRepETag
1070
     1
1071
       22
1005
0
  0
LINE
  5
217
330
2
100
AcDbEntity
  8
0
  6
Continuous
 62
     7
370
    15
100
AcDbLine
 10
1478.047365721923
 20
2770.156203266627
 30
0.0
 11
1475.726293366999
 21
2766.841368409439
 31
0.0
1001
AcDbBlockRepETag
1070
     1
1071
       20
1005
0
  0
ARC
  5
218
330
2
100
AcDbEntity
  8
0
  6
Continuous
 62
     7
370
    15
100
AcDbCircle
 10
1476.900552859917
 20
2770.959210277518
 30
0.0
 40
1.400000000000005
100
AcDbArc
 50
325.0000000000189
 51
0.0
1001
AcDbBlockRepETag
1070
     1
1071
       17
1005
0
  0
ARC
  5
219
330
2
100
AcDbEntity
  8
0
  6
Continuous
 62
     7
370
    15
100
AcDbCircle
 10
1476.900552859917
 20
2725.076373668656
 30
0.0
 40
1.400000000000006
100
AcDbArc
 50
0.0
 51
34.99999999998111
1001
AcDbBlockRepETag
1070
     1
1071
       10
1005
0
  0
LINE
  5
21A
330
2
100
AcDbEntity
  8
0
  6
Continuous
 62
     7
370
    15
100
AcDbLine
 10
1475.726293366999
 20
2729.194215536735
 30
0.0
 11
1478.047365721923
 21
2725.879380679549
 31
0.0
1001
AcDbBlockRepETag
1070
     1
1071
        6
1005
0
  0
LINE
  5
21B
330
2
100
AcDbEntity
  8
0
  6
Continuous
 62
     7
370
    15
100
AcDbLine
 10
1478.300552859917
 20
2783.117791973086
 30
0.0
 11
1478.300552859917
 21
2712.917791973089
 31
0.0
1001
AcDbBlockRepETag
1070
     1
1071
        5
1005
0
  0
ARC
  5
21C
330
2
100
AcDbEntity
  8
0
  6
Continuous
 62
     7
370
    15
100
AcDbCircle
 10
1480.700552859918
 20
2712.917791973089
 30
0.0
 40
2.400000000000005
100
AcDbArc
 50
180.0
 51
270.0
1001
AcDbBlockRepETag
1070
     1
1071
        3
1005
0
  0
LINE
  5
21D
330
2
100
AcDbEntity
  8
0
  6
Continuous
 62
     7
370
    15
100
AcDbLine
 10
1480.700552859918
 20
2710.517791973088
 30
0.0
 11
1493.300552859917
 21
2710.517791973088
 31
0.0
1001
AcDbBlockRepETag
1070
     1
1071
        2
1005
0
  0
LINE
  5
21E
330
2
100
AcDbEntity
  8
0
100
AcDbLine
 10
1493.800552859901
 20
2782.017791973091
 30
0.0
 11
1493.3005528599
 21
2782.017791973091
 31
0.0
  0
LINE
  5
21F
330
2
100
AcDbEntity
  8
0
100
AcDbLine
 10
1493.800552859901
 20
2782.017791973091
 30
0.0
 11
1493.800552859899
 21
2714.017791973092
 31
0.0
  0
ARC
  5
220
330
2
100
AcDbEntity
  8
0
100
AcDbCircle
 10
1494.650552859901
 20
2780.517791973091
 30
0.0
 40
0.15
100
AcDbArc
 50
0.0
 51
79.99999999988856
  0
LINE
  5
221
330
2
100
AcDbEntity
  8
0
100
AcDbLine
 10
1493.800552859901
 20
2780.819983898474
 30
0.0
 11
1494.67660008655
 21
2780.665513136041
 31
0.0
  0
LINE
  5
222
330
2
100
AcDbEntity
  8
0
100
AcDbLine
 10
1493.800552859917
 20
2714.017791973092
 30
0.0
 11
1493.300552859917
 21
2714.017791973092
 31
0.0
  0
LINE
  5
223
330
2
100
AcDbEntity
  8
0
100
AcDbLine
 10
1494.676600086568
 20
2715.370070810142
 30
0.0
 11
1493.800552859901
 21
2715.215600047704
 31
0.0
  0
ARC
  5
224
330
2
100
AcDbEntity
  8
0
100
AcDbCircle
 10
1494.650552859917
 20
2715.517791973092
 30
0.0
 40
0.15
100
AcDbArc
 50
280.0000000001114
 51
0.0
  0
LINE
  5
225
330
2
100
AcDbEntity
  8
0
100
AcDbLine
 10
1493.300552859917
 20
2717.017791973092
 30
0.0
 11
1493.300552859919
 21
2779.017791973092
 31
0.0
  0
LINE
  5
226
330
2
100
AcDbEntity
  8
05-01
100
AcDbLine
 10
1913.044250687007
 20
2748.017791973095
 30
0.0
 11
2851.520074585716
 21
2748.017791973095
 31
0.0
  0
TEXT
  5
227
330
2
100
AcDbEntity
  8
02-01
100
AcDbText
 10
254.9345139713405
 20
437.8737124353586
 30
0.0
 40
60.0
  1
für Durchsteckmontage geeignet
 41
0.6
100
AcDbText
  0
TEXT
  5
228
330
2
100
AcDbEntity
  8
02-01
100
AcDbText
 10
347.071474798111
 20
1191.560232399709
 30
0.0
 40
60.0
  1
%%UBefestigungsbohrungen
 41
0.6
100
AcDbText
  0
LINE
  5
229
102
{ACAD_REACTORS
330
1FA
102
}
330
2
100
AcDbEntity
  8
05-01
100
AcDbLine
 10
891.0364887543273
 20
692.2276600441798
 30
0.0
 11
630.6444165823831
 21
952.6197322161239
 31
0.0
  0
LINE
  5
22A
330
2
100
AcDbEntity
  8
05-01
100
AcDbLine
 10
891.0364887543273
 20
952.6197322161239
 30
0.0
 11
627.7274816416284
 21
689.3107251034304
 31
0.0
  0
DIMENSION
  5
22B
102
{ACAD_XDICTIONARY
360
22C
102
}
102
{ACAD_REACTORS
330
22D
102
}
330
2
100
AcDbEntity
  8
09-01
100
AcDbDimension
280
     0
  2
*D2
 10
885.8404526683553
 20
569.7488655428657
 30
0.0
 11
760.8404526683552
 21
592.2488655428658
 31
0.0
 71
     5
 42
50.0
 73
     0
 74
     0
 75
     0
  3
Wagner$0
100
AcDbAlignedDimension
 13
635.8404526683552
 23
791.9236961301592
 33
0.0
 14
885.8404526683553
 24
791.9236961301592
 34
0.0
100
AcDbRotatedDimension
1001
ACAD
1000
DSTYLE
1002
{
1070
   144
1040
0.2
1070
    40
1040
10.0
1002
}
  0
DIMENSION
  5
23A
102
{ACAD_XDICTIONARY
360
23B
102
}
102
{ACAD_REACTORS
330
23C
102
}
330
2
100
AcDbEntity
  8
09-01
100
AcDbDimension
280
     0
  2
*D1
 10
1021.157096656545
 20
800.9236961301683
 30
0.0
 11
997.976089787233
 21
896.3879844794574
 31
0.0
 70
   128
 71
     5
 42
8.599999999998544
 73
     0
 74
     0
 75
     0
  3
Wagner$0
100
AcDbAlignedDimension
 13
885.8404526683553
 23
843.923696130161
 33
0.0
 14
885.8404526683553
 24
800.9236961301683
 34
0.0
 50
90.0
100
AcDbRotatedDimension
1001
ACAD
1000
DSTYLE
1002
{
1070
   144
1040
0.2
1070
    40
1040
10.0
1002
}
  0
ARC
  5
24B
330
2
100
AcDbEntity
  8
0
100
AcDbCircle
 10
840.1609278444865
 20
685.4868631170464
 30
0.0
 40
25.0
100
AcDbArc
 50
264.2783103389025
 51
335.8847090555173
  0
ARC
  5
24C
330
2
100
AcDbEntity
  8
0
100
AcDbCircle
 10
602.5894389771401
 20
822.1985660939278
 30
0.0
 40
25.0
100
AcDbArc
 50
144.2783103388775
 51
215.8847090555907
  0
ARC
  5
24D
330
2
100
AcDbEntity
  8
0
100
AcDbCircle
 10
839.7709911834372
 20
959.5856591795088
 30
0.0
 40
25.0
100
AcDbArc
 50
24.2783103388968
 51
95.88470905557224
  0
ARC
  5
24E
330
2
100
AcDbEntity
  8
0
100
AcDbCircle
 10
760.8404526683552
 20
822.423696130161
 30
0.0
 40
179.125
100
AcDbArc
 50
304.7647690500803
 51
55.39825034438956
  0
ARC
  5
24F
330
2
100
AcDbEntity
  8
0
100
AcDbCircle
 10
760.8404526683552
 20
822.423696130161
 30
0.0
 40
179.125
100
AcDbArc
 50
184.7647690501395
 51
295.3982503443299
  0
ARC
  5
250
330
2
100
AcDbEntity
  8
0
100
AcDbCircle
 10
760.8404526683552
 20
822.423696130161
 30
0.0
 40
179.125
100
AcDbArc
 50
64.7647690501811
 51
175.3982503443769
  0
CIRCLE
  5
251
330
2
100
AcDbEntity
  8
0
100
AcDbCircle
 10
760.8404526683552
 20
822.423696130161
 30
0.0
 40
70.0
  0
CIRCLE
  5
252
330
2
100
AcDbEntity
  8
0
100
AcDbCircle
 10
760.8404526683552
 20
822.423696130161
 30
0.0
 40
80.0
  0
LINE
  5
253
330
2
100
AcDbEntity
  8
05-01
100
AcDbLine
 10
824.4800629751443
 20
874.0633064369447
 30
0.0
 11
824.4800629751443
 21
898.06330643695
 31
0.0
  0
LINE
  5
254
330
2
100
AcDbEntity
  8
05-01
100
AcDbLine
 10
836.4800629751444
 20
886.0633064369519
 30
0.0
 11
812.4800629751426
 21
886.0633064369519
 31
0.0
  0
LINE
  5
255
330
2
100
AcDbEntity
  8
05-01
100
AcDbLine
 10
672.4521050200382
 20
703.5353484818349
 30
0.0
 11
672.4521050200382
 21
764.5353484818386
 31
0.0
  0
LINE
  5
256
330
2
100
AcDbEntity
  8
05-01
100
AcDbLine
 10
702.9521050200364
 20
734.0353484818368
 30
0.0
 11
641.9521050200382
 21
734.0353484818368
 31
0.0
  0
LINE
  5
257
330
2
100
AcDbEntity
  8
05-01
100
AcDbLine
 10
791.3404526683552
 20
697.423696130161
 30
0.0
 11
730.3404526683553
 21
697.423696130161
 31
0.0
  0
LINE
  5
258
330
2
100
AcDbEntity
  8
05-01
100
AcDbLine
 10
849.2288003166722
 20
703.535348481844
 30
0.0
 11
849.2288003166722
 21
764.5353484818386
 31
0.0
  0
LINE
  5
259
330
2
100
AcDbEntity
  8
05-01
100
AcDbLine
 10
879.7288003166723
 20
734.0353484818368
 30
0.0
 11
818.7288003166722
 21
734.0353484818368
 31
0.0
  0
LINE
  5
25A
102
{ACAD_REACTORS
330
23C
330
22D
102
}
330
2
100
AcDbEntity
  8
05-01
100
AcDbLine
 10
885.8404526683553
 20
791.9236961301592
 30
0.0
 11
885.8404526683553
 21
852.9236961301629
 31
0.0
  0
LINE
  5
25B
330
2
100
AcDbEntity
  8
05-01
100
AcDbLine
 10
849.2288003166722
 20
880.3120437784743
 30
0.0
 11
849.2288003166722
 21
941.312043778478
 31
0.0
  0
LINE
  5
25C
330
2
100
AcDbEntity
  8
05-01
100
AcDbLine
 10
879.7288003166723
 20
910.8120437784762
 30
0.0
 11
818.7288003166722
 21
910.8120437784762
 31
0.0
  0
LINE
  5
25D
330
2
100
AcDbEntity
  8
05-01
100
AcDbLine
 10
791.3404526683552
 20
947.423696130161
 30
0.0
 11
730.3404526683553
 21
947.423696130161
 31
0.0
  0
LINE
  5
25E
330
2
100
AcDbEntity
  8
05-01
100
AcDbLine
 10
672.4521050200382
 20
880.3120437784743
 30
0.0
 11
672.4521050200382
 21
941.312043778478
 31
0.0
  0
LINE
  5
25F
330
2
100
AcDbEntity
  8
05-01
100
AcDbLine
 10
702.9521050200364
 20
910.8120437784762
 30
0.0
 11
641.9521050200346
 21
910.8120437784762
 31
0.0
  0
LINE
  5
260
102
{ACAD_REACTORS
330
1E9
102
}
330
2
100
AcDbEntity
  8
05-01
100
AcDbLine
 10
760.8404526683552
 20
638.2986961301574
 30
0.0
 11
760.8404526683552
 21
1006.548696130164
 31
0.0
  0
LINE
  5
261
102
{ACAD_REACTORS
330
1FA
330
1E9
102
}
330
2
100
AcDbEntity
  8
05-01
100
AcDbLine
 10
944.9654526683534
 20
822.423696130161
 30
0.0
 11
572.5902837145858
 21
822.423696130161
 31
0.0
  0
HATCH
  5
262
330
2
100
AcDbEntity
  8
10-98
100
AcDbHatch
 10
0.0
 20
0.0
 30
0.0
210
0.0
220
0.0
230
1.0
  2
ANSI31
 70
     0
 71
     0
 91
        4
 92
        7
 72
     1
 73
     1
 93
        4
 10
760.8404526683552
 20
902.423696130161
 42
0.0
 10
760.8404526683552
 20
892.4236961301611
 42
-0.4142135623730951
 10
830.8404526683553
 20
822.423696130161
 42
0.0
 10
840.8404526683552
 20
822.423696130161
 42
0.4142135623730951
 97
        0
 92
        7
 72
     1
 73
     1
 93
        4
 10
840.8404526683552
 20
822.423696130161
 42
0.0
 10
830.8404526683553
 20
822.423696130161
 42
-0.4142135623730951
 10
760.8404526683552
 20
752.423696130161
 42
0.0
 10
760.8404526683552
 20
742.423696130161
 42
0.4142135623730951
 97
        0
 92
        7
 72
     1
 73
     1
 93
        4
 10
690.8404526683552
 20
822.423696130161
 42
0.0
 10
680.8404526683553
 20
822.423696130161
 42
0.4142135623730951
 10
760.8404526683552
 20
742.423696130161
 42
0.0
 10
760.8404526683552
 20
752.423696130161
 42
-0.4142135623730951
 97
        0
 92
        7
 72
     1
 73
     1
 93
        4
 10
760.8404526683552
 20
892.4236961301611
 42
0.0
 10
760.8404526683552
 20
902.423696130161
 42
0.4142135623730951
 10
680.8404526683553
 20
822.423696130161
 42
0.0
 10
690.8404526683552
 20
822.423696130161
 42
-0.4142135623730951
 97
        0
 75
     0
 76
     1
 52
0.0
 41
2.5
 77
     0
 78
     1
 53
45.0
 43
-16962.88803230882
 44
-61879.64082842606
 45
-5.61266007566822
 46
5.612660075668221
 79
     0
 47
0.1857602487094524
 98
        4
 10
817.0917729422326
 20
875.5493192924385
 10
833.8213669428405
 20
811.4619648443092
 10
731.584216989333
 20
755.7338526998298
 10
711.1367869986243
 20
877.4068295965824
1001
ACAD
1010
0.0
1020
0.0
1030
0.0
  0
LINE
  5
266
102
{ACAD_REACTORS
330
22D
102
}
330
2
100
AcDbEntity
  8
05-01
100
AcDbLine
 10
635.8404526683552
 20
791.9236961301592
 30
0.0
 11
635.8404526683552
 21
852.9236961301629
 31
0.0
  0
CIRCLE
  5
267
330
2
100
AcDbEntity
  8
0
100
AcDbCircle
 10
824.4800629751443
 20
886.0633064369519
 30
0.0
 40
7.0
  0
ARC
  5
268
330
2
100
AcDbEntity
  8
0
100
AcDbCircle
 10
630.1303796413049
 20
897.889191978127
 30
0.0
 40
22.96900830407592
100
AcDbArc
 50
124.1912076201205
 51
175.8087923798199
  0
ARC
  5
269
330
2
100
AcDbEntity
  8
0
100
AcDbCircle
 10
891.5505256954038
 20
897.8891919781178
 30
0.0
 40
22.96900830407604
100
AcDbArc
 50
4.191207620078865
 51
55.8087923798795
  0
ARC
  5
26A
330
2
100
AcDbEntity
  8
0
100
AcDbCircle
 10
760.8404526683552
 20
671.4927044342291
 30
0.0
 40
22.9690083040667
100
AcDbArc
 50
244.1912076200999
 51
295.8087923799001
  0
ARC
  5
26B
330
2
100
AcDbEntity
  8
0
100
AcDbCircle
 10
836.3059485163175
 20
691.7136231031125
 30
0.0
 40
22.96900830407592
100
AcDbArc
 50
274.1912076201327
 51
325.8087923798759
  0
ARC
  5
26C
330
2
100
AcDbEntity
  8
0
100
AcDbCircle
 10
836.3059485163157
 20
953.1337691572096
 30
0.0
 40
22.96900830407604
100
AcDbArc
 50
34.19120762012405
 51
85.80879237986724
  0
ARC
  5
26D
330
2
100
AcDbEntity
  8
0
100
AcDbCircle
 10
609.9094609724197
 20
822.423696130161
 30
0.0
 40
22.9690083040667
100
AcDbArc
 50
154.1912076201521
 51
205.8087923798479
  0
CIRCLE
  5
26E
330
2
100
AcDbEntity
  8
0
100
AcDbCircle
 10
672.4521050200382
 20
734.0353484818368
 30
0.0
 40
21.50000000000028
  0
CIRCLE
  5
26F
330
2
100
AcDbEntity
  8
0
100
AcDbCircle
 10
849.2288003166722
 20
910.8120437784762
 30
0.0
 40
21.5
  0
CIRCLE
  5
270
330
2
100
AcDbEntity
  8
0
100
AcDbCircle
 10
849.2288003166722
 20
734.0353484818368
 30
0.0
 40
21.5
  0
CIRCLE
  5
271
330
2
100
AcDbEntity
  8
0
100
AcDbCircle
 10
672.4521050200382
 20
910.8120437784762
 30
0.0
 40
21.5
  0
CIRCLE
  5
272
330
2
100
AcDbEntity
  8
0
100
AcDbCircle
 10
635.8404526683552
 20
822.423696130161
 30
0.0
 40
21.50000000000028
  0
CIRCLE
  5
273
102
{ACAD_REACTORS
330
23C
102
}
330
2
100
AcDbEntity
  8
0
100
AcDbCircle
 10
885.8404526683553
 20
822.423696130161
 30
0.0
 40
21.5
  0
CIRCLE
  5
274
330
2
100
AcDbEntity
  8
0
100
AcDbCircle
 10
760.8404526683552
 20
947.423696130161
 30
0.0
 40
21.5
  0
CIRCLE
  5
275
330
2
100
AcDbEntity
  8
0
100
AcDbCircle
 10
760.8404526683552
 20
697.423696130161
 30
0.0
 40
21.5
  0
ARC
  5
276
330
2
100
AcDbEntity
  8
0
100
AcDbCircle
 10
760.8404526683552
 20
822.423696130161
 30
0.0
 40
171.9
100
AcDbArc
 50
33.33497062104988
 51
56.66502937887197
  0
ARC
  5
277
330
2
100
AcDbEntity
  8
0
100
AcDbCircle
 10
760.8404526683552
 20
822.423696130161
 30
0.0
 40
171.9
100
AcDbArc
 50
303.3349706211277
 51
26.66502937888477
  0
ARC
  5
278
330
2
100
AcDbEntity
  8
0
100
AcDbCircle
 10
760.8404526683552
 20
822.423696130161
 30
0.0
 40
171.9
100
AcDbArc
 50
273.3349706210668
 51
296.6650293788791
  0
ARC
  5
279
330
2
100
AcDbEntity
  8
0
100
AcDbCircle
 10
760.8404526683552
 20
822.423696130161
 30
0.0
 40
171.9
100
AcDbArc
 50
183.334970621119
 51
266.6650293789331
  0
ARC
  5
27A
330
2
100
AcDbEntity
  8
0
100
AcDbCircle
 10
760.8404526683552
 20
822.423696130161
 30
0.0
 40
171.9
100
AcDbArc
 50
153.3349706211152
 51
176.6650293788809
  0
ARC
  5
27B
330
2
100
AcDbEntity
  8
0
100
AcDbCircle
 10
760.8404526683552
 20
822.423696130161
 30
0.0
 40
171.9
100
AcDbArc
 50
63.33497062112097
 51
146.6650293789501
  0
INSERT
  5
27C
330
2
100
AcDbEntity
  8
0
100
AcDbBlockReference
 66
     1
  2
DIN A3
 10
-0.0000130276985146
 20
-0.0000251381941325
 30
0.0
 41
10.0
 42
10.0
 43
10.0
  0
ATTRIB
  5
421
330
27C
100
AcDbEntity
  8
06-99
100
AcDbText
 10
3254.954452061421
 20
271.8783694484177
 30
0.0
 40
45.0
  1
Duschumlaufgriff BF 650
 41
0.7
  7
ROMANS8
100
AcDbAttribute
280
     0
  2
TEILE
 70
     0
280
     0
  0
ATTRIB
  5
422
330
27C
100
AcDbEntity
  8
06-99
100
AcDbText
 10
3254.954452061421
 20
198.9177185110266
 30
0.0
 40
45.0
  1

 41
0.9
  7
ROMANS8
100
AcDbAttribute
280
     0
  2
TEILE2
 70
     0
280
     0
  0
ATTRIB
  5
423
330
27C
100
AcDbEntity
  8
06-99
100
AcDbText
 10
4003.473846786795
 20
463.333315808929
 30
0.0
 40
33.75
  1
1:10
  7
ROMANS8
100
AcDbAttribute
280
     0
  2
:
 70
     0
280
     0
  0
ATTRIB
  5
424
330
27C
100
AcDbEntity
  8
06-99
100
AcDbText
 10
3019.970662663324
 20
284.4168371559085
 30
0.0
 40
25.0
  1
Häberle
 41
0.9
  7
ROMANS8
100
AcDbAttribute
280
     0
  2
NAME
 70
     0
280
     0
  0
ATTRIB
  5
425
330
27C
100
AcDbEntity
  8
06-99
100
AcDbText
 10
2884.93144918859
 20
284.6123342167079
 30
0.0
 40
25.0
  1
25.09.2014
 50
359.9144597696142
 41
0.5524647187174878
  7
ROMANS8
 72
     5
 11
2997.397355874038
 21
284.4444271422624
 31
0.0
100
AcDbAttribute
280
     0
  2
DATUM
 70
     0
280
     0
  0
ATTRIB
  5
426
330
27C
100
AcDbEntity
  8
06-99
100
AcDbText
 10
3875.063424341232
 20
84.92898047848269
 30
0.0
 40
29.9376
  1
650XXX
  7
ROMANS8
100
AcDbAttribute
280
     0
  2
ID.NR
 70
     0
280
     0
  0
ATTRIB
  5
427
330
27C
100
AcDbEntity
  8
06-99
100
AcDbText
 10
3257.312647226755
 20
386.6666489200402
 30
0.0
 40
30.0
  1

 41
0.9
  7
ROMANS8
100
AcDbAttribute
280
     0
  2
LÄNGE
 70
     0
280
     0
  0
ATTRIB
  5
428
330
27C
100
AcDbEntity
  8
06-99
100
AcDbText
 10
3591.808033787347
 20
386.7810211800439
 30
0.0
 40
30.0
  1

 41
0.9
  7
ROMANS8
100
AcDbAttribute
280
     0
  2
BREITE
 70
     0
280
     0
  0
ATTRIB
  5
429
330
27C
100
AcDbEntity
  8
06-99
100
AcDbText
 10
3996.090905936969
 20
386.6666491422633
 30
0.0
 40
30.9375
  1

  7
ROMANS8
100
AcDbAttribute
280
     0
  2
1.0
 70
     0
280
     0
  0
ATTRIB
  5
42A
330
27C
100
AcDbEntity
  8
06-99
100
AcDbText
 10
3731.277840683677
 20
463.3333158089301
 30
0.0
 40
30.0
  1

  7
ROMANS8
 72
     1
 11
3731.277840683677
 21
463.3333158089301
 31
0.0
100
AcDbAttribute
280
     0
  2
IV
 70
     0
280
     0
  0
ATTRIB
  5
42B
330
27C
100
AcDbEntity
  8
06-99
100
AcDbText
 10
3322.747390030808
 20
463.3333158089278
 30
0.0
 40
33.75
  1
1.4301
  7
ROMANS8
100
AcDbAttribute
280
     0
  2
1.4301
 70
     0
280
     0
  0
ATTRIB
  5
42C
330
27C
100
AcDbEntity
  8
06-99
100
AcDbText
 10
3550.006323538451
 20
85.04394851914197
 30
0.0
 40
31.68
  1

 41
0.9000000000000001
  7
ROMANS8
100
AcDbAttribute
280
     0
  2
AUFTRAGS.NR.
 70
     0
280
     0
  0
ATTRIB
  5
42D
330
27C
100
AcDbEntity
  8
06-99
100
AcDbText
 10
3254.99998466965
 20
84.99998247559586
 30
0.0
 40
31.68
  1

 41
0.9000000000000001
  7
ROMANS8
100
AcDbAttribute
280
     0
  2
SONDER-NR
 70
     0
280
     0
  0
ATTRIB
  5
42E
330
27C
100
AcDbEntity
  8
06-99
100
AcDbText
 10
2554.997494619733
 20
76.01808316819426
 30
0.0
 40
15.0
  1

 41
0.9
  7
ROMANS8
100
AcDbAttribute
280
     0
  2
ERSETZT.DURCH
 70
     0
280
     0
  0
ATTRIB
  5
42F
330
27C
100
AcDbEntity
  8
06-99
100
AcDbText
 10
2304.994662471635
 20
75.97454645431992
 30
0.0
 40
15.0
  1

 41
0.9
  7
ROMANS8
100
AcDbAttribute
280
     0
  2
ERSETZT.FÜR
 70
     0
280
     0
  0
ATTRIB
  5
430
330
27C
100
AcDbEntity
  8
06-99
100
AcDbText
 10
3090.037139705454
 20
486.6850938756756
 30
0.0
 40
12.87
  1
DIN A3
  7
ROMANS8
 72
     1
 11
3122.518568276883
 21
486.6850938756756
 31
0.0
100
AcDbAttribute
280
     0
  2
FORMAT
 70
     0
280
     0
  0
ATTRIB
  5
431
330
27C
100
AcDbEntity
  8
06-99
100
AcDbText
 10
3049.914270383935
 20
383.9666491422623
 30
0.0
 40
23.4
  1
DIN 2768
  7
ROMANS8
 72
     1
 11
3130.142841812507
 21
383.9666491422623
 31
0.0
100
AcDbAttribute
280
     0
  2
NORM2
 70
     0
280
     0
  0
ATTRIB
  5
432
330
27C
100
AcDbEntity
  8
06-99
100
AcDbText
 10
3018.157127526792
 20
422.2999824755954
 30
0.0
 40
23.4
  1
DIN 6930-M
  7
ROMANS8
 72
     1
 11
3125.128556098221
 21
422.2999824755954
 31
0.0
100
AcDbAttribute
280
     0
  2
NORM1
 70
     0
280
     0
  0
SEQEND
  5
433
330
27C
100
AcDbEntity
  8
0
  0
ENDSEC
  0
SECTION
  2
OBJECTS
  0
DICTIONARY
  5
B
330
0
100
AcDbDictionary
281
     1
  3
ACAD_COLOR
350
3C
  3
ACAD_GROUP
350
37
  3
ACAD_LAYOUT
350
17
  3
ACAD_MATERIAL
350
D
  3
ACAD_MLEADERSTYLE
350
3F
  3
ACAD_MLINESTYLE
350
38
  3
ACAD_PLOTSETTINGS
350
39
  3
ACAD_PLOTSTYLENAME
350
A
  3
ACAD_SCALELIST
350
3D
  3
ACAD_TABLESTYLE
350
3E
  3
ACAD_VISUALSTYLE
350
2F
  3
ACDB_RECOMPOSE_DATA
350
43E
  3
AcDbVariableDictionary
350
436
  0
DICTIONARY
  5
20
330
1F
100
AcDbDictionary
280
     1
281
     1
  3
ACAD_LAYERFILTERS
360
21
  3
ACAD_LAYERSTATES
360
22
  3
ACLYDICTIONARY
360
23
  0
DICTIONARY
  5
7
330
6
100
AcDbDictionary
280
     1
281
     1
  3
ADSK_XREC_LAYER_RECONCILED
360
8
  0
DICTIONARY
  5
127
330
126
100
AcDbDictionary
280
     1
281
     1
  3
ADSK_XREC_LAYER_RECONCILED
360
128
  0
DICTIONARY
  5
264
330
263
100
AcDbDictionary
280
     1
281
     1
  3
ADSK_XREC_LAYER_RECONCILED
360
265
  0
DICTIONARY
  5
104
330
103
100
AcDbDictionary
280
     1
281
     1
  3
ADSK_XREC_LAYER_RECONCILED
360
105
  0
DICTIONARY
  5
283
330
282
100
AcDbDictionary
280
     1
281
     1
  3
ADSK_XREC_LAYER_RECONCILED
360
284
  0
DICTIONARY
  5
2C0
330
2BF
100
AcDbDictionary
280
     1
281
     1
  3
ADSK_XREC_LAYER_RECONCILED
360
2C1
  0
DICTIONARY
  5
2AA
330
2A9
100
AcDbDictionary
280
     1
281
     1
  3
ADSK_XREC_LAYER_RECONCILED
360
2AB
  0
DICTIONARY
  5
BD
330
BC
100
AcDbDictionary
280
     1
281
     1
  3
ADSK_XREC_LAYER_RECONCILED
360
BE
  0
DICTIONARY
  5
3
330
2
100
AcDbDictionary
280
     1
281
     1
  3
ACAD_SORTENTS
360
435
  0
DICTIONARY
  5
27E
330
27D
100
AcDbDictionary
280
     1
281
     1
  3
ACAD_SORTENTS
360
434
  0
DICTIONARY
  5
AB
330
AA
100
AcDbDictionary
280
     1
281
     1
  3
ACAD_DIMASSOC
360
AC
  0
DICTIONARY
  5
C1
330
C0
100
AcDbDictionary
280
     1
281
     1
  3
ACAD_DIMASSOC
360
C2
  0
DICTIONARY
  5
D0
330
CF
100
AcDbDictionary
280
     1
281
     1
  3
ACAD_DIMASSOC
360
D1
  0
DICTIONARY
  5
DF
330
DE
100
AcDbDictionary
280
     1
281
     1
  3
ACAD_DIMASSOC
360
E0
  0
DICTIONARY
  5
EE
330
ED
100
AcDbDictionary
280
     1
281
     1
  3
ACAD_DIMASSOC
360
EF
  0
DICTIONARY
  5
132
330
131
100
AcDbDictionary
280
     1
281
     1
  3
ACAD_DIMASSOC
360
133
  0
DICTIONARY
  5
144
330
143
100
AcDbDictionary
280
     1
281
     1
  3
ACAD_DIMASSOC
360
145
  0
DICTIONARY
  5
1E8
330
1E7
100
AcDbDictionary
280
     1
281
     1
  3
ACAD_DIMASSOC
360
1E9
  0
DICTIONARY
  5
1F9
330
1F8
100
AcDbDictionary
280
     1
281
     1
  3
ACAD_DIMASSOC
360
1FA
  0
DICTIONARY
  5
22C
330
22B
100
AcDbDictionary
280
     1
281
     1
  3
ACAD_DIMASSOC
360
22D
  0
DICTIONARY
  5
23B
330
23A
100
AcDbDictionary
280
     1
281
     1
  3
ACAD_DIMASSOC
360
23C
  0
DICTIONARY
  5
3C
102
{ACAD_REACTORS
330
B
102
}
330
B
100
AcDbDictionary
281
     1
  0
DICTIONARY
  5
37
102
{ACAD_REACTORS
330
B
102
}
330
B
100
AcDbDictionary
281
     1
  0
DICTIONARY
  5
17
102
{ACAD_REACTORS
330
B
102
}
330
B
100
AcDbDictionary
281
     1
  3
Layout1
350
1E
  3
Model
350
16
  0
DICTIONARY
  5
D
102
{ACAD_REACTORS
330
B
102
}
330
B
100
AcDbDictionary
281
     1
  3
ByBlock
350
3B
  3
ByLayer
350
3A
  3
Global
350
C
  0
DICTIONARY
  5
3F
102
{ACAD_REACTORS
330
B
102
}
330
B
100
AcDbDictionary
281
     1
  0
DICTIONARY
  5
38
102
{ACAD_REACTORS
330
B
102
}
330
B
100
AcDbDictionary
281
     1
  3
Standard
350
40
  0
DICTIONARY
  5
39
102
{ACAD_REACTORS
330
B
102
}
330
B
100
AcDbDictionary
281
     1
  0
ACDBDICTIONARYWDFLT
  5
A
102
{ACAD_REACTORS
330
B
102
}
330
B
100
AcDbDictionary
281
     1
  3
Normal
350
9
100
AcDbDictionaryWithDefault
340
9
  0
DICTIONARY
  5
3D
102
{ACAD_REACTORS
330
B
102
}
330
B
100
AcDbDictionary
281
     1
  3
A0
350
45
  3
A1
350
46
  3
A2
350
47
  3
A3
350
48
  3
A4
350
49
  3
A5
350
4A
  3
A6
350
4B
  3
A7
350
4C
  3
A8
350
4D
  3
A9
350
4E
  3
B0
350
4F
  3
B1
350
50
  3
B2
350
51
  3
B3
350
52
  3
B4
350
53
  3
B5
350
54
  3
B6
350
55
  3
B7
350
56
  3
B8
350
57
  3
B9
350
58
  3
C0
350
59
  3
C1
350
5A
  3
C2
350
5B
  3
C3
350
5C
  3
C4
350
5D
  3
C5
350
5E
  3
C6
350
5F
  3
C7
350
60
  3
C8
350
61
  3
C9
350
62
  3
D0
350
63
  3
D1
350
64
  3
D2
350
65
  0
DICTIONARY
  5
3E
102
{ACAD_REACTORS
330
B
102
}
330
B
100
AcDbDictionary
281
     1
  3
Standard
350
41
  0
DICTIONARY
  5
2F
102
{ACAD_REACTORS
330
B
102
}
330
B
100
AcDbDictionary
281
     1
  3
2dWireframe
350
2E
  3
3dWireframe
350
44
  3
Realistic
350
43
  0
XRECORD
  5
43E
102
{ACAD_REACTORS
330
B
102
}
330
B
100
AcDbXrecord
280
     1
 90
        1
330
41
  0
DICTIONARY
  5
436
102
{ACAD_REACTORS
330
B
102
}
330
B
100
AcDbDictionary
281
     1
  3
CANNOSCALE
350
439
  3
CMLEADERSTYLE
350
438
  3
CTABLESTYLE
350
437
  3
LAYEREVAL
350
43A
  3
LAYERNOTIFY
350
43B
  0
DICTIONARY
  5
21
102
{ACAD_REACTORS
330
20
102
}
330
20
100
AcDbDictionary
281
     1
  0
DICTIONARY
  5
22
102
{ACAD_REACTORS
330
20
102
}
330
20
100
AcDbDictionary
281
     1
  0
DICTIONARY
  5
23
102
{ACAD_REACTORS
330
20
102
}
330
20
100
AcDbDictionary
281
     1
1001
ACAD
1000
<All
  0
XRECORD
  5
8
102
{ACAD_REACTORS
330
7
102
}
330
7
100
AcDbXrecord
280
     1
290
     1
  0
XRECORD
  5
128
102
{ACAD_REACTORS
330
127
102
}
330
127
100
AcDbXrecord
280
     1
290
     1
  0
XRECORD
  5
265
102
{ACAD_REACTORS
330
264
102
}
330
264
100
AcDbXrecord
280
     1
290
     1
  0
XRECORD
  5
105
102
{ACAD_REACTORS
330
104
102
}
330
104
100
AcDbXrecord
280
     1
290
     1
  0
XRECORD
  5
284
102
{ACAD_REACTORS
330
283
102
}
330
283
100
AcDbXrecord
280
     1
290
     1
  0
XRECORD
  5
2C1
102
{ACAD_REACTORS
330
2C0
102
}
330
2C0
100
AcDbXrecord
280
     1
290
     1
  0
XRECORD
  5
2AB
102
{ACAD_REACTORS
330
2AA
102
}
330
2AA
100
AcDbXrecord
280
     1
290
     1
  0
XRECORD
  5
BE
102
{ACAD_REACTORS
330
BD
102
}
330
BD
100
AcDbXrecord
280
     1
290
     1
  0
SORTENTSTABLE
  5
435
102
{ACAD_REACTORS
330
3
102
}
330
3
100
AcDbSortentsTable
330
2
331
1A7
  5
183
331
21D
  5
10E
331
1A3
  5
187
331
1DE
  5
130
331
219
  5
112
331
19F
  5
18B
331
19B
  5
18F
331
1DA
  5
142
331
215
  5
116
331
254
  5
A5
331
250
  5
A9
331
211
  5
11A
331
12F
  5
1DF
331
12B
  5
1E3
331
166
  5
1C4
331
123
  5
1F8
331
162
  5
1C8
331
A9
  5
250
331
197
  5
193
331
1D6
  5
154
331
20D
  5
11E
331
24C
  5
C0
331
193
  5
197
331
1D2
  5
158
331
1CE
  5
15C
331
209
  5
122
331
18F
  5
19B
331
18B
  5
19F
331
1CA
  5
160
331
6C
  5
276
331
68
  5
27A
331
11F
  5
20C
331
15E
  5
1CC
331
A5
  5
254
331
A1
  5
258
331
11B
  5
210
331
15A
  5
1D0
331
156
  5
1D4
331
9D
  5
25C
331
117
  5
214
331
152
  5
1D8
331
99
  5
260
331
113
  5
218
331
27A
  5
68
331
187
  5
1A3
331
1C6
  5
164
331
183
  5
1A7
331
1C2
  5
168
331
1BE
  5
16C
331
17F
  5
1AB
331
17B
  5
1AF
331
1BA
  5
170
331
10F
  5
21C
331
95
  5
267
331
91
  5
26B
331
8D
  5
26F
331
107
  5
223
331
142
  5
1DA
331
89
  5
273
331
276
  5
6C
331
272
  5
8A
331
26E
  5
8E
331
26A
  5
92
331
177
  5
1B3
331
1B6
  5
174
331
173
  5
1B7
331
1B2
  5
178
331
1AE
  5
17C
331
228
  5
FE
331
16F
  5
1BB
331
1AA
  5
180
331
1E5
  5
129
331
224
  5
102
331
16B
  5
1BF
331
1E1
  5
12D
331
220
  5
10A
331
FF
  5
227
331
C0
  5
24C
331
266
  5
96
331
262
  5
97
331
25E
  5
9B
331
25A
  5
9F
331
1A6
  5
184
331
21C
  5
10F
331
1A2
  5
188
331
1DD
  5
131
331
218
  5
113
331
257
  5
A2
331
19E
  5
18C
331
19A
  5
190
331
1D9
  5
143
331
214
  5
117
331
253
  5
A6
331
210
  5
11B
331
12E
  5
1E0
331
12A
  5
1E4
331
165
  5
1C5
331
122
  5
209
331
161
  5
1C9
331
A8
  5
251
331
24F
  5
AA
331
196
  5
194
331
1D5
  5
155
331
20C
  5
11F
331
24B
  5
CF
331
192
  5
198
331
1D1
  5
159
331
1CD
  5
15D
331
18E
  5
19C
331
18A
  5
1A0
331
1C9
  5
161
331
6B
  5
277
331
67
  5
27B
331
11E
  5
20D
331
15D
  5
1CD
331
A4
  5
255
331
A0
  5
259
331
11A
  5
211
331
159
  5
1D1
331
155
  5
1D5
331
9C
  5
25D
331
116
  5
215
331
112
  5
219
331
98
  5
261
331
279
  5
69
331
186
  5
1A4
331
1C5
  5
165
331
182
  5
1A8
331
1C1
  5
169
331
1BD
  5
16D
331
1F8
  5
123
331
17E
  5
1AC
331
17A
  5
1B0
331
1B9
  5
171
331
10E
  5
21D
331
94
  5
268
331
90
  5
26C
331
CF
  5
24B
331
10A
  5
220
331
8C
  5
270
331
141
  5
1DB
331
88
  5
274
331
102
  5
224
331
275
  5
7B
331
271
  5
8B
331
26D
  5
8F
331
269
  5
93
331
176
  5
1B4
331
1B5
  5
175
331
22B
  5
ED
331
172
  5
1B8
331
1B1
  5
179
331
1AD
  5
17D
331
227
  5
FF
331
16E
  5
1BC
331
16A
  5
1C0
331
1A9
  5
181
331
1E4
  5
12A
331
223
  5
107
331
1E0
  5
12E
331
FE
  5
228
331
BF
  5
24D
331
BB
  5
24E
331
131
  5
1DD
331
261
  5
98
331
25D
  5
9C
331
259
  5
A0
331
1A5
  5
185
331
21F
  5
10C
331
21B
  5
110
331
1A1
  5
189
331
19D
  5
18D
331
1DC
  5
140
331
217
  5
114
331
256
  5
A3
331
199
  5
191
331
1D8
  5
152
331
213
  5
118
331
252
  5
A7
331
12D
  5
1E1
331
129
  5
1E5
331
164
  5
1C6
331
125
  5
1E6
331
121
  5
20A
331
160
  5
1CA
331
24E
  5
BB
331
1D4
  5
156
331
20F
  5
11C
331
1D0
  5
15A
331
20B
  5
120
331
191
  5
199
331
1CC
  5
15E
331
18D
  5
19D
331
189
  5
1A1
331
1C8
  5
162
331
6A
  5
278
331
66
  5
27C
331
A7
  5
252
331
11D
  5
20E
331
15C
  5
1CE
331
A3
  5
256
331
9F
  5
25A
331
DE
  5
23A
331
119
  5
212
331
158
  5
1D2
331
154
  5
1D6
331
9B
  5
25E
331
115
  5
216
331
111
  5
21A
331
27C
  5
66
331
278
  5
6A
331
185
  5
1A5
331
1C4
  5
166
331
23A
  5
DE
331
181
  5
1A9
331
1C0
  5
16A
331
1BC
  5
16E
331
17D
  5
1AD
331
179
  5
1B1
331
1B8
  5
172
331
97
  5
262
331
10D
  5
21E
331
93
  5
269
331
8F
  5
26D
331
109
  5
221
331
8B
  5
271
331
101
  5
225
331
140
  5
1DC
331
274
  5
88
331
270
  5
8C
331
26C
  5
90
331
268
  5
94
331
175
  5
1B5
331
1B4
  5
176
331
22A
  5
FC
331
171
  5
1B9
331
1B0
  5
17A
331
1AC
  5
17E
331
1E7
  5
124
331
226
  5
100
331
16D
  5
1BD
331
169
  5
1C1
331
1A8
  5
182
331
1E3
  5
12B
331
222
  5
108
331
FD
  5
229
331
7B
  5
275
331
130
  5
1DE
331
260
  5
99
331
25C
  5
9D
331
258
  5
A1
331
21E
  5
10D
331
1A4
  5
186
331
1DF
  5
12F
331
21A
  5
111
331
1A0
  5
18A
331
19C
  5
18E
331
1DB
  5
141
331
216
  5
115
331
255
  5
A4
331
251
  5
A8
331
198
  5
192
331
212
  5
119
331
12C
  5
1E2
331
167
  5
1C3
331
ED
  5
22B
331
163
  5
1C7
331
AA
  5
24F
331
124
  5
1E7
331
120
  5
20B
331
1D7
  5
153
331
24D
  5
BF
331
194
  5
196
331
1D3
  5
157
331
20E
  5
11D
331
1CF
  5
15B
331
20A
  5
121
331
190
  5
19A
331
18C
  5
19E
331
1CB
  5
15F
331
188
  5
1A2
331
69
  5
279
331
15F
  5
1CB
331
A6
  5
253
331
A2
  5
257
331
11C
  5
20F
331
15B
  5
1CF
331
9E
  5
25B
331
118
  5
213
331
157
  5
1D3
331
153
  5
1D7
331
9A
  5
25F
331
114
  5
217
331
110
  5
21B
331
27B
  5
67
331
1C7
  5
163
331
184
  5
1A6
331
1C3
  5
167
331
1BF
  5
16B
331
180
  5
1AA
331
1BB
  5
16F
331
17C
  5
1AE
331
178
  5
1B2
331
96
  5
266
331
10C
  5
21F
331
92
  5
26A
331
8E
  5
26E
331
108
  5
222
331
143
  5
1D9
331
8A
  5
272
331
100
  5
226
331
277
  5
6B
331
273
  5
89
331
26F
  5
8D
331
26B
  5
91
331
1B7
  5
173
331
174
  5
1B6
331
1B3
  5
177
331
229
  5
FD
331
170
  5
1BA
331
1AF
  5
17B
331
1AB
  5
17F
331
1E6
  5
125
331
225
  5
101
331
16C
  5
1BE
331
168
  5
1C2
331
1E2
  5
12C
331
221
  5
109
331
FC
  5
22A
331
267
  5
95
331
25F
  5
9A
331
25B
  5
9E
  0
SORTENTSTABLE
  5
434
102
{ACAD_REACTORS
330
27E
102
}
330
27E
100
AcDbSortentsTable
330
27D
  0
DIMASSOC
  5
AC
102
{ACAD_REACTORS
330
AB
102
}
330
AB
100
AcDbDimAssoc
330
AA
 90
        3
 70
     0
 71
     0
  1
AcDbOsnapPointRef
 72
    13
331
12F
 73
     2
 91
        0
 40
1.570796326794896
 10
0.0
 20
0.0
 30
2.000000000000000E+50
 75
     0
  1
AcDbOsnapPointRef
 72
     1
331
12F
 73
     2
 91
        0
 40
4.712388980384689
 10
0.0
 20
0.0
 30
2.000000000000000E+50
 75
     0
  0
DIMASSOC
  5
C2
102
{ACAD_REACTORS
330
C1
102
}
330
C1
100
AcDbDimAssoc
330
C0
 90
        3
 70
     0
 71
     0
  1
AcDbOsnapPointRef
 72
    13
331
1AC
 73
     2
 91
        0
 40
0.0
 10
0.0
 20
0.0
 30
2.000000000000000E+50
 75
     0
  1
AcDbOsnapPointRef
 72
    13
331
18A
 73
     2
 91
        0
 40
0.0
 10
0.0
 20
0.0
 30
2.000000000000000E+50
 75
     0
  0
DIMASSOC
  5
D1
102
{ACAD_REACTORS
330
D0
102
}
330
D0
100
AcDbDimAssoc
330
CF
 90
        3
 70
     0
 71
     0
  1
AcDbOsnapPointRef
 72
    13
331
1AC
 73
     2
 91
        0
 40
0.0
 10
0.0
 20
0.0
 30
2.000000000000000E+50
 75
     0
  1
AcDbOsnapPointRef
 72
     1
331
159
 73
     2
 91
        0
 40
1.0
 10
0.0
 20
0.0
 30
2.000000000000000E+50
 75
     0
  0
DIMASSOC
  5
E0
102
{ACAD_REACTORS
330
DF
102
}
330
DF
100
AcDbDimAssoc
330
DE
 90
        3
 70
     0
 71
     0
  1
AcDbOsnapPointRef
 72
    13
331
180
 73
     2
 91
        0
 40
0.0
 10
0.0
 20
0.0
 30
2.000000000000000E+50
 75
     0
  1
AcDbOsnapPointRef
 72
    13
331
19F
 73
     2
 91
        0
 40
0.0
 10
0.0
 20
0.0
 30
2.000000000000000E+50
 75
     0
  0
DIMASSOC
  5
EF
102
{ACAD_REACTORS
330
EE
102
}
330
EE
100
AcDbDimAssoc
330
ED
 90
        1
 70
     0
 71
     0
  1
AcDbOsnapPointRef
 72
    13
331
1AC
 73
     2
 91
        0
 40
0.0
 10
0.0
 20
0.0
 30
2.000000000000000E+50
 75
     0
  0
DIMASSOC
  5
133
102
{ACAD_REACTORS
330
132
102
}
330
132
100
AcDbDimAssoc
330
131
 90
        3
 70
     0
 71
     0
  1
AcDbOsnapPointRef
 72
     1
331
176
 73
     2
 91
        0
 40
1.0
 10
0.0
 20
0.0
 30
2.000000000000000E+50
 75
     0
  1
AcDbOsnapPointRef
 72
    13
331
159
 73
     2
 91
        0
 40
0.0
 10
0.0
 20
0.0
 30
2.000000000000000E+50
 75
     0
  0
DIMASSOC
  5
145
102
{ACAD_REACTORS
330
144
102
}
330
144
100
AcDbDimAssoc
330
143
 90
        3
 70
     0
 71
     0
  1
AcDbOsnapPointRef
 72
    13
331
1AC
 73
     2
 91
        0
 40
0.0
 10
0.0
 20
0.0
 30
2.000000000000000E+50
 75
     0
  1
AcDbOsnapPointRef
 72
     1
331
177
 73
     2
 91
        0
 40
1.0
 10
0.0
 20
0.0
 30
2.000000000000000E+50
 75
     0
  0
DIMASSOC
  5
1E9
102
{ACAD_REACTORS
330
1E8
102
}
330
1E8
100
AcDbDimAssoc
330
1E7
 90
       15
 70
     0
 71
     0
  1
AcDbOsnapPointRef
 72
    13
331
260
 73
     2
 91
        0
 40
0.0
 10
0.0
 20
0.0
 30
2.000000000000000E+50
 75
     0
  1
AcDbOsnapPointRef
 72
     1
331
260
 73
     2
 91
        0
 40
1.0
 10
0.0
 20
0.0
 30
2.000000000000000E+50
 75
     0
  1
AcDbOsnapPointRef
 72
    13
331
261
 73
     2
 91
        0
 40
0.0
 10
0.0
 20
0.0
 30
2.000000000000000E+50
 75
     0
  1
AcDbOsnapPointRef
 72
     1
331
261
 73
     2
 91
        0
 40
1.0
 10
0.0
 20
0.0
 30
2.000000000000000E+50
 75
     0
  0
DIMASSOC
  5
1FA
102
{ACAD_REACTORS
330
1F9
102
}
330
1F9
100
AcDbDimAssoc
330
1F8
 90
       15
 70
     0
 71
     0
  1
AcDbOsnapPointRef
 72
    13
331
229
 73
     2
 91
        0
 40
0.0
 10
0.0
 20
0.0
 30
2.000000000000000E+50
 75
     0
  1
AcDbOsnapPointRef
 72
     1
331
229
 73
     2
 91
        0
 40
1.0
 10
0.0
 20
0.0
 30
2.000000000000000E+50
 75
     0
  1
AcDbOsnapPointRef
 72
    13
331
261
 73
     2
 91
        0
 40
0.0
 10
0.0
 20
0.0
 30
2.000000000000000E+50
 75
     0
  1
AcDbOsnapPointRef
 72
     1
331
261
 73
     2
 91
        0
 40
1.0
 10
0.0
 20
0.0
 30
2.000000000000000E+50
 75
     0
  0
DIMASSOC
  5
22D
102
{ACAD_REACTORS
330
22C
102
}
330
22C
100
AcDbDimAssoc
330
22B
 90
        3
 70
     0
 71
     0
  1
AcDbOsnapPointRef
 72
    13
331
266
 73
     2
 91
        0
 40
0.0
 10
0.0
 20
0.0
 30
2.000000000000000E+50
 75
     0
  1
AcDbOsnapPointRef
 72
    13
331
25A
 73
     2
 91
        0
 40
0.0
 10
0.0
 20
0.0
 30
2.000000000000000E+50
 75
     0
  0
DIMASSOC
  5
23C
102
{ACAD_REACTORS
330
23B
102
}
330
23B
100
AcDbDimAssoc
330
23A
 90
        3
 70
     0
 71
     0
  1
AcDbOsnapPointRef
 72
     6
331
25A
 73
     2
 91
        0
 40
0.852459016393362
 10
0.0
 20
0.0
 30
0.0
332
273
 74
     2
 92
        0
 75
     0
  1
AcDbOsnapPointRef
 72
     6
331
25A
 73
     2
 91
        0
 40
0.147540983606638
 10
0.0
 20
0.0
 30
0.0
332
273
 74
     2
 92
        0
 75
     0
  0
LAYOUT
  5
1E
102
{ACAD_REACTORS
330
17
102
}
330
17
100
AcDbPlotSettings
  1

  2
C:\Documents and Settings\basas\Application Data\Autodesk\AutoCAD 2005\R16.1\enu\plotters\Default Windows System Printer.pc3
  4

  6

 40
0.0
 41
0.0
 42
0.0
 43
0.0
 44
0.0
 45
0.0
 46
0.0
 47
0.0
 48
0.0
 49
0.0
140
0.0
141
0.0
142
1.0
143
1.0
 70
   688
 72
     0
 73
     0
 74
     5
  7

 75
    16
147
1.0
 76
     0
 77
     2
 78
   300
148
0.0
149
0.0
100
AcDbLayout
  1
Layout1
 70
     1
 71
     1
 10
0.0
 20
0.0
 11
12.0
 21
9.0
 12
0.0
 22
0.0
 32
0.0
 14
0.0
 24
0.0
 34
0.0
 15
0.0
 25
0.0
 35
0.0
146
0.0
 13
0.0
 23
0.0
 33
0.0
 16
1.0
 26
0.0
 36
0.0
 17
0.0
 27
1.0
 37
0.0
 76
     0
330
1B
  0
LAYOUT
  5
16
102
{ACAD_XDICTIONARY
360
18
102
}
102
{ACAD_REACTORS
330
17
102
}
330
17
100
AcDbPlotSettings
  1

  2
DWG To PDF.pc3
  4
ISO_expand_A4_(210.00_x_297.00_MM)
  6

 40
5.793749809265136
 41
10.79374980926513
 42
5.793746948242187
 43
10.79376220703125
 44
210.0
 45
297.0
 46
0.0
 47
0.0
 48
3923.481517340711
 49
13309.84621669953
140
4038.84737283493
141
13505.69306049094
142
1.0
143
0.7111037165569402
 70
  3760
 72
     1
 73
     0
 74
     4
  7
monochrome.ctb
 75
     0
147
1.406264623171783
 76
     1
 77
     2
 78
   300
148
-3923.481517340711
149
-13309.84621669953
100
AcDbLayout
  1
Model
 70
     1
 71
     0
 10
0.0
 20
0.0
 11
12.0
 21
9.0
 12
0.0
 22
0.0
 32
0.0
 14
0.0
 24
0.0
 34
0.0
 15
0.0
 25
0.0
 35
0.0
146
0.0
 13
0.0
 23
0.0
 33
0.0
 16
1.0
 26
0.0
 36
0.0
 17
0.0
 27
1.0
 37
0.0
 76
     0
330
2
331
2D
1001
ACAD_PSEXT
1000
DWG To PDF.pc3
1000
DWG To PDF
1000
Datei
1000

1070
     0
  0
MATERIAL
  5
3B
102
{ACAD_REACTORS
330
D
102
}
330
D
100
AcDbMaterial
  1
ByBlock
 94
       63
  0
MATERIAL
  5
3A
102
{ACAD_REACTORS
330
D
102
}
330
D
100
AcDbMaterial
  1
ByLayer
 94
       63
  0
MATERIAL
  5
C
102
{ACAD_XDICTIONARY
360
E
102
}
102
{ACAD_REACTORS
330
D
102
}
330
D
100
AcDbMaterial
  1
Global
 43
0.0007999999797903
 43
0.0
 43
0.0
 43
0.0
 43
0.0
 43
0.0007999999797903
 43
0.0
 43
0.0
 43
0.0
 43
0.0
 43
1.0
 43
0.0
 43
0.0
 43
0.0
 43
0.0
 43
1.0
 49
0.0007999999797903
 49
0.0
 49
0.0
 49
0.0
 49
0.0
 49
0.0007999999797903
 49
0.0
 49
0.0
 49
0.0
 49
0.0
 49
1.0
 49
0.0
 49
0.0
 49
0.0
 49
0.0
 49
1.0
142
0.0007999999797903
142
0.0
142
0.0
142
0.0
142
0.0
142
0.0007999999797903
142
0.0
142
0.0
142
0.0
142
0.0
142
1.0
142
0.0
142
0.0
142
0.0
142
0.0
142
1.0
144
0.0007999999797903
144
0.0
144
0.0
144
0.0
144
0.0
144
0.0007999999797903
144
0.0
144
0.0
144
0.0
144
0.0
144
1.0
144
0.0
144
0.0
144
0.0
144
0.0
144
1.0
 94
       63
1001
ACAD
1070
    -1
1070
     3
1070
     0
1000

1071
        0
1070
     0
  0
MLINESTYLE
  5
40
102
{ACAD_REACTORS
330
38
102
}
330
38
100
AcDbMlineStyle
  2
STANDARD
 70
     0
  3

 62
   256
 51
90.0
 52
90.0
 71
     2
 49
0.5
 62
   256
  6
BYLAYER
 49
-0.5
 62
   256
  6
BYLAYER
  0
ACDBPLACEHOLDER
  5
9
102
{ACAD_REACTORS
330
A
102
}
330
A
  0
SCALE
  5
45
102
{ACAD_REACTORS
330
3D
102
}
330
3D
100
AcDbScale
 70
     0
300
1:1
140
1.0
141
1.0
290
     1
  0
SCALE
  5
46
102
{ACAD_REACTORS
330
3D
102
}
330
3D
100
AcDbScale
 70
     0
300
1:2
140
1.0
141
2.0
290
     0
  0
SCALE
  5
47
102
{ACAD_REACTORS
330
3D
102
}
330
3D
100
AcDbScale
 70
     0
300
1:4
140
1.0
141
4.0
290
     0
  0
SCALE
  5
48
102
{ACAD_REACTORS
330
3D
102
}
330
3D
100
AcDbScale
 70
     0
300
1:5
140
1.0
141
5.0
290
     0
  0
SCALE
  5
49
102
{ACAD_REACTORS
330
3D
102
}
330
3D
100
AcDbScale
 70
     0
300
1:8
140
1.0
141
8.0
290
     0
  0
SCALE
  5
4A
102
{ACAD_REACTORS
330
3D
102
}
330
3D
100
AcDbScale
 70
     0
300
1:10
140
1.0
141
10.0
290
     0
  0
SCALE
  5
4B
102
{ACAD_REACTORS
330
3D
102
}
330
3D
100
AcDbScale
 70
     0
300
1:16
140
1.0
141
16.0
290
     0
  0
SCALE
  5
4C
102
{ACAD_REACTORS
330
3D
102
}
330
3D
100
AcDbScale
 70
     0
300
1:20
140
1.0
141
20.0
290
     0
  0
SCALE
  5
4D
102
{ACAD_REACTORS
330
3D
102
}
330
3D
100
AcDbScale
 70
     0
300
1:30
140
1.0
141
30.0
290
     0
  0
SCALE
  5
4E
102
{ACAD_REACTORS
330
3D
102
}
330
3D
100
AcDbScale
 70
     0
300
1:40
140
1.0
141
40.0
290
     0
  0
SCALE
  5
4F
102
{ACAD_REACTORS
330
3D
102
}
330
3D
100
AcDbScale
 70
     0
300
1:50
140
1.0
141
50.0
290
     0
  0
SCALE
  5
50
102
{ACAD_REACTORS
330
3D
102
}
330
3D
100
AcDbScale
 70
     0
300
1:100
140
1.0
141
100.0
290
     0
  0
SCALE
  5
51
102
{ACAD_REACTORS
330
3D
102
}
330
3D
100
AcDbScale
 70
     0
300
2:1
140
2.0
141
1.0
290
     0
  0
SCALE
  5
52
102
{ACAD_REACTORS
330
3D
102
}
330
3D
100
AcDbScale
 70
     0
300
4:1
140
4.0
141
1.0
290
     0
  0
SCALE
  5
53
102
{ACAD_REACTORS
330
3D
102
}
330
3D
100
AcDbScale
 70
     0
300
8:1
140
8.0
141
1.0
290
     0
  0
SCALE
  5
54
102
{ACAD_REACTORS
330
3D
102
}
330
3D
100
AcDbScale
 70
     0
300
10:1
140
10.0
141
1.0
290
     0
  0
SCALE
  5
55
102
{ACAD_REACTORS
330
3D
102
}
330
3D
100
AcDbScale
 70
     0
300
100:1
140
100.0
141
1.0
290
     0
  0
SCALE
  5
56
102
{ACAD_REACTORS
330
3D
102
}
330
3D
100
AcDbScale
 70
     0
300
1/128" = 1'-0"
140
0.0078125
141
12.0
290
     0
  0
SCALE
  5
57
102
{ACAD_REACTORS
330
3D
102
}
330
3D
100
AcDbScale
 70
     0
300
1/64" = 1'-0"
140
0.015625
141
12.0
290
     0
  0
SCALE
  5
58
102
{ACAD_REACTORS
330
3D
102
}
330
3D
100
AcDbScale
 70
     0
300
1/32" = 1'-0"
140
0.03125
141
12.0
290
     0
  0
SCALE
  5
59
102
{ACAD_REACTORS
330
3D
102
}
330
3D
100
AcDbScale
 70
     0
300
1/16" = 1'-0"
140
0.0625
141
12.0
290
     0
  0
SCALE
  5
5A
102
{ACAD_REACTORS
330
3D
102
}
330
3D
100
AcDbScale
 70
     0
300
3/32" = 1'-0"
140
0.09375
141
12.0
290
     0
  0
SCALE
  5
5B
102
{ACAD_REACTORS
330
3D
102
}
330
3D
100
AcDbScale
 70
     0
300
1/8" = 1'-0"
140
0.125
141
12.0
290
     0
  0
SCALE
  5
5C
102
{ACAD_REACTORS
330
3D
102
}
330
3D
100
AcDbScale
 70
     0
300
3/16" = 1'-0"
140
0.1875
141
12.0
290
     0
  0
SCALE
  5
5D
102
{ACAD_REACTORS
330
3D
102
}
330
3D
100
AcDbScale
 70
     0
300
1/4" = 1'-0"
140
0.25
141
12.0
290
     0
  0
SCALE
  5
5E
102
{ACAD_REACTORS
330
3D
102
}
330
3D
100
AcDbScale
 70
     0
300
3/8" = 1'-0"
140
0.375
141
12.0
290
     0
  0
SCALE
  5
5F
102
{ACAD_REACTORS
330
3D
102
}
330
3D
100
AcDbScale
 70
     0
300
1/2" = 1'-0"
140
0.5
141
12.0
290
     0
  0
SCALE
  5
60
102
{ACAD_REACTORS
330
3D
102
}
330
3D
100
AcDbScale
 70
     0
300
3/4" = 1'-0"
140
0.75
141
12.0
290
     0
  0
SCALE
  5
61
102
{ACAD_REACTORS
330
3D
102
}
330
3D
100
AcDbScale
 70
     0
300
1" = 1'-0"
140
1.0
141
12.0
290
     0
  0
SCALE
  5
62
102
{ACAD_REACTORS
330
3D
102
}
330
3D
100
AcDbScale
 70
     0
300
1-1/2" = 1'-0"
140
1.5
141
12.0
290
     0
  0
SCALE
  5
63
102
{ACAD_REACTORS
330
3D
102
}
330
3D
100
AcDbScale
 70
     0
300
3" = 1'-0"
140
3.0
141
12.0
290
     0
  0
SCALE
  5
64
102
{ACAD_REACTORS
330
3D
102
}
330
3D
100
AcDbScale
 70
     0
300
6" = 1'-0"
140
6.0
141
12.0
290
     0
  0
SCALE
  5
65
102
{ACAD_REACTORS
330
3D
102
}
330
3D
100
AcDbScale
 70
     0
300
1'-0" = 1'-0"
140
12.0
141
12.0
290
     0
  0
TABLESTYLE
  5
41
102
{ACAD_XDICTIONARY
360
42
102
}
102
{ACAD_REACTORS
330
3E
102
}
330
3E
100
AcDbTableStyle
280
     0
  3
Standard
 70
     0
 71
     0
 40
1.5
 41
1.5
280
     0
281
     0
  7
Standard
140
4.5
170
     2
 62
     0
 63
     7
283
     0
 90
      512
 91
        0
  1

274
    -2
284
     1
 64
     0
275
    -2
285
     1
 65
     0
276
    -2
286
     1
 66
     0
277
    -2
287
     1
 67
     0
278
    -2
288
     1
 68
     0
279
    -2
289
     1
 69
     0
  7
Standard
140
6.0
170
     5
 62
     0
 63
     7
283
     0
 90
      512
 91
        0
  1

274
    -2
284
     1
 64
     0
275
    -2
285
     1
 65
     0
276
    -2
286
     1
 66
     0
277
    -2
287
     1
 67
     0
278
    -2
288
     1
 68
     0
279
    -2
289
     1
 69
     0
  7
Standard
140
4.5
170
     5
 62
     0
 63
     7
283
     0
 90
      512
 91
        0
  1

274
    -2
284
     1
 64
     0
275
    -2
285
     1
 65
     0
276
    -2
286
     1
 66
     0
277
    -2
287
     1
 67
     0
278
    -2
288
     1
 68
     0
279
    -2
289
     1
 69
     0
  0
VISUALSTYLE
  5
2E
102
{ACAD_REACTORS
330
2F
102
}
330
2F
100
AcDbVisualStyle
  2
2dWireframe
 70
     4
177
     2
291
     0
 71
     0
176
     1
 72
     2
176
     1
 73
     1
176
     1
 90
        0
176
     1
 40
0.6
176
     1
 41
30.0
176
     1
 63
     7
421
 16777215
176
     1
 74
     1
176
     1
 91
        4
176
     1
 64
     7
176
     1
 65
   257
176
     1
 75
     1
176
     1
175
     1
176
     1
 42
1.0
176
     1
 92
        0
176
     1
 66
   257
176
     1
 43
1.0
176
     1
 76
     1
176
     1
 77
     6
176
     1
 78
     2
176
     1
 67
     7
176
     1
 79
     5
176
     1
170
     0
176
     1
171
     0
176
     1
290
     0
176
     1
 93
        1
176
     1
 44
0.0
176
     1
173
     0
176
     1
  0
VISUALSTYLE
  5
44
102
{ACAD_REACTORS
330
2F
102
}
330
2F
100
AcDbVisualStyle
  2
3dWireframe
 70
     5
177
     2
291
     0
 71
     0
176
     1
 72
     2
176
     1
 73
     1
176
     1
 90
        0
176
     1
 40
0.6
176
     1
 41
30.0
176
     1
 63
     7
421
 16777215
176
     1
 74
     1
176
     1
 91
        4
176
     1
 64
     7
176
     1
 65
   257
176
     1
 75
     1
176
     1
175
     1
176
     1
 42
1.0
176
     1
 92
        0
176
     1
 66
   257
176
     1
 43
1.0
176
     1
 76
     1
176
     1
 77
     6
176
     1
 78
     2
176
     1
 67
     7
176
     1
 79
     5
176
     1
170
     0
176
     1
171
     0
176
     1
290
     0
176
     1
 93
        1
176
     1
 44
0.0
176
     1
173
     0
176
     1
  0
VISUALSTYLE
  5
43
102
{ACAD_REACTORS
330
2F
102
}
330
2F
100
AcDbVisualStyle
  2
Realistic
 70
     8
177
     2
291
     0
 71
     2
176
     1
 72
     2
176
     1
 73
     1
176
     1
 90
        0
176
     1
 40
0.6
176
     1
 41
30.0
176
     1
 63
     7
421
 16777215
176
     1
 74
     1
176
     1
 91
        0
176
     1
 64
     7
176
     1
 65
   257
176
     1
 75
     1
176
     1
175
     1
176
     1
 42
1.0
176
     1
 92
        8
176
     1
 66
     8
424
  7895160
176
     1
 43
1.0
176
     1
 76
     1
176
     1
 77
     6
176
     1
 78
     2
176
     1
 67
     7
176
     1
 79
     5
176
     1
170
     0
176
     1
171
     0
176
     1
290
     0
176
     1
 93
       13
176
     1
 44
0.0
176
     1
173
     0
176
     1
  0
DICTIONARYVAR
  5
439
102
{ACAD_REACTORS
330
436
102
}
330
436
100
DictionaryVariables
280
     0
  1
1:1
  0
DICTIONARYVAR
  5
438
102
{ACAD_REACTORS
330
436
102
}
330
436
100
DictionaryVariables
280
     0
  1
STANDARD
  0
DICTIONARYVAR
  5
437
102
{ACAD_REACTORS
330
436
102
}
330
436
100
DictionaryVariables
280
     0
  1
STANDARD
  0
DICTIONARYVAR
  5
43A
102
{ACAD_REACTORS
330
436
102
}
330
436
100
DictionaryVariables
280
     0
  1
1
  0
DICTIONARYVAR
  5
43B
102
{ACAD_REACTORS
330
436
102
}
330
436
100
DictionaryVariables
280
     0
  1
15
  0
DICTIONARY
  5
18
330
16
100
AcDbDictionary
280
     1
281
     1
  3
ADSK_XREC_LAYOUTTHUMBNAIL
360
19
  0
DICTIONARY
  5
E
330
C
100
AcDbDictionary
280
     1
281
     1
  3
BUMPTILE
360
F
  3
DIFFUSETILE
360
10
  3
OPACITYTILE
360
11
  3
REFLECTIONTILE
360
12
  0
DICTIONARY
  5
42
330
41
100
AcDbDictionary
280
     1
281
     1
  3
ACAD_ROUNDTRIP_2008_TABLESTYLE_CELLSTYLEMAP
360
43C
  0
XRECORD
  5
19
102
{ACAD_REACTORS
330
18
102
}
330
18
100
AcDbXrecord
280
     1
310
280000000001000084000000010008000000000000840000000000000000000000010000000000000000000000000000FFFFFF000000000000000000000000000000000000000000000000000000000000000000330000006600000099000000CC000000FF00000000330000333300006633000099330000CC330000FF3300
310
0000660000336600006666000099660000CC660000FF66000000990000339900006699000099990000CC990000FF99000000CC000033CC000066CC000099CC0000CCCC0000FFCC000000FF000033FF000066FF000099FF0000CCFF0000FFFF000000003300330033006600330099003300CC003300FF003300003333003333
310
33006633330099333300CC333300FF33330000663300336633006666330099663300CC663300FF66330000993300339933006699330099993300CC993300FF99330000CC330033CC330066CC330099CC3300CCCC3300FFCC330000FF330033FF330066FF330099FF3300CCFF3300FFFF330000006600330066006600660099
310
006600CC006600FF00660000336600333366006633660099336600CC336600FF33660000666600336666006666660099666600CC666600FF66660000996600339966006699660099996600CC996600FF99660000CC660033CC660066CC660099CC6600CCCC6600FFCC660000FF660033FF660066FF660099FF6600CCFF6600
310
FFFF660000009900330099006600990099009900CC009900FF00990000339900333399006633990099339900CC339900FF33990000669900336699006666990099669900CC669900FF66990000999900339999006699990099999900CC999900FF99990000CC990033CC990066CC990099CC9900CCCC9900FFCC990000FF99
310
0033FF990066FF990099FF9900CCFF9900FFFF99000000CC003300CC006600CC009900CC00CC00CC00FF00CC000033CC003333CC006633CC009933CC00CC33CC00FF33CC000066CC003366CC006666CC009966CC00CC66CC00FF66CC000099CC003399CC006699CC009999CC00CC99CC00FF99CC0000CCCC0033CCCC0066CC
310
CC0099CCCC00CCCCCC00FFCCCC0000FFCC0033FFCC0066FFCC0099FFCC00CCFFCC00FFFFCC000000FF003300FF006600FF009900FF00CC00FF00FF00FF000033FF003333FF006633FF009933FF00CC33FF00FF33FF000066FF003366FF006666FF009966FF00CC66FF00FF66FF000099FF003399FF006699FF009999FF00CC
310
99FF00FF99FF0000CCFF0033CCFF0066CCFF0099CCFF00CCCCFF00FFCCFF0000FFFF0033FFFF0066FFFF0099FFFF00CCFFFF00FFFFFF00000000000D0D0D001A1A1A00282828003535350043434300505050005D5D5D006B6B6B00787878008686860093939300A1A1A100AEAEAE00BBBBBB00C9C9C900D6D6D600E4E4E400
310
F1F1F100FFFFFF0000000000000000000000000000000000000000000000000000000000000000000000000000000000E2E2E2E2E2E2E2E2E2E2E2E2E2E2E2E2E2E2E2E2E2E2E2E2E2E2E2E2E2E2E2E2E2E2E2E2E2E2E2E2E2E2E2E2E2E2E2E2E2E2E2E2E2E2E2E2E2E2E2E2E2E2E2E2E2E2E2E2E2E2E2E2E2E2E2E2E2E2E2
310
E2E2E2E2E2E2E2E2E2E2E2E2E2E2E2E2E2E2E2E2E2E2E2E2E2E2E2E2E2E2E2E2E2E2E2E2E2E2E2E2E2E2E2E2E2E2E2E2E2E2E2E2E2E2E2E2E2E2E2E2E2E2E2E2E2E2E2E2E2E2E2E2E2E2E2E2E2E2E2E2E2E2E2E2E2E2E2E2E2E2E2E2E2E2E2E2E2E2E2E2E2E2E2E2E2E2E2E2E2E2E2E2E2E2E2E2E2E2E2E2E2E2E2E2E2E2E2
310
E2E2E2E2E2E2E2E2E2E2E2E2E2E2E2E2E2E2E2E2E2E2E2E2E2E2E2E2E2E2E2E2E2E2E2E2E2E2E2E2E2E2E2E2E2E2E2E2E2E2E2E2E2E2E2E2E2E2E2E2E2E2E2E2E2E2E2E2E2E2E2E2E2E2E2E2E2E2E2E2E2E2E2E2E2BEBEBEBEBEBEBEBEBEBEBEBEBEBEBEBEBEBEBEBEBEBEBEBEBEBEBEBEBEBEBEBEBEBEBEBEBEBEBEBEBEBE
310
BEBEBEBEBEBEBEBEBEBEBEBEBEBEBEBEBEBEBEBEBEBEBEBEBEBEBEBEBEBEBEBEBEBEBEBEBEBEBEBEBEBEBEBEBEBEBEBEBEBEBEBEBEBEBEBEBEBEBEBEBEBEBEBEBEBEBEBEBEBEBEBEBEBEBEBEBEBEBEBEBEBEBEBEBEBEBEBEBEBEBEBEBEBEBEBEBEBEBEBEBEBEBEBEBEBEBEBEBEBEBEBEBEBEBEBEBEBEBEBEBEBEBEBEBEBEBE
310
BEBEBEBEBEBEBEBEBEBEBEBEBEBEBEBEBEE2E2E2E2E2E2E2E2E2E2E2E2E2E2E2E2E2E2E2E2E2E2E2E2E2E2E2E2E2E2E2E2E2E2E2E2E2E2E2E2E2E2E2E2E2E2E2E2E2E2E2E2E2E2E2E2E2E2E2E2E2E2E2E2E2E2E2E2E2E2BEE2E2E2E2E2E2E2E2E2E2E2E2E2E2E2E2E2E2E2E2E2E2E2E2E2E2E2E2E2E2E2E2E2E2E2E2E2E2E2
310
E2E2E2E2E2E2E2E2E2E2E2E2E2E2E2E2E2E2E2E2E2E2E2E2E2E2E2E2E2E2E2E2E2E2E2E2E2E2E2E2E2E2E2E2E2E2E2E2E2E2E2E2E2E2E2E2E2E2E2E2E2E2E2E2E2E2E2E2E2E2E2E2E2E2E2E2E2E2E2E2E2E2E2E2E2E2E2E2E2E2E2E2E2E2E2E2E2E2E2E2E2E2E2E2E2E2E2E2E2E2E2E2E2E2E2E2E2E2E2E2E2E2E2E2E2E2E2
310
E2E2E2E2E2E2E2E2E2E2E2E2E2E2E2E2E2E2BEE2E2E2E2E2E2E2E2E2E2E2E2E2E2E2E2E2E2E2E2E2E2E2E2E2E2E2E2E2E2E2E2E2E2E2E2E2E2E2E2E2E2E2E2E2E2E2E2E2E2E2E2E2E2E2E2E2E2E2E2E2E2E2E2E2E2E2E2E2E2BEE2E2E2E2E2E2E2E2E2E2E2E2E2E2E2E2E2E2E2E2E2E2E2E2E2E2E2E2E2E2E2E2E2E2E2E2E2
310
E2E2E2E2E2E2E2E2E2E2E2E2E2E2E2E2E2E2E2E2E2E2E2E2E2E2E2E2E2E2E2E2E2E2E2E2E2E2E2E2E2E2E2E2E2E2E2E2E2E2E2E2E2E2E2E2E2E2E2E2E2E2E2E2E2E2E2E2E2E2E2E2E2E2E2E2E2E2E2E2E2E2E2E2E2E2E2E2E2E2E2E2E2E2E2E2E2E2E2E2E2E2E2E2E2E2E2E2E2E2E2E2E2E2E2E2E2E2E2E2E2E2E2E2E2E2E2
310
E2E2E2E2E2E2E2E2E2E2E2E2E2E2E2E2E2E2E2E2BEE2E2E2E2E2E2E2E2E2E2E2E2E2E2E2E2E2E2E2E2E2E2E2E2E2E2E2E2E2E2E2E2E2E2E2E2E2E2E2E2E2E2E2E2E2E2E2E2E2E2E2E2E2E2E2E2E2E2E2E2E2E2E2E2E2E2E2E2E2E2BEE2E2DCDCDCDCDCDCDCDCDCDCDCDCDCDCDCDCDCDCDCDCDCDCDCDCDCDCDCDCDCDCDCDCDC
310
DCDCDCDCDCDCDCDCDCDCDCDCDCDCDCDCDCDCDCDCDCDCDCDCDCDCDCDCDCDCDCDCDCDCDCDCDCDCDCDCDCDCDCDCDCDCDCDCDCDCDCDCDCDCDCDCDCDCDCDCDCDCDCDCDCDCDCDCDCDCDCDCDCDCDCDCDCDCDCDCDCDCDCDCDCDCDCDCDCDCDCDCDCDCBEBEBEBEBEBEBEBEBEBEDCDCDCDCDCDCDCDCDCDCDCDCDCDCDCDCDCDCDCDCDCDCDC
310
DCDCDCDCDCDCDCDCBEBEBEBEBEBEBEBEDCDCDCDCE2E2BEE2E2E2E2E2E2E2E2E2E2E2E2E2E2E2E2E2E2E2E2E2E2E2E2E2E2E2E2E2E2E2E2E2E2E2E2E2E2E2E2E2E2E2E2E2E2E2E2E2E2E2E2E2E2E2E2E2E2E2E2E2E2E2E2E2E2E2E2E2E2BEE2E2DCE2E2E2E2E2E2E2E2E2E2E2E2E2E2E2E2E2E2E2E2E2E2E2E2E2E2E2E2E2E2
310
E2E2E2E2E2E2E2E2E2E2E2E2E2E2E2E2E2E2E2E2E2E2E2E2E2E2E2E2E2E2E2E2E2E2E2E2E2E2E2E2E2E2E2E2E2E2E2E2E2E2E2E2E2E2E2E2E2E2E2E2E2E2E2E2E2E2E2DCF5F5F5F5F5E2E2E2E2E2DCF5F5F5F5F5F5E2E2E2E2DCE2E2E2E2E2E2BEBEBEBEBEBEBEBEBEBEE2E2E2DCE2E2E2E2E2E2E2E2E2E2E2E2DCE2E2E2E2
310
E2E2E2E2E2E2E2E2E2DCBEBEBEBEBEBEE2BEE2E2E2DCE2E2BEE2E2E2E2E2E2E2E2E2E2E2E2E2E2E2E2E2E2E2E2E2E2E2E2E2E2E2E2E2E2E2E2E2E2E2E2E2E2E2E2E2E2E2E2E2E2E2E2E2E2E2E2E2E2E2E2E2E2E2E2E2E2E2E2E2E2E2E2E2E2BEE2E2DCE2E2E2E2E2E2E2E2E2E2E2E2E2E2E2E2E2E2E2E2E2E2E2E2E2E2E2E2
310
E2E2E2E2E2E2E2E2E2E2E2E2E2E2E2E2E2E2E2E2E2E2E2E2E2E2E2E2E2E2E2E2E2E2E2E2E2E2E2E2E2E2E2E2E2E2E2E2E2E2E2E2E2E2E2E2E2E2E2E2E2E2E2E2E2E2E2E2E2DCDCDCDCDCDCDCDCDCDCDCDCDCDCDCDCDCDCDCDCDCDCDCE2E2BEBEBEBEBEBEBEBEBEBEBEBEBEBEE2E2E2F5F5F5F5F5E2F5F5F5E2E2E2E2F5F5F5
310
F5F5F5F5F5F5F5F5E2E2E2DCBEBEBEBEBEBEBEBEF5E2E2DCE2E2BEE2E2E2E2E2E2E2E2E2E2E2E2E2E2E2E2E2E2E2E2E2E2E2E2E2E2E2E2E2E2E2E2E2E2E2E2E2E2E2E2E2E2E2E2E2E2E2E2E2E2E2E2E2E2E2E2E2E2E2E2E2E2E2E2E2E2E2E2E2E2BEE2E2DCE2E2E2E2E2E2E2E2E2E2E2E2E2E2E2E2E2E2E2E2E2E2E2E2E2E2
310
E2E2E2E2E2E2E2E2E2E2E2E2E2E2E2E2E2E2E2E2E2E2E2E2E2E2E2E2E2E2E2E2E2E2E2E2E2E2E2E2E2E2E2E2E2E2E2E2E2E2E2E2E2E2E2E2E2E2E2E2E2E2E2E2E2E2E2E2E2E2E2DCE2E2DCE2E2E2E2E2E2E2E2DCE2E2E2E2DCE2E2E2E2DCE2E2BEBEBEBEBEBEBEBEBEBEBEBEBEBEE2E2E2F5F5F5F5F5F5F5F5F5E2E2E2E2F5
310
F5F5F5F5F5F5F5F5F5F5F5E2E2DCF5F5F5F5F5F5F5F5E2E2E2DCE2E2BEE2E2E2E2E2E2E2E2E2E2E2E2E2E2E2E2E2E2E2E2E2E2E2E2E2E2E2E2E2E2E2E2E2E2E2E2E2E2E2E2E2E2E2E2E2E2E2E2E2E2E2E2E2E2E2E2E2E2E2E2E2E2E2E2E2E2E2E2E2E2BEE2E2DCE2E2E2E2E2E2E2E2E2E2E2E2E2E2E2E2E2E2E2E2E2E2E2E2
310
E2E2E2E2E2E2E2E2E2E2E2E2E2E2E2E2E2E2E2E2E2E2E2E2E2E2E2E2E2E2E2E2E2E2E2E2E2E2E2E2E2E2E2E2E2E2E2E2E2E2E2E2E2E2E2E2E2E2E2E2E2E2E2E2E2E2E2E2E2E2E2E2E2DCDCDCDCDCDCDCDCDCDCDCDCDCDCDCDCDCDCDCDCDCDCDCE2E2E2E2BEBEBEBEBEBEBEBEBEBEBEBEE2E2E2DCDCDCDCDCDCDCDCDCDCDCDC
310
DCDCDCDCDCDCDCDCDCDCDCDCDCDCDCDCDCDCDCDCDCDCDCDCDCDCDCDCE2E2BEE2E2E2E2E2E2E2E2E2E2E2E2E2E2E2E2E2E2E2E2E2E2E2E2E2E2E2E2E2E2E2E2E2E2E2E2E2E2E2E2E2E2E2E2E2E2E2E2E2E2E2E2E2E2E2E2E2E2E2E2E2E2E2E2E2E2E2E2E2E2BEE2E2DCE2E2E2E2E2E2E2E2E2E2E2E2E2E2E2E2E2E2E2E2E2E2
310
E2E2E2E2E2E2E2E2E2E2E2E2E2E2E2E2E2E2E2E2E2E2E2E2E2E2E2E2E2E2E2E2E2E2E2E2E2E2E2E2E2E2E2E2E2E2E2E2E2E2E2E2E2E2E2E2E2E2E2E2E2E2E2E2E2E2E2E2E2E2E2E2E2E2E2DCE2E2DCE2E2E2E2E2E2E2E2DCE2E2E2E2DCE2E2E2E2DCE2E2E2E2BEBEBEBEBEBEBEBEBEBEBEBEE2E2E2DCE2E2E2E2E2E2E2E2E2
310
E2E2E2E2E2E2E2E2E2E2E2E2E2E2E2E2E2E2E2E2E2E2E2E2E2E2E2E2E2DCE2E2BEE2E2E2E2E2E2E2E2E2E2E2E2E2E2E2E2E2E2E2E2E2E2E2E2E2E2E2E2E2E2E2E2E2E2E2E2E2E2E2E2E2E2E2E2E2E2E2E2E2E2E2E2E2E2E2E2E2E2E2E2E2E2E2E2E2E2E2E2E2E2BEE2E2DCE2E2E2E2E2E2E2E2E2E2E2E2E2E2E2E2E2E2E2E2
310
E2E2E2E2E2E2E2E2E2E2E2E2E2E2E2E2E2E2E2E2E2E2E2E2E2E2E2E2E2E2E2E2E2E2E2E2E2E2E2E2E2E2E2E2E2E2E2E2E2E2E2E2E2E2E2E2E2E2E2E2E2E2E2E2E2E2E2E2E2E2E2E2E2E2E2E2E2DCDCDCDCDCDCDCDCDCDCDCDCDCDCDCDCDCDCDCDCDCDCDCDCDCDCDCBEBEBEBEBEBEBEBEBEBEBEDCDCDCDCDCE2E2E2E2E2E2E2
310
E2E2E2E2E2E2E2E2E2E2E2E2E2E2E2E2E2E2E2E2E2E2E2E2E2E2E2E2E2E2E2DCE2E2BEE2E2E2E2E2E2E2E2E2E2E2E2E2E2E2E2E2E2E2E2E2E2E2E2E2E2E2E2E2E2E2E2E2E2E2E2E2E2E2E2E2E2E2E2E2E2E2E2E2E2E2E2E2E2E2E2E2E2E2E2E2E2E2E2E2E2E2E2E2E2BEE2E2DCE2E2E2E2E2E2E2E2E2E2E2E2E2E2E2E2E2E2
310
E2E2E2E2E2E2E2E2E2E2E2E2E2E2E2E2E2E2E2E2E2E2E2E2E2E2E2E2E2E2E2E2E2E2E2E2E2E2E2E2E2E2E2E2E2E2E2E2E2E2E2E2E2E2E2E2E2E2E2E2E2E2E2E2E2E2E2E2E2E2E2E2E2E2E2E2E2E2E2DCE2E2DCE2E2E2E2E2E2E2E2DCE2E2E2E2DCE2E2E2E2F5F5F5F5E2E2E2E2E2E2DCE2E2E2E2E2E2E2E2E2DCE2E2E2E2E2
310
E2E2E2E2E2E2E2E2E2E2E2E2E2E2E2E2E2E2E2E2E2E2E2E2E2E2E2E2E2E2E2E2E2DCE2E2BEE2E2E2E2E2E2E2E2E2E2E2E2E2E2E2E2E2E2E2E2E2E2E2E2E2E2E2E2E2E2E2E2E2E2E2E2E2E2E2E2E2E2E2E2E2E2E2E2E2E2E2E2E2E2E2E2E2E2E2E2E2E2E2E2E2E2E2E2E2E2BEE2E2DCE2E2E2E2E2E2E2E2E2E2E2E2E2E2E2E2
310
E2E2E2E2E2E2E2E2E2E2E2E2E2E2E2E2E2E2E2E2E2E2E2E2E2E2E2E2E2E2E2E2E2E2E2E2E2E2E2E2E2E2E2E2E2E2E2E2E2E2E2E2E2E2E2E2E2E2E2E2E2E2E2E2E2E2E2E2E2E2E2E2E2E2E2E2E2E2E2E2E2DCE2E2DCE2E2E2E2E2E2E2E2DCE2E2E2E2DCE2E2E2E2F5F5F5F5E2E2E2E2E2E2DCE2E2E2E2E2E2E2E2E2BEBEBEBE
310
BEBEBEBEBEBEBEBEBEBEBEBEBEBEE2BEBEE2E2BEBEBEBEE2E2E2E2E2E2E2E2E2E2E2E2DCE2E2BEE2E2E2E2E2E2E2E2E2E2E2E2E2E2E2E2E2E2E2E2E2E2E2E2E2E2E2E2E2E2E2E2E2E2E2E2E2E2E2E2E2E2E2E2E2E2E2E2E2E2E2E2E2E2E2E2E2E2E2E2E2E2E2E2E2E2E2E2E2E2BEE2E2DCE2E2E2E2E2E2E2E2E2E2E2E2E2E2
310
E2E2E2E2E2E2E2E2E2E2E2E2E2E2E2E2E2E2E2E2E2E2E2E2E2E2E2E2E2E2E2E2E2E2E2E2E2E2E2E2E2E2E2E2E2E2E2E2E2E2E2E2E2E2E2E2E2E2E2E2E2E2E2E2E2E2E2E2E2E2E2E2E2E2E2E2E2E2E2E2E2E2E2DCDCDCDCDCDCDCDCDCDCDCDCDCDCDCDCDCDCDCDCDCDCF5F5F5F5BEBEBEBEBEBEBEBEBEBEBEBEDCDCDCDCBEBE
310
BEBEBEBEBEBEBEBEBEBEBEBEBEBEBEBEE2BEBEBEE2BEBEBEBEE2E2E2E2E2E2E2E2E2E2E2E2DCE2E2BEE2E2E2E2E2E2E2E2E2E2E2E2E2E2E2E2E2E2E2E2E2E2E2E2E2E2E2E2E2E2E2E2E2E2E2E2E2E2E2E2E2E2E2E2E2E2E2E2E2E2E2E2E2E2E2E2E2E2E2E2E2E2E2E2E2E2E2E2E2E2BEE2E2DCE2E2E2E2E2E2E2E2E2E2E2E2
310
E2E2E2E2E2E2E2E2E2E2E2E2E2E2E2E2E2E2E2E2E2E2E2E2E2E2E2E2E2E2E2E2E2E2E2E2E2E2E2E2E2E2E2E2E2E2E2E2E2E2E2E2E2E2E2E2E2E2E2E2E2E2E2E2E2E2E2E2E2E2E2E2E2E2E2E2E2E2E2E2E2E2E2E2E2DCE2E2DCE2E2E2E2E2E2E2E2DCE2E2E2E2DCE2E2E2E2F5F5F5DCBEBEBEBEBEBEBEBEBEBEBEBEE2E2E2E2
310
BEBEBEBEBEBEBEBEBEBEBEBEBEBEBEBEBEBEE2BEBEBEE2BEBEBEBEE2E2E2E2E2E2E2E2E2E2E2E2DCE2E2BEE2E2E2E2E2E2E2E2E2E2E2E2E2E2E2E2E2E2E2E2E2E2E2E2E2E2E2E2E2E2E2E2E2E2E2E2E2E2E2E2E2E2E2E2E2E2E2E2E2E2E2E2E2E2E2E2E2E2E2E2E2E2E2E2E2E2E2E2E2E2BEE2E2DCE2E2E2E2E2E2E2E2E2E2
310
E2E2E2E2E2E2E2E2E2E2E2E2E2E2E2E2E2E2E2E2E2E2E2E2E2E2E2E2E2E2E2E2E2E2E2E2E2E2E2E2E2E2E2E2E2E2E2E2E2E2E2E2E2E2E2E2E2E2E2E2E2E2E2E2E2E2E2E2E2E2E2E2E2E2E2E2E2E2E2E2E2E2E2E2E2E2E2DCF5F5F5F5F5F5F5F5F5DCDCDCF5F5F5F5DCF5F5F5F5DCDCDCDCF5F5F5F5F5F5F5F5F5F5F5F5DCDC
310
DCDCF5F5F5F5F5F5F5F5F5F5E2F5F5F5E2E2E2E2E2E2E2E2E2E2E2E2E2E2E2E2E2E2E2E2E2E2E2E2E2DCE2E2BEE2E2E2E2E2E2E2E2E2E2E2E2E2E2E2E2E2E2E2E2E2E2E2E2E2E2E2E2E2E2E2E2E2E2E2E2E2E2E2E2E2E2E2E2E2E2E2E2E2E2E2E2E2E2E2E2E2E2E2E2E2E2E2E2E2E2E2E2E2E2BEE2E2DCE2E2E2E2E2E2E2E2
310
E2E2E2E2E2E2E2E2E2E2E2E2E2E2E2E2E2E2E2E2E2E2E2E2E2E2E2E2E2E2E2E2E2E2E2E2E2E2E2E2E2E2E2E2E2E2E2E2E2E2E2E2E2E2E2E2E2E2E2E2E2E2E2E2E2E2E2E2E2E2E2E2E2E2E2E2E2E2E2E2E2E2E2E2E2E2E2E2E2DCF5F5F5F5F5F5F5F5F5E2E2DCF5F5F5F5DCF5F5F5F5DCDCDCDCF5F5F5F5F5F5F5F5F5F5F5F5
310
E2E2E2E2F5F5F5F5F5F5F5F5F5F5F5F5F5F5E2E2E2E2E2E2E2E2E2E2E2E2E2E2E2E2E2E2E2E2E2E2E2E2E2DCE2E2BEE2E2E2E2E2E2E2E2E2E2E2E2E2E2E2E2E2E2E2E2E2E2E2E2E2E2E2E2E2E2E2E2E2E2E2E2E2E2E2E2E2E2E2E2E2E2E2E2E2E2E2E2E2E2E2E2E2E2E2E2E2E2E2E2E2E2E2E2E2E2BEE2E2DCE2E2E2E2E2E2
310
E2E2E2E2E2E2E2E2E2E2E2E2E2E2E2E2E2E2E2E2E2E2E2E2E2E2E2E2E2E2E2E2E2E2E2E2E2E2E2E2E2E2E2E2E2E2E2E2E2E2E2E2E2E2E2E2E2E2E2E2E2E2E2E2E2E2E2E2E2E2E2E2E2E2E2E2E2E2E2E2E2E2E2E2E2E2E2E2E2E2E2DCDCDCDCDCDCDCDCDCDCDCDCDCDCDCDCDCDCDCDCDCDCDCDCDCDCF5F5F5DCDCDCF5BEBEBE
310
DCBEBEBEBEDCDCDCDCDCDCDCDCDCDCDCDCF5DCDCDCDCDCDCDCDCDCDCDCDCDCDCDCDCDCDCDCDCDCDCDCDCDCDCDCDCE2E2BEE2E2E2E2E2E2E2E2E2E2E2E2E2E2E2E2E2E2E2E2E2E2E2E2E2E2E2E2E2E2E2E2E2E2E2E2E2E2E2E2E2E2E2E2E2E2E2E2E2E2E2E2E2E2E2E2E2E2E2E2E2E2E2E2E2E2E2E2E2E2BEE2E2DCE2E2E2E2
310
E2E2E2E2E2E2E2E2E2E2E2E2E2E2E2E2E2E2E2E2E2E2E2E2E2E2E2E2E2E2E2E2E2E2E2E2E2E2E2E2E2E2E2E2E2E2E2E2E2E2E2E2E2E2E2E2E2E2E2E2E2E2E2E2E2E2E2E2E2E2E2E2E2E2E2E2E2E2E2E2E2E2E2E2E2E2E2E2E2E2E2E2E2DCE2E2E2E2E2E2E2E2E2E2E2E2E2E2E2E2E2E2E2E2E2DCE2E2E2E2E2E2E2E2E2DCBE
310
BEBEE2BEBEBEBEE2DCE2E2E2E2E2E2E2E2E2E2E2E2E2DCE2E2E2E2E2E2E2E2E2E2E2E2E2E2DCE2E2E2E2E2E2E2E2E2DCE2E2BEE2E2E2E2E2E2E2E2E2E2E2E2E2E2E2E2E2E2E2E2E2E2E2E2E2E2E2E2E2E2E2E2E2E2E2E2E2E2E2E2E2E2E2E2E2E2E2E2E2E2E2E2E2E2E2E2E2E2E2E2E2E2E2E2E2E2E2E2E2E2BEE2E2DCE2E2
310
E2E2E2E2E2E2E2E2E2E2E2E2E2E2E2E2E2E2E2E2E2E2E2E2E2E2E2E2E2E2E2E2E2E2E2BEBEBEE2E2BEBEE2E2E2BEBEBEE2E2E2E2E2E2E2E2E2E2E2E2E2E2E2E2E2E2E2E2E2E2E2E2E2E2E2E2E2E2E2E2E2E2E2E2E2E2E2E2E2E2E2E2E2E2E2DCE2E2E2E2E2E2E2E2E2E2E2E2E2E2E2E2E2E2E2E2E2DCDCDCDCDCDCDCDCDCDC
310
BEBEBEBEBEBEBEBEBEBEDCF5F5F5F5F5F5F5F5F5F5F5E2E2DCF5F5F5F5F5F5F5F5F5F5F5F5E2E2DCF5F5F5F5E2F5F5F5F5DCE2E2BEE2E2E2E2E2E2E2E2E2E2E2E2E2E2E2E2E2E2E2E2E2E2E2E2E2E2E2E2E2E2E2E2E2E2E2E2E2E2E2E2E2E2E2E2E2E2E2E2E2E2E2E2E2E2E2E2E2E2E2E2E2E2E2E2E2E2E2E2E2E2BEE2E2DC
310
E2E2E2E2E2E2E2E2BEBEBEBEE2E2BEBEBEBEBEBEBEBEBEBEBEBEBEBEBEBEBEBEBEBEBEBEBEBEBEBEBEE2BEBEBEBEBEBEBEBEBEBEE2BEE2E2E2E2E2E2E2E2E2E2E2E2E2E2E2E2E2E2E2E2E2E2E2E2E2E2E2E2E2E2E2E2E2E2E2E2E2E2E2E2E2E2E2DCE2E2E2E2E2E2E2E2E2E2E2E2E2E2E2E2E2E2E2E2E2DCE2E2E2E2E2E2E2
310
E2E2BEBEBEBEBEBEBEBEBEBEDCF5F5F5F5F5F5F5F5F5F5F5DCDCDCF5F5F5F5F5F5F5F5F5F5F5F5DCDCDCF5F5F5F5F5F5F5F5F5DCE2E2BEE2E2E2E2E2E2E2E2E2E2E2E2E2E2E2E2E2E2E2E2E2E2E2E2E2E2E2E2E2E2E2E2E2E2E2E2E2E2E2E2E2E2E2E2E2E2E2E2E2E2E2E2E2E2E2E2E2E2E2E2E2E2E2E2E2E2E2E2E2E2BEE2
310
E2DCE2E2E2E2E2E2E2BEBEBEBEBEBEE2BEBEBEBEBEBEBEBEBEBEBEBEBEBEBEBEBEBEBEBEBEBEBEBEBEBEBEE2BEBEBEBEBEBEBEBEBEBEBEBEE2E2E2E2E2E2E2E2E2E2E2E2E2E2E2E2E2E2E2E2E2E2E2E2E2E2E2E2E2E2E2E2E2E2E2E2E2E2E2E2E2E2E2DCE2E2E2E2E2E2E2E2E2E2E2E2E2E2E2E2E2E2E2E2E2DCDCDCDCDCDC
310
DCDCDCDCDCDCDCDCDCDCDCDCDCDCDCE2E2E2BEBEBEBEBEBEBEE2E2E2DCE2E2E2E2E2E2E2E2E2E2E2E2E2E2DCE2E2E2E2BEE2BEBEE2DCE2E2BEE2E2E2E2E2E2E2E2E2E2E2E2E2E2E2E2E2E2E2E2E2E2E2E2E2E2E2E2E2E2E2E2E2E2E2E2E2E2E2E2E2E2E2E2E2E2E2E2E2E2E2E2E2E2E2E2E2E2E2E2E2E2E2E2E2E2E2E2E2E2
310
BEE2E2DCE2E2E2E2E2E2E2E2BEBEBEE2E2E2BEBEE2E2E2E2BEE2E2E2BEE2E2E2BEE2E2E2E2E2E2BEE2E2E2E2E2E2E2E2E2E2E2BEE2E2E2E2E2BEE2E2E2E2E2E2E2E2E2E2E2E2E2E2E2E2E2E2E2E2E2E2E2E2E2E2E2E2E2E2E2E2E2E2E2E2E2E2E2E2E2E2E2DCE2E2E2E2E2E2E2E2E2E2E2E2E2E2E2E2E2E2E2E2E2DCF5F5F5
310
F5F5F5F5F5E2DCE2E2BEBEBEBEE2E2E2DCE2E2BEBEE2BEBEBEBEBEE2E2E2DCE2E2E2E2E2E2E2E2E2E2E2E2E2E2DCE2E2E2BEBEBEBEBEE2DCE2E2BEE2E2E2E2E2E2E2E2E2E2E2E2E2E2E2E2E2E2E2E2E2E2E2E2E2E2E2E2E2E2E2E2E2E2E2E2E2E2E2E2E2E2E2E2E2E2E2E2E2E2E2E2E2E2E2E2E2E2E2E2E2E2E2E2E2E2E2E2
310
E2E2BEE2E2DCE2E2E2E2E2E2E2E2E2E2E2E2E2E2E2E2E2E2E2E2E2E2E2E2E2E2E2E2E2E2E2E2E2E2E2E2E2E2E2E2E2E2E2E2E2E2E2E2E2E2E2E2E2E2E2E2E2E2E2E2E2E2E2E2E2E2E2E2E2E2E2E2E2E2E2E2E2E2E2E2E2E2E2E2E2E2E2E2E2E2E2E2E2E2E2E2E2DCE2E2E2E2E2E2E2E2E2E2E2E2E2E2E2E2E2E2E2E2E2DCE2
310
F5F5E2E2F5F5F5E2DCE2E2F5F5F5F5E2E2E2DCE2E2F5F5F5F5F5F5F5E2E2E2E2DCE2E2E2F5F5F5F5F5F5F5F5E2E2E2DCE2F5F5F5F5F5F5F5E2DCE2E2BEE2E2E2E2E2E2E2E2E2E2E2E2E2E2E2E2E2E2E2E2E2E2E2E2E2E2E2E2E2E2E2E2E2E2E2E2E2E2E2E2E2E2E2E2E2E2E2E2E2E2E2E2E2E2E2E2E2E2E2E2E2E2E2E2E2E2
310
E2E2E2E2BEE2E2DCE2E2E2E2E2E2E2E2E2E2E2E2E2E2E2E2E2E2E2E2E2E2E2E2E2E2E2E2E2E2E2E2E2E2E2E2E2E2E2E2E2E2E2E2E2E2E2E2E2E2E2E2E2E2E2E2E2E2E2E2E2E2E2E2E2E2E2E2E2E2E2E2E2E2E2E2E2E2E2E2E2E2E2E2E2E2E2E2E2E2E2E2E2E2E2E2E2DCDCDCDCDCDCDCDCDCDCDCDCDCDCDCDCDCDCDCDCDCDC
310
DCDCDCDCDCDCDCDCDCDCDCDCDCDCDCDCDCDCDCDCDCDCDCDCDCDCDCDCDCDCDCDCDCDCDCDCDCDCDCDCDCDCDCDCDCDCDCDCDCDCDCDCDCDCDCDCDCDCDCDCE2E2BEE2E2E2E2E2E2E2E2E2E2E2E2E2E2E2E2E2E2E2E2E2E2E2E2E2E2E2E2E2E2E2E2E2E2E2E2E2E2E2E2E2E2E2E2E2E2E2E2E2E2E2E2E2E2E2E2E2E2E2E2E2E2E2E2
310
E2E2E2E2E2E2BEE2E2DCE2E2E2E2E2E2E2E2E2E2E2E2E2E2E2E2E2E2E2E2E2E2E2E22D2D2D2D2D2D2D2D2D2D2DF5E2E2E2E2E2E2E2E2E2E2E2E2E2E2E2E2E2E2E2E2E2E2E2E2E2E2E2E2E2E2E2E2E2E2E2E2E2E2E2E2E2E2E2E2E2E2E2E2E2E2E2E2E2E2E2E2E2E2E2E2E2E2E2E2E2E2E2E2E2E2E2E2E2E2E2E2E2E2E2E2E2
310
E2E2E2E2E2E2E2E2E2E2E2E2E2E2E2E2E2E2E2E2E2E2E2E2E2E2E2E2E2E2E2E2E2E2E2E2E2E2E2E2E2E2E2E2E2E2E2E2E2E2E2E2E2E2E2E2E2E2E2E2E2DCE2E2BEE2E2E2E2E2E2E2E2E2E2E2E2E2E2E2E2E2E2E2E2E2E2E2E2E2E2E2E2E2E2E2E2E2E2E2E2E2E2E2E2E2E2E2E2E2E2E2E2E2E2E2E2E2E2E2E2E2E2E2E2E2E2
310
E2E2E2E2E2E2E2E2BEE2E2DCE2E2E2E2E2E2E2E2E2E2E2E2E2E2E2E2E2E2E2E2E2E2E2E22D2DE2E2E2BEBEE2E2E22D2DE2E2E2E2E2E2E2E2E2E2E2E2E2E2E2E2E2E2E2E2E2E2E2E2E2E2E2E2E2E2E2E2E2E2E2E2E2E2E2E2E2E2E2E2E2E2E2E2E2E2E2E2E2E2E2E2E2E2E2E2E2E2E2E2E2E2E2E2E2E2E2E2E2E2E2E2E2E2E2
310
E2E2E2E2E2E2E2E2E2E2E2E2E2E2E2E2E2E2E2E2E2E2E2E2E2E2E2E2E2E2E2E2E2E2E2E2E2E2E2E2E2E2E2E2E2E2E2E2E2E2E2E2E2E2E2E2E2E2E2E2E2E2E2DCE2E2BEE2E2E2E2E2E2E2E2E2E2E2E2E2E2E2E2E2E2E2E2E2E2E2E2E2E2E2E2E2E2E2E2E2E2E2E2E2E2E2E2E2E2E2E2E2E2E2E2E2E2E2E2E2E2E2E2E2E2E2E2
310
E2E2E2E2E2E2E2E2E2E2BEE2E2DCE2E2E2E2E2E2E2E2E2E2E2E2E2E2E2E2E2E2E2E2E2E2E2E22DE2E2E2E2BEBEE2E2E2E22DE2E2E2E2E2E2E2E2E2E2E2E2E2E2E2E2E2E2E2E2E2E2E2E2E2E2E2E2E2E2E2E2E2E2E2E2E2E2E2E2E2E2E2E2E2E2E2E2E2E2E2E2E2E2E2E2E2E2E2E2E2E2E2E2E2E2E2E2E2E2E2E2E2E2E2E2E2
310
E2E2E2E2E2E2E2E2E2E2E2E2E2E2E2E2E2E2E2E2E2E2E2E2E2E2E2E2E2E2E2E2E2E2E2E2E2E2E2E2E2E2E2E2E2E2E2E2E2E2E2E2E2E2E2E2E2E2E2E2E2E2E2E2E2DCE2E2BEE2E2E2E2E2E2E2E2E2E2E2E2E2E2E2E2E2E2E2E2E2E2E2E2E2E2E2E2E2E2E2E2E2E2E2E2E2E2E2E2E2E2E2E2E2E2E2E2E2E2E2E2E2E2E2E2E2E2
310
E2E2E2E2E2E2E2E2E2E2E2E2BEE2E2DCE2E2E2E2E2E2E2E2E2E2E2E2E2E2E2E2E2E2E2E2E2E2E2E22DE2E2E2E2E2F5E2E2E2E22DE2E2E2E2E2E2E2E2E2E2E2E2E2E2E2E2E2E2E2E2E2E2E2E2E2E2E2E2E2E2E2E2E2E2E2E2E2E2E2E2E2E2E2E2E2E2E2E2E2E2E2E2E2E2E2E2E2E2E2E2E2E2E2E2E2E2E2E2E2E2E2E2F5F5F5
310
F5F5F5F5F5F5F5F5F5F5F5F5F5F5F5F5F5F5F5F5F5F5F5F5F5F5F5F5F5F5F5F5F5F5F5F5F5F5F5F5F5F5F5F5F5F5F5F5F5F5F5F5F5F5F5F5F5F5F5F5F5F5F5F5F5F5F5DCE2E2BEE2E2E2E2E2E2E2E2E2E2E2E2E2E2E2E2E2E2E2E2E2E2E2E2E2E2E2E2E2E2E2E2E2E2E2E2E2E2E2E2E2E2E2E2E2E2E2E2E2E2E2E2E2E2E2E2
310
E2E2E2E2E2E2E2E2E2E2E2E2E2E2BEE2E2DCE2E2E2E2E2E2E2E2E2E2E2E2E2E2E2E2E2E2E2E2E2E2E2E22DE2E2F5F5F5F5F5F5F5E22DE2E2E2E2E2E2E2E2E2E2E2E2E2E2E2E2E2E2E2E2E2E2E2E2E2E2E2E2E2E2E2E2E2E2E2E2E2E2E2E2E2E2E2E2E2E2E2E2E2E2E2E2E2E2E2E2E2E2E2E2E2E2E2E2E2E2E2E2E2E2E2E2F5
310
E2E2E2E2E2E2E2E2E2E2E2E2E2E2E2E2E2E2E2E2E2F5F5F5E2E2F5E2E2E2E2E2F5F5F5F5F5E2E2E2F5E2E2E2E2E2F5F5F5F5F5F5E2E2E2F5E2E2E2E2F5F5F5F5F5F5E2E2E2DCE2E2BEE2E2E2E2E2E2E2E2E2E2E2E2E2E2E2E2E2E2E2E2E2E2E2E2E2E2E2E2E2E2E2E2E2E2E2E2E2E2E2E2E2E2E2E2E2E2E2E2E2E2E2E2E2E2
310
E2E2E2E2E2E2E2E2E2E2E2E2E2E2E2E2BEE2E2DCE2E2E2E2E2E2E2E2E2E2E2E2E2E2E2E2E2E2E2E2E2E2E2E22DF5F5F5E2F5BEE2E2F5F52DE2E2E2E2E2E2E2E2E2E2E2E2E2E2E2E2E2E2E2E2E2E2E2E2E2E2E2E2E2E2E2E2E2E2E2E2E2E2E2E2E2E2E2E2E2E2E2E2E2E2E2E2E2E2E2E2E2E2E2E2E2E2E2E2E2E2E2E2E2E2E2
310
E2F5E2E2E2E2E2E2E2E2E2E2E2E2E2E2E2E2E2E2E2E2E2F5E2F5E2E2F5E2E2E2E2F5F5F5F5E2F5E2E2E2F5E2E2E2E2E2F5F5F5F5F5F5E2E2E2F5E2E2E2E2F5F5F5F5F5F5E2E2E2DCE2E2BEE2E2E2E2E2E2E2E2E2E2E2E2E2E2E2E2E2E2E2E2E2E2E2E2E2E2E2E2E2E2E2E2E2E2E2E2E2E2E2E2E2E2E2E2E2E2E2E2E2E2E2E2
310
E2E2E2E2E2E2E2E2E2E2E2E2E2E2E2E2E2E2BEE2E2DCE2E2E2E2E2E2E2E2E2E2E2E2E2E2E2E2E2E2E2E2E2E2E2E2BEBEBEE2BEBEBEBEE2E2BEF5E2E2E2E2E2E2E2E2E2E2E2E2E2E2E2E2E2E2E2E2E2E2E2E2E2E2E2E2E2E2E2E2E2E2E2E2E2E2E2E2E2E2E2E2E2E2E2E2E2E2E2E2E2E2E2E2E2E2E2E2E2E2E2E2E2E2E2E2E2
310
E2E2E2F5F5F5F5F5F5F5F5F5F5F5F5F5F5F5F5F5F5F5F5F5F5F5F5F5F5F5F5F5F5F5F5F5F5F5F5F5F5F5F5F5F5F5F5F5F5F5F5F5F5F5F5F5F5F5F5F5F5F5F5F5F5F5F5F5F5F5F5F5F5DCE2E2BEE2E2E2E2E2E2E2E2E2E2E2E2E2E2E2E2E2E2E2E2E2E2E2E2E2E2E2E2E2E2E2E2E2E2E2E2E2E2E2E2E2E2E2E2E2E2E2E2E2E2
310
E2E2E2E2E2E2E2E2E2E2E2E2E2E2E2E2E2E2E2E2BEE2E2DCE2E2E2E2E2E2E2E2E2E2E2E2E2E2E2E2E2E2E2E2E2E2E2F52DBEBEF5E2F5BEE2E2F5BE2DF5E2E2E2E2E2E2E2E2E2E2E2E2E2E2E2E2E2E2E2E2E2E2E2E2E2E2E2E2E2E2E2E2E2E2E2E2E2E2E2E2E2E2E2E2E2E2E2E2E2E2E2E2E2E2E2E2E2E2E2E2E2E2E2E2E2E2
310
E2E2E2E2E2F5E2E2E2E2E2E2E2E2E2E2E2E2E2E2E2E2E2E2E2E2E2F5F5F5E2E2F5E2E2E2E2E2F5F5F5F5E2E2E2E2F5E2E2E2E2E2F5F5F5F5E2E2E2E2E2F5E2E2E2E2F5F5F5F5E2E2E2E2E2DCE2E2BEE2E2E2E2E2E2E2E2E2E2E2E2E2E2E2E2E2E2E2E2E2E2E2E2E2E2E2E2E2E2E2E2E2E2E2E2E2E2E2E2E2E2E2E2E2E2E2E2
310
E2E2E2E2E2E2E2E2E2E2E2E2E2E2E2E2E2E2E2E2E2E2BEE2E2DCE2E2E2E2E2E2E2E2E2E2E2E2E2E2E2E2E2E2E2E2E2E2E2F52DBEBEBEF5F5F5F5BEBEBE2DF5F5E2E2E22DE2E2E2E2E2E2E2E2E2E2E2E2E2E2E2E2E2E2E2E2E2E2E2E2E2E2E2E2E2E2E2E2E2E2E2E2E2E2E2E2E2E2E2E2E2E2E2E2E2E2E2E2E2E2E2E2E2E2E2
310
E2E2E2E2E2E2E2F5E2E2E2E2E2E2E2E2E2E2E2E2E2E2E2E2E2E2E2E2E2F5F5F5E2E2F5E2E2E2E2F5F5F5F5F5E2E2E2E2F5E2E2E2E2E2F5F5F5F5E2E2E2E2E2F5E2E2E2E2E2F5F5F5E2E2E2E2E2DCE2E2BEE2E2E2E2E2E2E2E2E2E2E2E2E2E2E2E2E2E2E2E2E2E2E2E2E2E2E2E2E2E2E2E2E2E2E2E2E2E2E2E2E2E2E2E2E2E2
310
E2E2E2E2E2E2E2E2E2E2E2E2E2E2E2E2E2E2E2E2E2E2E2E2BEE2E2DCE2E2E2E2E2E2E2E2E2E2E2E2E2E2E2E2E2E2E2E2E2E2F5E22DF5BEBEF5F5F5F5BEBEBE2DE2F5E2E2E22DE2E2E2E2E2E2E2E2E2E2E2E2E2E2E2E2E2E2E2E2E2E2E2E2E2E2E2E2E2E2E2E2E2E2E2E2E2E2E2E2E2E2E2E2E2E2E2E2E2E2E2E2E2E2E2E2E2
310
E2E2E2E2E2E2E2E2E2F5E2E2E2E2E2E2E2E2E2E2E2E2E2E2E2E2E2E2E2E2E2E2E2E2E2E2F5E2E2E2E2E2F5F5F5E2E2E2E2E2F5E2E2E2E2E2F5F5F5F5E2E2E2E2E2F5E2E2E2E2F5F5F5F5E2E2E2E2E2DCE2E2BEE2E2E2E2E2E2E2E2E2E2E2E2E2E2E2E2E2E2E2E2E2E2E2E2E2E2E2E2E2E2E2E2E2E2E2E2E2E2E2E2E2E2E2E2
310
E2E2E2E2E2E2E2E2E2E2E2E2E2E2E2E2E2E2E2E2E2E2E2E2E2E2BEE2E2DCE2E2E2E2E2E2E2E2E2E2E2E2E2E2E2E2E2E2E2E2E2E2F5E2F5E2F5F5BEBEBEBEBEF5E2F5E2F5E2E2E22DE2E2E2E2E2E2E2E2E2E2E2E2E2E2E2E2E2E2E2E2E2E2E2E2E2E2E2E2E2E2E2E2E2E2E2E2E2E2E2E2E2E2E2E2E2E2E2E2E2E2E2E2E2E2E2
310
E2E2E2E2E2E2E2E2E2E2E2F5F5F5F5F5F5F5F5F5F5F5F5F5F5F5F5F5F5F5F5F5F5F5F5F5F5F5F5F5F5F5F5F5F5F5F5F5F5F5F5F5F5F5F5F5F5F5F5F5F5F5F5F5F5F5F5F5F5F5F5F5F5F5F5F5F5F5F5F5F5DCE2E2BEE2E2E2E2E2E2E2E2E2E2E2E2E2E2E2E2E2E2E2E2E2E2E2E2E2E2E2E2E2E2E2E2E2E2E2E2E2E2E2E2E2E2
310
E2E2E2E2E2E2E2E2E2E2E2E2E2E2E2E2E2E2E2E2E2E2E2E2E2E2E2E2BEE2E2DCE2E2E2E2E2E2E2E2E2E2E2E2E2E2E2E2E2E2E2E2E2E2F5F5BEF5F5F5E2BEBEBEE2F5F5F52D2D2D2D2DF52DE2E2E2E2E2E2E2E2E2E2E2E2E2E2E2E2E2E2E2E2E2E2E2E2E2E2E2E2E2E2E2E2E2E2E2E2E2E2E2E2E2E2E2E2E2E2E2E2E2E2E2E2
310
E2E2E2E2E2E2E2E2E2E2E2E2E2F5E2E2E2E2E2E2E2E2E2E2E2E2E2E2E2E2E2E2E2E2E2F5F5F5E2E2F5E2E2E2E2F5F5F5F5F5F5E2E2E2F5E2E2E2E2E2F5F5F5F5F5F5E2E2E2F5E2E2E2E2E2F5F5F5F5F5E2E2E2DCE2E2BEE2E2E2E2E2E2E2E2E2E2E2E2E2E2E2E2E2E2E2E2E2E2E2E2E2E2E2E2E2E2E2E2E2E2E2E2E2E2E2E2
310
E2E2E2E2E2E2E2E2E2E2E2E2E2E2E2E2E2E2E2E2E2E2E2E2E2E2E2E2E2E2BEE2E2DCE2E2E2E2E2E2E2E2E2E2E2E2E2E2E2E22D2D2D2D2DF5F5BEBEBEF5F5BEBEBEBEBEF5BEF52D2DF52D2D2D2DE2E2E2E2E2E2E2E2E2E2E2E2E2E2E2E2E2E2E2E2E2E2E2E2E2E2E2E2E2E2E2E2E2E2E2E2E2E2E2E2E2E2E2E2E2E2E2E2E2E2
310
E2E2E2E2E2E2E2E2E2E2E2E2E2E2E2F5E2E2E2E2E2E2E2E2E2E2E2E2E2E2E2E2E2E2E2E2E2F5F5F5E2E2F5E2E2E2E2F5F5F5F5E2F5E2E2E2F5E2E2E2E2E2F5F5F5F5F5F5E2E2E2F5E2E2E2E2F5F5F5F5F5F5E2E2E2DCE2E2BEE2E2E2E2E2E2E2E2E2E2E2E2E2E2E2E2E2E2E2E2E2E2E2E2E2E2E2E2E2E2E2E2E2E2E2E2E2E2
310
E2E2E2E2E2E2E2E2E2E2E2E2E2E2E2E2E2E2E2E2E2E2E2E2E2E2E2E2E2E2E2E2BEE2E2DCE2E2E2E2E2E2E2E2E2E2E2E2E2E2E2E22D2DE2E22DE2F5E2BEE2F5F5BEE2BEBEF5F5E2BEE2F5E2E2E22DE2E2E2E2E2E2E2E2E2E2E2E2E2E2E2E2E2E2E2E2E2E2E2E2E2E2E2E2E2E2E2E2E2E2E2E2E2E2E2E2E2E2E2E2E2E2E2E2E2
310
E2E2E2E2E2E2E2E2E2E2E2E2E2E2E2E2E2F5F5F5F5F5F5F5F5F5F5F5F5F5F5F5F5F5F5F5F5F5F5F5F5F5F5F5F5F5F5F5F5F5F5F5F5F5F5F5F5F5F5F5F5F5F5F5F5F5F5F5F5F5F5F5F5F5F5F5F5F5F5F5F5F5F5F5F5F5F5DCE2E2BEE2E2E2E2E2E2E2E2E2E2E2E2E2E2E2E2E2E2E2E2E2E2E2E2E2E2E2E2E2E2E2E2E2E2E2E2
310
E2E2E2E2E2E2E2E2E2E2E2E2E2E2E2E2E2E2E2E2E2E2E2E2E2E2E2E2E2E2E2E2E2E2BEE2E2DCE2E2E2E2E2E2E2E2E2E2E2E2E2E2E2E2E22DE2BE2DE2F5F5E2F5BEBEF5F5F5F5BEBEBEE2E2F5E2BEBE2DE2E2E2E2E2E2E2E2E2E2E2E2E2E2E2E2E2E2E2E2E2E2E2E2E2E2E2E2E2E2E2E2E2E2E2E2E2E2E2E2E2E2E2E2E2E2E2
310
E2E2E2E2E2E2E2E2E2E2E2E2E2E2E2E2E2E2E2F5E2E2E2E2E2E2E2E2E2E2E2E2E2E2E2E2E2E2E2E2E2F5F5F5E2E2F5E2E2E2E2E2F5F5F5F5E2E2E2E2F5E2E2E2E2E2F5F5F5F5E2E2E2E2E2F5E2E2E2E2F5F5F5F5E2E2E2E2E2DCE2E2BEE2E2E2E2E2E2E2E2E2E2E2E2E2E2E2E2E2E2E2E2E2E2E2E2E2E2E2E2E2E2E2E2E2E2
310
E2E2E2E2E2E2E2E2E2E2E2E2E2E2E2E2E2E2E2E2E2E2E2E2E2E2E2E2E2E2E2E2E2E2E2E2BEE2E2DCE2E2E2E2E2E2E2E2E2E2E2E2E2E2E2E2E22DE2BEBEE2E2F5BEBEBEBEF5F5F5F5BEBEBEBEF5F5E2BEBEBEE2E2E2E2E2E2E2E2E2E2E2E2E2E2E2E2E2E2E2E2E2E2E2E2E2E2E2E2E2E2E2E2E2E2E2E2E2E2E2E2E2E2E2E2E2
310
E2E2E2E2E2E2E2E2E2E2E2E2E2E2E2E2E2E2E2E2E2F5E2E2E2E2E2E2E2E2E2E2E2E2E2E2E2E2E2E2E2E2E2F5F5F5E2E2F5E2E2E2E2F5F5F5F5F5E2E2E2E2F5E2E2E2E2E2F5F5F5F5E2E2E2E2E2F5E2E2E2E2F5F5F5F5E2E2E2E2E2DCE2E2BEE2E2E2E2E2E2E2E2E2E2E2E2E2E2E2E2E2E2E2E2E2E2E2E2E2E2E2E2E2E2E2E2
310
E2E2E2E2E2E2E2E2E2E2E2E2E2E2E2E2E2E2E2E2E2E2E2E2E2E2E2E2E2E2E2E2E2E2E2E2E2E2BEE2E2DCE2E2E2E2E2E2E2E2E2E2E2E2E2E2E2E2E22DE2BEBEF5E2F5F5BEBEF5E2F5BEE2E2F5BEBEF5E2E2BEBEBEE2E2E2E2E2E2E2E2E2E2E2E2E2E2E2E2E2E2E2E2E2E2E2E2E2E2E2E2E2E2E2E2E2E2E2E2E2E2E2E2E2E2E2
310
E2E2E2E2E2E2E2E2E2E2E2E2E2E2E2E2E2E2E2E2E2E2E2F5F5F5F5F5F5F5F5F5F5F5F5F5F5F5F5F5F5F5F5F5F5F5F5F5F5F5F5F5F5F5F5F5F5F5F5F5F5F5F5F5F5F5F5F5F5F5F5F5F5F5F5F5F5F5F5F5F5F5F5F5F5F5F5F5F5F5F5F5F5DCE2E2BEE2E2E2E2E2E2E2E2E2E2E2E2E2E2E2E2E2E2E2E2E2E2E2E2E2E2E2E2E2E2
310
E2E2E2E2E2E2E2E2E2E2E2E2E2E2E2E2E2E2E2E2E2E2E2E2E2E2E2E2E2E2E2E2E2E2E2E2E2E2E2E2BEE2E2DCE2E2E2E2E2E2E2E2E2E2E2E2E2E2E2E2E2E22DE2BEE22DE2F5BEBEE2BEBEBEBEE2E2BEBEE2E2E2E2E2E2E2E2E2E2E2E2E2E2E2E2E2E2E2E2E2E2E2E2E2E2E2E2E2E2E2E2E2E2E2E2E2E2E2E2E2E2E2E2E2E2E2
310
E2E2E2E2E2E2E2E2E2E2E2E2E2E2E2E2E2E2E2E2E2E2E2E2E2F5E2E2E2E2E2E2E2E2E2F5E2F5F5F5F5F5F5F5F5F5E2F5E2E2E2E2F5E2E2F5F5F5F5E2F5F5F5F5E2E2F5E2E2F5F5F5F5F5E2F5F5F5F5E2E2F5E2F5F5F5F5F5E2F5F5F5F5E2E2DCE2E2BEE2E2E2E2E2E2E2E2E2E2E2E2E2E2E2E2E2E2E2E2E2E2E2E2E2E2E2E2
310
E2E2E2E2E2E2E2E2E2E2E2E2E2E2E2E2E2E2E2E2E2E2E2E2E2E2E2E2E2E2E2E2E2E2E2E2E2E2E2E2E2E2BEE2E2DCE2E2E2E2E2E2E2E2E2E2E2E2E2E2E2E2E2E22DE2E2E22D2D2DF5F5E2E2F5BEE2E2F5F5F5E2E2E2E2E2E2E2E2E2E2E2E2E2E2E2E2E2E2E2E2E2E2E2E2E2E2E2E2E2E2E2E2E2E2E2E2E2E2E2E2E2E2E2E2E2
310
E2E2E2E2E2E2E2E2E2E2E2E2E2E2E2E2E2E2E2E2E2E2E2E2E2E2E2F5E2E2E2E2E2E2E2E2E2F5F5F5F5F5F5F5F5F5F5F5F5F5E2E2E2E2F5E2E2F5F5F5F5E2F5F5F5F5E2E2F5E2E2F5F5F5F5F5E2F5F5F5F5E2E2F5E2F5F5F5F5F5E2F5F5F5F5E2E2DCE2E2BEE2E2E2E2E2E2E2E2E2E2E2E2E2E2E2E2E2E2E2E2E2E2E2E2E2E2
310
E2E2E2E2E2E2E2E2E2E2E2E2E2E2E2E2E2E2E2E2E2E2E2E2E2E2E2E2E2E2E2E2E2E2E2E2E2E2E2E2E2E2E2E2BEE2E2DCE2E2E2E2E2E2E2E2E2E2E2E2E2E2E2E2E2E2E22DE2E22D2DE2E2E2F5F5F5F5F5F5F5E2E2E2E2E2E2E2E2E2E2E2E2E2E2E2E2E2E2E2E2E2E2E2E2E2E2E2E2E2E2E2E2E2E2E2E2E2E2E2E2E2E2E2E2E2
310
E2E2E2E2E2E2E2E2E2E2E2E2E2E2E2E2E2E2E2E2E2E2E2E2E2E2E2E2E2F5F5F5F5F5F5F5F5F5F5E2F5E2E2F5E2F5E2E2F5E2E2F5E2E2E2E2F5E2E2F5F5F5F5E2E2F5F5F5E2E2F5E2E2E2F5F5F5E2E2F5F5F5E2E2E2F5E2E2F5F5F5F5E2F5F5F5F5E2E2DCE2E2BEE2E2E2E2E2E2E2E2E2E2E2E2E2E2E2E2E2E2E2E2E2E2E2E2
310
E2E2E2E2E2E2E2E2E2E2E2E2E2E2E2E2E2E2E2E2E2E2E2E2E2E2E2E2E2E2E2E2E2E2E2E2E2E2E2E2E2E2E2E2E2E2BEE2E2DCE2E2E2E2E2E2E2E2E2E2E2E2E2E2E2E2E2E2E2BE2DE2E2E2E2E2E2E2E2E2F5E2E2E2E2E2E2E2E2E2E2E2E2E2E2E2E2E2E2E2E2E2E2E2E2E2E2E2E2E2E2E2E2E2E2E2E2E2E2E2E2E2E2E2E2E2E2
310
E2E2E2E2E2E2E2E2E2E2E2E2E2E2E2E2E2E2E2E2E2E2E2E2E2E2E2E2E2E2E2F5F5F5F5F5F5F5F5F5E2F5F5F5F5F5F5F5F5F5F5F5F5F5F5F5F5F5F5F5F5F5F5F5F5F5F5F5F5F5F5F5F5F5F5F5F5F5F5F5F5F5F5F5F5F5E2F5F5F5F5F5F5F5F5F5F5F5F5F5F5DCE2E2BEE2E2E2E2E2E2E2E2E2E2E2E2E2E2E2E2E2E2E2E2E2E2
310
E2E2E2E2E2E2E2E2E2E2E2E2E2E2E2E2E2E2E2E2E2E2E2E2E2E2E2E2E2E2E2E2E2E2E2E2E2E2E2E2E2E2E2E2E2E2E2E2BEE2E2DCE2E2E2E2E2E2E2E2E2E2E2E2E2E2E2E2E2E2E2BEBE2DE2E2E2E2E2E2E2E22DE2E2E2E2E2E2E2E2E2E2E2E2E2E2E2E2E2E2E2E2E2E2E2E2E2E2E2E2E2E2E2E2E2E2E2E2E2E2E2E2E2E2E2E2
310
E2E2E2E2E2E2E2E2E2E2E2E2E2E2E2E2E2E2E2E2E2E2E2E2E2E2E2E2E2E2E2E2E2F5E2E2E2E2E2E2E2E2E2F5F5F5F5F5F5F5F5F5F5F5F5F5F5F5F5F5F5E2E2F5F5F5F5E2F5F5F5F5E2E2F5E2E2F5F5F5F5F5E2F5F5F5F5E2E2F5E2F5F5F5F5F5E2F5F5F5F5E2E2DCE2E2BEE2E2E2E2E2E2E2E2E2E2E2E2E2E2E2E2E2E2E2E2
310
E2E2E2E2E2E2E2E2E2E2E2E2E2E2E2E2E2E2E2E2E2E2E2E2E2E2E2E2E2E2E2E2E2E2E2E2E2E2E2E2E2E2E2E2E2E2E2E2E2E2BEE2E2DCE2E2E2E2E2E2E2E2E2E2E2E2E2E2E2E2E2E2E2BEBEE22DE2E2E2E2E2E2E22DE2E2E2E2E2E2E2E2E2E2E2E2E2E2E2E2E2E2E2E2E2E2E2E2E2E2E2E2E2E2E2E2E2E2E2E2E2E2E2E2E2E2
310
E2E2E2E2E2E2E2E2E2E2E2E2E2E2E2E2E2E2E2E2E2E2E2E2E2E2E2E2E2E2E2E2E2E2E2F5E2E2E2E2E2E2E2E2E2F5F5F5F5F5E2F5F5F5F5F5F5F5F5F5F5F5F5E2E2F5F5F5F5E2F5F5F5F5E2E2F5E2E2F5F5F5F5F5E2F5F5F5F5E2E2F5E2F5F5F5F5F5E2F5F5F5F5E2E2DCE2E2BEE2E2E2E2E2E2E2E2E2E2E2E2E2E2E2E2E2E2
310
E2E2E2E2E2E2E2E2E2E2E2E2E2E2E2E2E2E2E2E2E2E2E2E2E2E2E2E2E2E2E2E2E2E2E2E2E2E2E2E2E2E2E2E2E2E2E2E2E2E2E2E2BEE2E2DCE2E2E2E2E2E2E2E2E2E2E2E2E2E2E2E2E2E2E2E2BEE2E2F52DE2E2E2E2E22DE2E2E2E2E2E2E2E2E2E2E2E2E2E2E2E2E2E2E2E2E2E2E2E2E2E2E2E2E2E2E2E2E2E2E2E2E2E2E2E2
310
E2E2E2E2E2E2E2E2E2E2E2E2E2E2E2E2E2E2E2E2E2E2E2E2E2E2E2E2E2E2E2E2E2E2E2E2E2F5F5F5F5F5F5F5F5F5F5F5F5F5F5F5F5F5F5F5F5F5F5F5F5F5F5F5F5F5F5F5F5F5F5F5F5F5F5F5F5F5F5F5F5F5F5F5F5F5F5F5F5F5F5F5F5F5F5F5F5F5F5F5F5F5F5F5F5F5F5DCE2E2BEE2E2E2E2E2E2E2E2E2E2E2E2E2E2E2E2
310
E2E2E2E2E2E2E2E2E2E2E2E2E2E2E2E2E2E2E2E2E2E2E2E2E2E2E2E2E2E2E2E2E2E2E2E2E2E2E2E2E2E2E2E2E2E2E2E2E2E2E2E2E2E2BEE2E2DCE2E2E2E2E2E2E2E2E2E2E2E2E2E2E2E2E2E2E2E2E2E2E2E2E22D2D2D2D2D2DE2E2E2E2E2E2E2E2E2E2E2E2E2E2E2E2E2E2E2E2E2E2E2E2E2E2E2E2E2E2E2E2E2E2E2E2E2E2
310
E2E2E2E2E2E2E2E2E2E2E2E2E2E2E2E2E2E2E2E2E2E2E2E2E2E2E2E2E2E2E2E2E2E2E2E2E2E2E2E2E2E2E2E2E2E2E2E2E2E2E2E2E2E2E2E2E2E2E2E2E2E2E2E2E2E2E2E2E2E2E2E2E2E2E2E2E2E2E2E2E2E2E2E2E2E2E2E2E2E2E2E2E2E2E2E2E2E2E2E2E2E2E2E2E2E2E2E2E2DCE2E2BEE2E2E2E2E2E2E2E2E2E2E2E2E2E2
310
E2E2E2E2E2E2E2E2E2E2E2E2E2E2E2E2E2E2E2E2E2E2E2E2E2E2E2E2E2E2E2E2E2E2E2E2E2E2E2E2E2E2E2E2E2E2E2E2E2E2E2E2E2E2E2E2BEE2E2DCE2E2E2E2E2E2E2E2E2E2E2E2E2E2E2E2E2E2E2E2E2E2E2E2E2E2E2E2E22D2DE2E2E2E2E2E2E2E2E2E2E2E2E2E2E2E2E2E2E2E2E2E2E2E2E2E2E2E2E2E2E2E2E2E2E2E2
310
E2E2E2E2E2E2E2E2E2E2E2E2E2E2E2E2E2E2E2E2E2E2E2E2E2E2E2E2E2E2E2E2E2E2E2E2E2E2E2E2E2E2E2E2E2E2E2E2E2E2E2E2E2E2E2E2E2E2E2E2E2E2E2E2E2E2E2E2E2E2E2E2E2E2E2E2E2E2E2E2E2E2E2E2E2E2E2E2E2E2E2E2E2E2E2E2E2E2E2E2E2E2E2E2E2E2E2E2E2E2E2DCE2E2BEE2E2E2E2E2E2E2E2E2E2E2E2
310
E2E2E2E2E2E2E2E2E2E2E2E2E2E2E2E2E2E2E2E2E2E2E2E2E2E2E2E2E2E2E2E2E2E2E2E2E2E2E2E2E2E2E2E2E2E2E2E2E2E2E2E2E2E2E2E2E2E2BEE2E2DCE2E2E2E2E2E2E2E2E2E2E2E2E2E2E2E2E2E2E2E2E2E2E2E2E2E2E2E2E2E2E2E2E2E2E2E2E2E2E2E2E2E2E2E2E2E2E2E2E2E2E2E2E2E2E2E2E2E2E2E2E2E2E2E2E2
310
E2E2E2E2E2E2E2E2E2E2E2E2E2E2E2E2E2E2E2E2E2E2E2E2E2E2E2E2E2E2E2E2E2E2E2E2E2E2E2E2E2E2E2E2E2E2E2E2E2E2E2E2E2E2E2E2E2E2E2E2E2E2E2E2E2E2E2E2E2E2E2E2E2E2E2E2E2E2E2E2E2E2E2E2E2E2E2E2E2E2E2E2E2E2E2E2E2E2E2E2E2E2E2E2E2E2E2E2E2E2E2E2E2DCE2E2BEE2E2E2E2E2E2E2E2E2E2
310
E2E2E2E2E2E2E2E2E2E2E2E2E2E2E2E2E2E2E2E2E2E2E2E2E2E2E2E2E2E2E2E2E2E2E2E2E2E2E2E2E2E2E2E2E2E2E2E2E2E2E2E2E2E2E2E2E2E2E2E2BEE2E2DCE2E2E2E2E2E2E2E2E2E2E2BEBEBEBEBEBEBEBEBEBEBEBEBEBEBEBEBEBEBEBEBEBEBEBEBEBEBEBEBEBEBEBEBEE2E2E2E2E2E2E2E2E2E2E2E2E2E2E2E2E2E2E2
310
E2E2E2E2E2E2E2E2E2E2E2E2E2E2E2E2E2E2E2E2E2E2E2E2E2E2E2E2E2E2E2E2E2E2E2E2E2E2E2E2E2E2E2E2E2E2E2E2E2E2E2E2E2E2E2E2E2E2E2E2E2E2E2E2E2E2E2E2E2E2E2E2E2E2E2E2E2E2E2E2E2E2E2E2E2E2E2E2E2E2E2E2E2E2E2E2E2E2E2E2E2E2E2E2E2E2E2E2E2E2E2E2E2E2E2DCE2E2BEE2E2E2E2E2E2E2E2
310
E2E2E2E2E2E2E2E2E2E2E2E2E2E2E2E2E2E2E2E2E2E2E2E2E2E2E2E2E2E2E2E2E2E2E2E2E2E2E2E2E2E2E2E2E2E2E2E2E2E2E2E2E2E2E2E2E2E2E2E2E2E2BEE2E2DCE2E2E2E2E2E2E2E2E2E2E2BEBEBEBEBEBEBEBEBEBEBEBEBEBEBEBEBEBEBEBEBEBEBEBEE2BEBEBEBEBEBEBEBEE2E2E2E2E2E2E2E2E2E2E2E2E2E2E2E2E2
310
E2E2E2E2E2E2E2E2E2E2E2E2E2E2E2E2E2E2E2E2E2E2E2E2E2E2E2E2E2E2E2E2E2E2E2E2E2E2E2E2E2E2E2E2E2E2E2E2E2E2E2E2E2E2E2E2E2E2E2E2E2E2E2E2E2E2E2E2E2E2E2E2E2E2E2E2E2E2E2E2E2E2E2E2E2E2E2E2E2E2E2E2E2E2E2E2E2E2E2E2E2E2E2E2E2E2E2E2E2E2E2E2E2E2E2E2E2DCE2E2BEE2E2E2E2E2E2
310
E2E2E2E2E2E2E2E2E2E2E2E2E2E2E2E2E2E2E2E2E2E2E2E2E2E2E2E2E2E2E2E2E2E2E2E2E2E2E2E2E2E2E2E2E2E2E2E2E2E2E2E2E2E2E2E2E2E2E2E2E2E2E2E2BEE2E2DCE2E2E2E2E2E2E2E2E2E2E2E2BEBEBEBEBEBEBEBEBEBEBEBEBEBEBEBEBEBEBEBEBEBEBEBEBEBEBEBEBEBEBEBEE2E2E2E2E2E2E2E2E2E2E2E2E2E2E2
310
E2E2E2E2E2E2E2E2E2E2E2E2E2E2E2E2E2E2E2E2E2E2E2E2E2E2E2E2E2E2E2E2E2E2E2E2E2E2E2E2E2E2E2E2E2E2E2E2E2E2E2E2E2E2E2E2E2E2E2E2E2E2E2E2E2E2E2E2E2E2E2E2E2E2E2E2E2E2E2E2E2E2E2E2E2E2E2E2E2E2E2E2E2E2E2E2E2E2E2E2E2E2E2E2E2E2E2E2E2E2E2E2E2E2E2E2E2E2E2DCE2E2BEE2E2E2E2
310
E2E2E2E2E2E2E2E2E2E2E2E2E2E2E2E2E2E2E2E2E2E2E2E2E2E2E2E2E2E2E2E2E2E2E2E2E2E2E2E2E2E2E2E2E2E2E2E2E2E2E2E2E2E2E2E2E2E2E2E2E2E2E2E2E2E2BEE2E2DCE2E2E2E2E2E2E2E2E2E2E2BEBEE2E2BEBEE2E2E2BEBEE2E2E2E2E2E2E2BEE2E2E2BEE2E2E2E2E2E2E2E2E2E2E2E2E2E2E2E2E2E2E2E2E2E2E2
310
E2E2E2E2E2E2E2E2E2E2E2E2E2E2E2E2E2E2E2E2E2E2E2E2E2E2E2E2E2E2E2E2E2E2E2E2E2E2E2E2E2E2E2E2E2E2E2E2E2E2E2E2E2E2E2E2E2E2E2E2E2E2E2E2E2E2E2E2E2E2E2E2E2E2E2E2E2E2E2E2E2E2E2E2E2E2E2E2E2E2E2E2E2E2E2E2E2E2E2E2E2E2E2E2E2E2E2E2E2E2E2E2E2E2E2E2E2E2E2E2E2DCE2E2BEE2E2
310
E2E2E2E2E2E2E2E2E2E2E2E2E2E2E2E2E2E2E2E2E2E2E2E2E2E2E2E2E2E2E2E2E2E2E2E2E2E2E2E2E2E2E2E2E2E2E2E2E2E2E2E2E2E2E2E2E2E2E2E2E2E2E2E2E2E2E2E2BEE2E2DCE2E2E2E2E2E2E2E2E2E2E2E2E2E2E2E2E2E2E2E2E2E2E2E2E2E2E2E2E2E2E2E2E2E2E2E2E2E2E2E2E2E2E2E2E2E2E2E2E2E2E2E2E2E2E2
310
E2E2E2E2E2E2E2E2E2E2E2E2E2E2E2E2E2E2E2E2E2E2E2E2E2E2E2E2E2E2E2E2E2E2E2E2E2E2E2E2E2E2E2E2E2E2E2E2E2E2E2E2E2E2E2E2E2E2E2E2E2E2E2E2E2E2E2E2E2E2E2E2E2E2E2E2E2E2E2E2E2E2E2E2E2E2E2E2E2E2E2E2E2E2E2E2E2E2E2E2E2E2E2E2E2E2E2E2E2E2E2E2E2E2E2E2E2E2E2E2E2E2E2DCE2E2BE
310
E2E2E2E2E2E2E2E2E2E2E2E2E2E2E2E2E2E2E2E2E2E2E2E2E2E2E2E2E2E2E2E2E2E2E2E2E2E2E2E2E2E2E2E2E2E2E2E2E2E2E2E2E2E2E2E2E2E2E2E2E2E2E2E2E2E2E2E2E2E2BEE2E2DCE2E2E2E2E2E2E2E2E2E2E2E2E2E2E2E2E2E2E2E2E2E2E2E2E2E2E2E2E2E2E2E2E2E2E2E2E2E2E2E2E2E2E2E2E2E2E2E2E2E2E2E2E2
310
E2E2E2E2E2E2E2E2E2E2E2E2E2E2E2E2E2E2E2E2E2E2E2E2E2E2E2E2E2E2E2E2E2E2E2E2E2E2E2E2E2E2E2E2E2E2E2E2E2E2E2E2E2E2E2E2E2E2E2E2E2E2E22D2DE2E22D2DE2E2E2E2E2E2E2E2E2E2E2E2E2E2E2E2E2E2E2E2E2E2E2E2E2E2E2E2E2E2E2E2E2E2E2E2E2E2E2E2E2E2E2E2E2E2E2E2E2E2E2E2E2E2E2E2DCE2
310
E2BEE2E2E2E2E2E2E2E2E2E2E2E2E2E2E2E2E2E2E2E2E2E2E2E2E2E2E2E2E2E2E2E2E2E2E2E2E2E2E2E2E2E2E2E2E2E2E2E2E2E2E2E2E2E2E2E2E2E2E2E2E2E2E2E2E2E2E2E2E2E2BEE2E2DCE2E2E2E2E2E2E2E2E2E2E2E2E2E2E2E2E2E2E2E2E2E2E2E2E2E2E2E2E2E2E2E2E2E2E2E2E2E2E2E2E2E2E2E2E2E2E2E2E2E2E2
310
E2E2E2E2E2E2E2E2E2E2E2E2E2E2E2E2E2E2E2E2E2E2E2E2E2E2E2E2E2E2E2E2E2E2E2E2E2E2E2E2E2E2E2E2E2E2E2E2E2E2E2E2E2E2E2E2E2E2E2E2E2E2E2E2E2F5BEBEBEBE2DE2E2E2E2E2E2E2E2E2E2E2E2E2E2E2E2E2E2E2E2E2E2E2E2E2E2E2E2E2E2E2E2E2E2E2E2E2E2E2E2E2E2E2E2E2E2E2E2E2E2E2E2E2E2E2E2
310
DCE2E2BEE2E2E2E2E2E2E2E2E2E2E2E2E2E2E2E2E2E2E2E2E2E2E2E2E2E2E2E2E2E2E2E2E2E2E2E2E2E2E2E2E2E2E2E2E2E2E2E2E2E2E2E2E2E2E2E2E2E2E2E2E2E2E2E2E2E2E2E2E2E2BEE2E2DCE2E2E2E2E2E2E2E2E2E2E2E2E2E2E2E2E2E2E2E2E2E2E2E2E2E2E2E2E2E2E2E2E2E2E2E2E2E2E2E2E2E2E2E2E2E2E2E2E2
310
E2E2E2E2E2E2E2E2E2E2E2E2E2E2E2E2E2E2E2E2E2E2E2E2E2E2E2E2E2E2E2E2E2E2E2E2E2E2E2E2E2E2E2E2E2E2E2E2E2E2E2E2E2E2E2E2E2E2E2E2E2E2E2E2E2E2E22DBEBEBEBE2DE2E2E2E2E2E2E2E2E2E2E2E2E2E2E2E2E2E2E2E2E2E2E2E2E2E2E2E2E2E2E2E2E2E2E2E2E2E2E2E2E2E2E2E2E2E2E2E2E2E2E2E2E2E2
310
E2E2DCE2E2BEE2E2E2E2E2E2E2E2E2E2E2E2E2E2E2E2E2E2E2E2E2E2E2E2E2E2E2E2E2E2E2E2E2E2E2E2E2E2E2E2E2E2E2E2E2E2E2E2E2E2E2E2E2E2E2E2E2E2E2E2E2E2E2E2E2E2E2E2E2E2BEE2E2DCE2E2E2E2E2E2E2E2E2E2E2E2E2E2E2E2E2E2E2E2E2E2E2E2E2E2E2E2E2E2E2E2E2E2E2E2E2E2E2E2E2E2E2E2E2E2E2
310
E2E2E2E2E2E2E2E2E2E2E2E2E2E2E2E2E2E2E2E2E2E2E2E2E2E2E2E2E2E2E2E2E2E2E2E2E2E2E2E2E2E2E2E2E2E2E2E2E2E2E2E2E2E2E2E2E2E2E2E2E2E2E2E2E2E2E2E2E22DE2E2E2E22DE2E2E2E2E2E2E2E2E2E2E2E2E2E2E2E2E2E2E2E2E2E2E2E2E2E2E2E2E2E2E2E2E2E2E2E2E2E2E2E2E2E2E2E2E2E2E2E2E2E2E2E2
310
E2E2E2E2DCE2E2BEE2E2E2E2E2E2E2E2E2E2E2E2E2E2E2E2E2E2E2E2E2E2E2E2E2E2E2E2E2E2E2E2E2E2E2E2E2E2E2E2E2E2E2E2E2E2E2E2E2E2E2E2E2E2E2E2E2E2E2E2E2E2E2E2E2E2E2E2E2E2BEE2E2DCE2E2E2E2E2E2E2E2E2E2E2E2E2E2E2E2E2E2E2E2E2E2E2E2E2E2E2E2E2E2E2E2E2E2E2E2E2E2E2E2E2E2E2E2E2
310
E2E2E2E2E2E2E2E2E2E2E2E2E2E2E2E2E2E2E2E2E2E2E2E2E2E2E2E2E2E2E2E2E2E2E2E2E2E2E2E2E2E2E2E2E2E2E2E2E2E2E2E2E2E2E2E2E2E2E2E2E2E2E2E2E2E2E2E2E2E2E22DE2E2E2E22DE2E2E2E2E2E2E2E2E2E2E2E2E2E2E2E2E2E2E2E2E2E2E2E2E2E2E2E2E2E2E2E2E2E2E2E2E2E2E2E2E2E2E2E2E2E2E2E2E2E2
310
E2E2E2E2E2E2DCE2E2BEE2E2E2E2E2E2E2E2E2E2E2E2E2E2E2E2E2E2E2E2E2E2E2E2E2E2E2E2E2E2E2E2E2E2E2E2E2E2E2E2E2E2E2E2E2E2E2E2E2E2E2E2E2E2E2E2E2E2E2E2E2E2E2E2E2E2E2E2E2E2BEE2E2DCE2E2E2E2E2E2E2E2E2E2E2E2E2E2E2E2E2E2E2E2E2E2E2E2E2E2E2E2E2E2E2E2E2E2E2E2E2E2E2E2E2E2E2
310
E2E2E2E2E2E2E2E2E2E2E2E2E2E2E2E2E2E2E2E2E2E2E2E2E2E2F52D2D2D2D2D2D2D2D2D2D2D2D2D2D2D2D2D2D2D2D2D2D2D2D2D2D2D2D2D2D2D2D2D2D2D2D2D2D2D2D2D2D2D2D2D2D2D2D2D2DF5F5E2E2E2E2E2E2E2E2E2E2E2E2E2E2E2E2E2E2E2E2E2E2E2E2E2E2E2E2E2E2E2E2E2E2E2E2E2E2E2E2E2E2E2E2E2E2E2E2
310
E2E2E2E2E2E2E2E2DCE2E2BEE2E2E2E2E2E2E2E2E2E2E2E2E2E2E2E2E2E2E2E2E2E2E2E2E2E2E2E2E2E2E2E2E2E2E2E2E2E2E2E2E2E2E2E2E2E2E2E2E2E2E2E2E2E2E2E2E2E2E2E2E2E2E2E2E2E2E2E2E2E2BEE2E2DCE2E2E2E2E2E2E2E2E2E2E2E2E2E2E2E2E2E2E2E2E2E2E2E2E2E2E2E2E2E2E2E2E2E2E2E2E2E2E2E2E2
310
E2E2E2E2E2E2E2E2E2E2E2E2E2E2E2E2E2E2E2E2E2E2E2E2E2E2E2E22D2DE22DF52D2D2D2D2D2D2D2D2D2D2D2D2D2D2D2D2D2D2D2D2D2D2D2D2D2D2D2D2D2D2D2D2D2D2D2D2D2D2D2D2D2D2D2D2D2DF5BEE2E2E2E2E2E2E2E2E2E2E2E2E2E2E2E2E2E2E2E2E2E2E2E2E2E2E2E2E2E2E2E2E2E2E2E2E2E2E2E2E2E2E2E2E2E2
310
E2E2E2E2E2E2E2E2E2E2DCE2E2BEE2E2E2E2E2E2E2E2E2E2E2E2E2E2E2E2E2E2E2E2E2E2E2E2E2E2E2E2E2E2E2E2E2E2E2E2E2E2E2E2E2E2E2E2E2E2E2E2E2E2E2E2E2E2E2E2E2E2E2E2E2E2E2E2E2E2E2E2E2E2BEE2E2DCE2E2E2E2E2E2E2E2E2E2E2E2E2E2E2E2E2E2E2E2E2E2E2E2E2E2E2E2E2E2E2E2E2E2E2E2E2E2E2
310
E2E2E2E2E2E2E2E2E2E2E2E2E2E2E2E2E2E2E2E2E2E2E2E2E2E2E2E2E2E22DE2E2E22DE2E2E2E2E2E2E2E2E2E2E2E2E2E2E2E2E2E2E2E2E2E2E2E2E2E2E2E2E2E2E2E2E2E2E2E2E2E2E2E2E2E22DF5F5F5F5F5E2E2E2E2E2E2E2E2E2E2E2E2E2E2E2E2E2E2E2E2E2E2E2E2E2E2E2E2E2E2E2E2E2E2E2E2E2E2E2E2E2E2E2E2
310
E2E2E2E2E2E2E2E2E2E2E2E2DCE2E2BEE2E2E2E2E2E2E2E2E2E2E2E2E2E2E2E2E2E2E2E2E2E2E2E2E2E2E2E2E2E2E2E2E2E2E2E2E2E2E2E2E2E2E2E2E2E2E2E2E2E2E2E2E2E2E2E2E2E2E2E2E2E2E2E2E2E2E2E2E2E2BEE2E2DCE2E2E2E2E2E2E2E2E2E2E2E2E2E2E2E2E2E2E2E2E2E2E2E2E2E2E2E2E2E2E2E2E2E2E2E2E2
310
E2E2E2E2E2E2E2E2E2E2E2E2E2E2E2E2E2E2E2E2E2E2E2E2E2E2E2E2E2E2E2E22DE2E2E22DE2E2E2E2E2E2E2E2E2E2E2E2E2E2E2E2E2E2E2E2E2E2E2E2E2E2E2E2E2E2E2E2E2E2E2E2E2E2E2E2E2E22DF5F5F5F5F5E2E2E2E2E2E2E2E2E2E2E2E2E2E2E2E2E2E2E2E2E2E2E2E2E2E2E2E2E2E2E2E2E2E2E2E2E2E2E2E2E2E2
310
E2E2E2E2E2E2E2E2E2E2E2E2E2E2DCE2E2BEE2E2E2E2E2E2E2E2E2E2E2E2E2E2E2E2E2E2E2E2E2E2E2E2E2E2E2E2E2E2E2E2E2E2E2E2E2E2E2E2E2E2E2E2E2E2E2E2E2E2E2E2E2E2E2E2E2E2E2E2E2E2E2E2E2E2E2E2E2E2BEE2E2DCE2E2E2E2E2E2E2E2E2E2E2E2E2E2E2E2E2E2E2E2E2E2E2E2E2E2E2E2E2E2E2E2E2E2E2
310
E2E2E2E2E2E2E2E2E2E2E2E2E2E2E2E2E2E2E2E2E2E2E2E2E2E2E2E2E2E2E2E2E2E22DE2E2E22DE2E2E2E2E2E2E2E2E2E2E2E2E2E2E2E2E2E2E2E2E2E2E2E2E2E2E2E2E2E2E2E2E2E2E2E2E2E2E2E2E2E22DBEF5E2E2E2E2E2E2E2E2E2E2E2E2E2E2E2E2E2E2E2E2E2E2E2E2E2E2E2E2E2E2E2E2E2E2E2E2E2E2E2E2E2E2E2
310
E2E2E2E2E2E2E2E2E2E2E2E2E2E2E2E2DCE2E2BEE2E2E2E2E2E2E2E2E2E2E2E2E2E2E2E2E2E2E2E2E2E2E2E2E2E2E2E2E2E2E2E2E2E2E2E2E2E2E2E2E2E2E2E2E2E2E2E2E2E2E2E2E2E2E2E2E2E2E2E2E2E2E2E2E2E2E2E2E2E2BEE2E2DCE2E2E2E2E2E2E2E2E2E2E2E2E2E2E2E2E2E2E2E2E2E2E2E2E2E2E2E2E2E2E2E2E2
310
E2E2E2E2E2E2E2E2E2E2E2E2E2E2E2E2E2E2E2E2E2E2E2E2E2E2E2E2E2E2E2E2E2E2E2E22DE2E2E22DE2E2E2E2E2E2E2E2E2E2E2E2E2E2E2E2E2E2E2E2E2E2E2E2E2E2E2E2E2E2E2E2E2E2E2E2E2E2E2E2E2E2F5BEF5E2E2E2E2E2E2E2E2E2E2E2E2E2E2E2E2E2E2E2E2E2E2E2E2E2E2E2E2E2E2E2E2E2E2E2E2E2E2E2E2E2
310
E2E2E2E2E2E2E2E2E2E2E2E2E2E2E2E2E2E2DCE2E2BEE2E2E2E2E2E2E2E2E2E2E2E2E2E2E2E2E2E2E2E2E2E2E2E2E2E2E2E2E2E2E2E2E2E2E2E2E2E2E2E2E2E2E2E2E2E2E2E2E2E2E2E2E2E2E2E2E2E2E2E2E2E2E2E2E2E2E2E2E2E2BEE2E2DCE2E2E2E2E2E2E2E2E2E2E2E2E2E2E2E2E2E2E2E2E2E2E2E2E2E2E2E2E2E2E2
310
E2E2E2E2E2E2E2E2E2E2E2E2E2E2E2E2E2E2E2E2E2E2E2E2E2E2E2E2E2E2E2E2E2E2E2E2E2E22DE2E2E22DE2E2E2E2E2E2E2E2E2E2E2E2E2E2E2E2E2E2E2E2E2E2E2E2E2E2E2E2E2E2E2E2E2E2E2E2E2E2E2E2E2E2F5BEF5E2E2E2E2E2E2E2E2E2E2E2E2E2E2E2E2E2E2E2E2E2E2E2E2E2E2E2E2E2E2E2E2E2E2E2E2E2E2E2
310
E2E2E2E2E2E2E2E2E2E2E2E2E2E2E2E2E2E2E2E2DCE2E2BEE2E2E2E2E2E2E2E2E2E2E2E2E2E2E2E2E2E2E2E2E2E2E2E2E2E2E2E2E2E2E2E2E2E2E2E2E2E2E2E2E2E2E2E2E2E2E2E2E2E2E2E2E2E2E2E2E2E2E2E2E2E2E2E2E2E2E2E2E2E2BEE2E2DCE2E2E2E2E2E2E2E2E2E2E2E2E2E2E2E2E2E2E2E2E2E2E2E2E2E2E2E2E2
310
E2E2E2E2E2E2E2E2E2E2E2E2E2E2E2E2E2E2E2E2E2E2E2E2E2E2E2E2E2E2E2E2E2E2E2E2E2E2E2E22DE2E2E22DE2E2E2E2E2E2E2E2E2E2E2E2E2E2E2E2E2E2E2E2E2E2E2E2E2E2E2E2E2E2E2E2E2E2E2E2E2E2E2E2E2E2F5BEF5E2E2E2E2E2E2E2E2E2E2E2E2E2E2E2E2E2E2E2E2E2E2E2E2E2E2E2E2E2E2E2E2E2E2E2E2E2
310
E2E2E2E2E2E2E2E2E2E2E2E2E2E2E2E2E2E2E2E2E2E2DCE2E2BEE2E2E2E2E2E2E2E2E2E2E2E2E2E2E2E2E2E2E2E2E2E2E2E2E2E2E2E2E2E2E2E2E2E2E2E2E2E2E2E2E2E2E2E2E2E2E2E2E2E2E2E2E2E2E2E2E2E2E2E2E2E2E2E2E2E2E2E2E2E2BEE2E2DCE2E2E2E2E2E2E2E2E2E2E2E2E2E2E2E2E2E2E2E2E2E2E2E2E2E2E2
310
E2E2E2E2E2E2E2E2E2E2E2E2E2E2E2E2E2E2E2E2E2E2E2E2E2E2E2E2E2E2E2E2E2E2E2E2E2E2E2E2E2E22DE2E2E22DE2E2E2E2E2E2E2E2E2E2E2E2E2E2E2E2E2E2E2E2E2E2E2E2E2E2E2E2E2E2E2E2E2E2E2E2E2E2E2E2E2E2F5BEF5E2E2E2E2E2E2E2E2E2E2E2E2E2E2E2E2E2E2E2E2E2E2E2E2E2E2E2E2E2E2E2E2E2E2E2
310
E2E2E2E2E2E2E2E2E2E2E2E2E2E2E2E2E2E2E2E2E2E2E2E2DCE2E2BEE2E2E2E2E2E2E2E2E2E2E2E2E2E2E2E2E2E2E2E2E2E2E2E2E2E2E2E2E2E2E2E2E2E2E2E2E2E2E2E2E2E2E2E2E2E2E2E2E2E2E2E2E2E2E2E2E2E2E2E2E2E2E2E2E2E2E2E2E2E2BEE2E2DCE2E2E2E2E2E2E2E2E2E2E2E2E2E2E2E2E2E2E2E2E2E2E2E2E2
310
E2E2E2E2E2E2E2E2E2E2E2E2E2E2E2E2E2E2E2E2E2E2E2E2E2E2E2E2E2E2E2E2E2E2E2E2E2E2E2E2E2E2E2E22DE2E2E22DE2E2E2E2E2E2E2E2E2E2E2E2E2E2E2E2E2E2E2E2E2E2E2E2E2E2E2E2E2E2E2E2E2E2E2E2E2E2E2E2E2E2F5BEF5E2E2E2E2E2E2E2E2E2E2E2E2E2E2E2E2E2E2E2E2E2E2E2E2E2E2E2E2E2E2E2E2E2
310
E2E2E2E2E2E2E2E2E2E2E2E2E2E2E2E2E2E2E2E2E2E2E2E2E2E2DCE2E2BEE2E2E2E2E2E2E2E2E2E2E2E2E2E2E2E2E2E2E2E2E2E2E2E2E2E2E2E2E2E2E2E2E2E2E2E2E2E2E2E2E2E2E2E2E2E2E2E2E2E2E2E2E2E2E2E2E2E2E2E2E2E2E2E2E2E2E2E2E2E2BEE2E2DCE2E2E2E2E2E2E2E2E2E2E2E2E2E2E2E2E2E2E2E2E2E2E2
310
E2E2E2E2E2E2E2E2E2E2E2E2E2E2E2E2E2E2E2E2E2E2E2E2E2E2E2E2E2E2E2E2E2E2E2E2E2E2E2E2E2E2E2E2E2E22DE2E2E22DE2E2E2E2E2E2E2E2E2E2E2E2E2E2E2E2E2E2E2E2E2E2E2E2E2E2E2E2E2E2E2E2E2E2E2E2E2E2E2E2E2E2F5BEF5E2E2E2E2E2E2E2E2E2E2E2E2E2E2E2E2E2E2E2E2E2E2E2E2E2E2E2E2E2E2E2
310
E2E2E2E2E2E2E2E2E2E2E2E2E2E2E2E2E2E2E2E2E2E2E2E2E2E2E2E2DCE2E2BEE2E2E2E2E2E2E2E2E2E2E2E2E2E2E2E2E2E2E2E2E2E2E2E2E2E2E2E2E2E2E2E2E2E2E2E2E2E2E2E2E2E2E2E2E2E2E2E2E2E2E2E2E2E2E2E2E2E2E2E2E2E2E2E2E2E2E2E2E2E2BEE2E2DCE2E2E2E2E2E2E2E2E2E2E2E2E2E2E2E2E2E2E2E2E2
310
E2E2E2E2E2E2E2E2E2E2E2E2E2E2E2E2E2E2E2E2E2E2E2E2E2E2E2E2E2E2E2E2E2E2E2E2E2E2E2E2E2E2E2E2E2E2E2E22DE2E2E22DE2E2E2E2E2E2E2E2E2E2E2E2E2E2E2E2E2E2E2E2E2E2E2E2E2E2E2E2E2E2E2E2E2E2E2E2E2E2E2E2E2E2F5BEF5E2E2E2E2E2E2E2E2E2E2E2E2E2E2E2E2E2E2E2E2E2E2E2E2E2E2E2E2E2
310
E2E2E2E2E2E2E2E2E2E2E2E2E2E2E2E2E2E2E2E2E2E2E2E2E2E2E2E2E2E2DCE2E2BEE2E2E2E2E2E2E2E2E2E2E2E2E2E2E2E2E2E2E2E2E2E2E2E2E2E2E2E2E2E2E2E2E2E2E2E2E2E2E2E2E2E2E2E2E2E2E2E2E2E2E2E2E2E2E2E2E2E2E2E2E2E2E2E2E2E2E2E2E2E2BEE2E2DCE2E2E2E2E2E2E2E2E2E2E2E2E2E2E2E2E2E2E2
310
E2E2E2E2E2E2E2E2E2E2E2E2E2E2E2E2E2E2E2E2E2E2E2E2E2E2E2E2E2E2E2E2E2E2E2E2E2E2E2E2E2E2E2E2E2E2E2E2E2E22DE2E2E22DE2E2E2E2E2E2E2E2E2E2E2E2E2E2E2E2E2E2E2E2E2E2E2E2E2E2E2E2E2E2E2E2E2E2E2E2E2E2E2E2E2E2F5BEF5E2E2E2E2E2E2E2E2E2E2E2E2E2E2E2E2E2E2E2E2E2E2E2E2E2E2E2
310
E2E2E2E2E2E2E2E2E2E2E2E2E2E2E2E2E2E2E2E2E2E2E2E2E2E2E2E2E2E2E2E2DCE2E2BEE2E2E2E2E2E2E2E2E2E2E2E2E2E2E2E2E2E2E2E2E2E2E2E2E2E2E2E2E2E2E2E2E2E2E2E2E2E2E2E2E2E2E2E2E2E2E2E2E2E2E2E2E2E2E2E2E2E2E2E2E2E2E2E2E2E2E2E2E2E2BEE2E2DCE2E2E2E2E2E2E2E2E2E2E2E2E2E2E2E2E2
310
E2E2E2E2E2E2E2E2E2E2E2E2E2E2E2E2E2E2E2E2E2E2E2E2E2E2E2E2E2E2E2E2E2E2E2E2E2E2E2E2E2E2E2E2E2E2E2E2E2E2E2E22DE2E2E22DE2E2E2E2E2E2E2E2E2E2E2E2E2E2E2E2E2E2E2E2E2E2E2E2E2E2E2E2E2E2E2E2E2E2E2E2E2E2E2E2E2E2F5BEF5E2E2E2E2E2E2E2E2E2E2E2E2E2E2E2E2E2E2E2E2E2E2E2E2E2
310
E2E2E2E2E2E2E2E2E2E2E2E2E2E2E2E2E2E2E2E2E2E2E2E2E2E2E2E2E2E2E2E2E2E2DCE2E2BEE2E2E2E2E2E2E2E2E2E2E2E2E2E2E2E2E2E2E2E2E2E2E2E2E2E2E2E2E2E2E2E2E2E2E2E2E2E2E2E2E2E2E2E2E2E2E2E2E2E2E2E2E2E2E2E2E2E2E2E2E2E2E2E2E2E2E2E2E2E2BEE2E2DCE2E2E2E2E2E2E2E2E2E2E2E2E2E2E2
310
E2E2E2E2E2E2E2E2E2E2E2E2E2E2E2E2E2E2E2E2E2E2E2E2E2E2E2E2E2E2E2E2E2E2E2E2E2E2E2E2E2E2E2E2E2E2E2E2E2E2E2E2E2E22DE2E2E22DE2E2E2E2E2E2E2E2E2E2E2E2E2E2E2E2E2E2E2E2E2E2E2E2E2E2E2E2E2E2E2E2E2E2E2E2E2E2E2E2E2E2F5BEF5E2E2E2E2E2E2E2E2E2E2E2E2E2E2E2E2E2E2E2E2E2E2E2
310
E2E2E2E2E2E2E2E2E2E2E2E2E2E2E2E2E2E2E2E2E2E2E2E2E2E2E2E2E2E2E2E2E2E2E2E2DCE2E2BEE2E2E2E2E2E2E2E2E2E2E2E2E2E2E2E2E2E2E2E2E2E2E2E2E2E2E2E2E2E2E2E2E2E2E2E2E2E2E2E2E2E2E2E2E2E2E2E2E2E2E2E2E2E2E2E2E2E2E2E2E2E2E2E2E2E2E2E2E2E2BEE2E2DCE2E2E2E2E2E2E2E2E2E2E2E2E2
310
E2E2E2E2E2E2E2E2E2E2E2E2E2E2E2E2E2E2E2E2E2E2E2E2E2E2E2E2E2E2E2E2E2E2E2E2E2E2E2E2E2E2E2E2E2E2E2E2E2E2E2E2E2E2E2E22DE2E2E22DE2E2E2E2E2E2E2E2E2E2E2E2E2E2E2E2E2E2E2E2E2E2E2E2E2E2E2E2E2E2E2E2E2E2E2E2E2E2E2E2E2E2F5BEF5E2E2E2E2E2E2E2E2E2E2E2E2E2E2E2E2E2E2E2E2E2
310
E2E2E2E2E2E2E2E2E2E2E2E2E2E2E2E2E2E2E2E2E2E2E2E2E2E2E2E2E2E2E2E2E2E2E2E2E2E2DCE2E2BEE2E2E2E2E2E2E2E2E2E2E2E2E2E2E2E2E2E2E2E2E2E2E2E2E2E2E2E2E2E2E2E2E2E2E2E2E2E2E2E2E2E2E2E2E2E2E2E2E2E2E2E2E2E2E2E2E2E2E2E2E2E2E2E2E2E2E2E2E2E2BEE2E2DCE2E2E2E2E2E2E2E2E2E2E2
310
E2E2E2E2E2E2E2E2E2E2E2E2E2E2E2E2E2E2E2E2E2E2E2E2E2E2E2E2E2E2E2E2E2E2E2E2E2E2E2E2E2E2E2E2E2E2E2E2E2E2E2E2E2E2E2E2E2E22DE2E2E22DE2E2E2E2E2E2E2E2E2E2E2E2E2E2E2E2E2E2E2E2E2E2E2E2E2E2E2E2E2E2E2E2E2E2E2E2E2E2E2E2E2E2F5BEF5E2E2E2E2E2E2E2E2E2E2E2E2E2E2E2E2E2E2E2
310
E2E2E2E2E2E2E2E2E2E2E2E2E2E2E2E2E2E2E2E2E2E2E2E2E2E2E2E2E2E2E2E2E2E2E2E2E2E2E2E2DCE2E2BEE2E2E2E2E2E2E2E2E2E2E2E2E2E2E2E2E2E2E2E2E2E2E2E2E2E2E2E2E2E2E2E2E2E2E2E2E2E2E2E2E2E2E2E2E2E2E2E2E2E2E2E2E2E2E2E2E2E2E2E2E2E2E2E2E2E2E2E2E2E2BEE2E2DCE2E2E2E2E2E2E2E2E2
310
E2E2E2E2E2E2E2E2E2E2E2E2E2E2E2E2E2E2E2E2E2E2E2E2E2E2E2E2E2E2E2E2E2E2E2E2E2E2E2E2E2E2E2E2E2E2E2E2E2E2E2E2E2E2E2E2E2E2E2E22DE2E2E22DE2E2E2E2E2E2E2E2E2E2E2E2E2E2E2E2E2E2E2E2E2E2E2E2E2E2E2E2E2E2E2E2E2E2E2E2E2E2E2E2E2E2F5BEF5E2E2E2E2E2E2E2E2E2E2E2E2E2E2E2E2E2
310
E2E2E2E2E2E2E2E2E2E2E2E2E2E2E2E2E2E2E2E2E2E2E2E2E2E2E2E2E2E2E2E2E2E2E2E2E2E2E2E2E2E2DCE2E2BEE2E2E2E2E2E2E2E2E2E2E2E2E2E2E2E2E2E2E2E2E2E2E2E2E2E2E2E2E2E2E2E2E2E2E2E2E2E2E2E2E2E2E2E2E2E2E2E2E2E2E2E2E2E2E2E2E2E2E2E2E2E2E2E2E2E2E2E2E2E2BEE2E2DCE2E2E2E2E2E2E2
310
E2E2E2E2E2E2E2E2E2E2E2E2E2E2E2E2E2E2E2E2E2E2E2E2E2E2E2E2E2E2E2E2E2E2E2E2E2E2E2E2E2E2E2E2E2E2E2E2E2E2E2E2E2E2E2E2E2E2E2E2E2E22DE2E2E22DE2E2E2E2E2E2E2E2E2E2E2E2E2E2E2E2E2E2E2E2E2E2E2E2E2E2E2E2E2E2E2E2E2E2E2E2E2E2E2E2E2E2F5BEF5E2E2E2E2E2E2E2E2E2E2E2E2E2E2E2
310
E2E2E2E2E2E2E2E2E2E2E2E2E2E2E2E2E2E2E2E2E2E2E2E2E2E2E2E2E2E2E2E2E2E2E2E2E2E2E2E2E2E2E2E2DCE2E2BEE2E2E2E2E2E2E2E2E2E2E2E2E2E2E2E2E2E2E2E2E2E2E2E2E2E2E2E2E2E2E2E2E2E2E2E2E2E2E2E2E2E2E2E2E2E2E2E2E2E2E2E2E2E2E2E2E2E2E2E2E2E2E2E2E2E2E2E2E2E2BEE2E2DCE2E2E2E2E2
310
E2E2E2E2E2E2E2E2E2E2E2E2E2E2E2E2E2E2E2E2E2E2E2E2E2E2E2E2E2E2E2E2E2E2E2E2E2E2E2E2E2E2E2E2E2E2E2E2E2E2E2E2E2E2E2E2E2E2E2E2E2E2E2BEBEE2E2E22DE2E2E2E2E2E2E2E2E2E2E2E2E2E2E2E2E2E2E2E2E2E2E2E2E2E2E2E2E2E2E2E2E2E2E2E2E2E2E2E2E2E2F5BEF5E2E2E2E2E2E2E2E2E2E2E2E2E2
310
E2E2E2E2E2E2E2E2E2E2E2E2E2E2E2E2E2E2E2E2E2E2E2E2E2E2E2E2E2E2E2E2E2E2E2E2E2E2E2E2E2E2E2E2E2E2DCE2E2BEE2E2E2E2E2E2E2E2E2E2E2E2E2E2E2E2E2E2E2E2E2E2E2E2E2E2E2E2E2E2E2E2E2E2E2E2E2E2E2E2E2E2E2E2E2E2E2E2E2E2E2E2E2E2E2E2E2E2E2E2E2E2E2E2E2E2E2E2E2E2BEE2E2DCE2E2E2
310
E2E2E2E2E2E2E2E2E2E2E2E2E2E2E2E2E2E2E2E2E2E2E2E2E2E2E2E2E2E2E2E2E2E2E2E2E2E2E2E2E2E2E2E2E2E2E2E2E2E2E2E2E2E2E2E2E2E2E2E2E2E2E2E2E2BEBEE2BEBE2DE2E2E2E2E2E2E2E2E2E2E2E2E2E2E2E2E2E2E2E2E2E2E2E2E2E2E2E2E2E2E2E2E2E2E2E2E2E2E2E2E2E2F5BEF5E2E2E2E2E2E2E2E2E2E2E2
310
E2E2E2E2E2E2E2E2E2E2E2E2E2E2E2E2E2E2E2E2E2E2E2E2E2E2E2E2E2E2E2E2E2E2E2E2E2E2E2E2E2E2E2E2E2E2E2E2DCE2E2BEE2E2E2E2E2E2E2E2E2E2E2E2E2E2E2E2E2E2E2E2E2E2E2E2E2E2E2E2E2E2E2E2E2E2E2E2E2E2E2E2E2E2E2E2E2E2E2E2E2E2E2E2E2E2E2E2E2E2E2E2E2E2E2E2E2E2E2E2E2E2BEE2E2DCE2
310
E2E2E2E2E2E2E2E2E2E2E2E2E2E2E2E2E2E2E2E2E2E2E2E2E2E2E2E2E2E2E2E2E2E2E2E2E2E2E2E2E2E2E2E2E2E2E2E2E2E2E2E2E2E2E2E2E2E2E2E2E2E2E2E2E2E2E2BEBEE2BEBE2DE2E2E2E2E2E2E2E2E2E2E2E2E2E2E2E2E2E2E2E2E2E2E2E2E2E2E2E2E2E2E2E2E2E2E2E2E2E2E2E2E2E2F5BEF5E2E2E2E2E2E2E2E2E2
310
E2E2E2E2E2E2E2E2E2E2E2E2E2E2E2E2E2E2E2E2E2E2E2E2E2E2E2E2E2E2E2E2E2E2E2E2E2E2E2E2E2E2E2E2E2E2E2E2E2E2DCE2E2BEE2E2E2E2E2E2E2E2E2E2E2E2E2E2E2E2E2E2E2E2E2E2E2E2E2E2E2E2E2E2E2E2E2E2E2E2E2E2E2E2E2E2E2E2E2E2E2E2E2E2E2E2E2E2E2E2E2E2E2E2E2E2E2E2E2E2E2E2E2E2BEE2E2
310
DCE2E2E2E2E2E2E2E2E2E2E2E2E2E2E2E2E2E2E2E2E2E2E2E2E2E2E2E2E2E2E2E2E2E2E2E2E2E2E2E2E2E2E2E2E2E2E2E2E2E2E2E2E2E2E2E2E2E2E2E2E2E2E2E2E2E2E2E2BE2DE2BEBE2DE2E2E2E2E2E2E2E2E2E2E2E2E2E2E2E2E2E2E2E2E2E2E2E2E2E2E2E2E2E2E2E2E2E2E2E2E2E2E2E2E2E2F5BEF5E2E2E2E2E2E2E2
310
E2E2E2E2E2E2E2E2E2E2E2E2E2E2E2E2E2E2E2E2E2E2E2E2E2E2E2E2E2E2E2E2E2E2E2E2E2E2E2E2E2E2E2E2E2E2E2E2E2E2E2E2DCE2E2BEE2E2E2E2E2E2E2E2E2E2E2E2E2E2E2E2E2E2E2E2E2E2E2E2E2E2E2E2E2E2E2E2E2E2E2E2E2E2E2E2E2E2E2E2E2E2E2E2E2E2E2E2E2E2E2E2E2E2E2E2E2E2E2E2E2E2E2E2E2E2BE
310
E2E2DCE2E2E2E2E2E2E2E2E2E2E2E2E2E2E2E2E2E2E2E2E2E2E2E2E2E2E2E2E2E2E2E2E2E2E2E2E2E2E2E2E2E2E2E2E2E2E2E2E2E2E2E2E2E2E2E2E2E2E2E2E2E2E2E2E2E2E2BEBE2DE2BEBE2DE2E2E2E2E2E2E2E2E2E2E2E2E2E2E2E2E2E2E2E2E2E2E2E2E2E2E2E2E2E2E2E2E2E2E2E2E2E2E2E2E2E2F5BEF5E2E2E2E2E2
310
E2E2E2E2E2E2E2E2E2E2E2E2E2E2E2E2E2E2E2E2E2E2E2E2E2E2E2E2E2E2E2E2E2E2E2E2E2E2E2E2E2E2E2E2E2E2E2E2E2E2E2E2E2E2DCE2E2BEE2E2E2E2E2E2E2E2E2E2E2E2E2E2E2E2E2E2E2E2E2E2E2E2E2E2E2E2E2E2E2E2E2E2E2E2E2E2E2E2E2E2E2E2E2E2E2E2E2E2E2E2E2E2E2E2E2E2E2E2E2E2E2E2E2E2E2E2E2
310
E2BEE2E2DCE2E2E2E2E2E2E2E2E2E2E2E2E2E2E2E2E2E2E2E2E2E2E2E2E2E2E2E2E2E2E2E2E2E2E2E2E2E2E2E2E2E2E2E2E2E2E2E2E2E2E2E2E2E2E2E2E2E2E2E2E2E2E2E2E2E2E2BEBEBEE2BEBE2DE2E2E2E2E2E2E2E2E2E2E2E2E2E2E2E2E2E2E2E2E2E2E2E2E2E2E2E2E2E2E2E2E2E2E2E2E2E2E2E2E2E2F5BEF5E2E2E2
310
E2E2E2E2E2E2E2E2E2E2E2E2E2E2E2E2E2E2E2E2E2E2E2E2E2E2E2E2E2E2E2E2E2E2E2E2E2E2E2E2E2E2E2E2E2E2E2E2E2E2E2E2E2E2E2E2DCE2E2BEE2E2E2E2E2E2E2E2E2E2E2E2E2E2E2E2E2E2E2E2E2E2E2E2E2E2E2E2E2E2E2E2E2E2E2E2E2E2E2E2E2E2E2E2E2E2E2E2E2E2E2E2E2E2E2E2E2E2E2E2E2E2E2E2E2E2E2
310
E2E2E2BEE2E2DCE2E2E2E2E2E2E2E2E2E2E2E2E2E2E2E2E2E2E2E2E2E2E2E2E2E2E2E2E2E2E2E2E2E2E2E2E2E2E2E2E2E2E2E2E2E2E2E2E2E2E2E2E2E2E2E2E2E2E2E2E2E2E2E2E2E2E2E2E22DE2E2E22DE2E2E2E2E2E2E2E2E2E2E2E2E2E2E2E2E2E2E2E2E2E2E2E2E2E2E2E2E2E2E2E2E2E2E2E2E2E2E2E2E2E2F5BEF5E2
310
E2E2E2E2E2E2E2E2E2E2E2E2E2E2E2E2E2E2E2E2E2E2E2E2E2E2E2E2E2E2E2E2E2E2E2E2E2E2E2E2E2E2E2E2E2E2E2E2E2E2E2E2E2E2E2E2E2E2DCE2E2BEE2E2E2E2E2E2E2E2E2E2E2E2E2E2E2E2E2E2E2E2E2E2E2E2E2E2E2E2E2E2E2E2E2E2E2E2E2E2E2E2E2E2E2E2E2E2E2E2E2E2E2E2E2E2E2E2E2E2E2E2E2E2E2E2E2
310
E2E2E2E2E2BEE2E2DCE2E2E2E2E2E2E2E2E2E2E2E2E2E2E2E2E2E2E2E2E2E2E2E2E2E2E2E2E2E2E2E2E2E2E2E2E2E2E2E2E2E2E2E2E2E2E2E2E2E2E2E2E2E2E2E2E2E2E2E2E2E2E2E2E2E2E2E2E22DE2E2E22DE2E2E2E2E2E2E2E2E2E2E2E2E2E2E2E2E2E2E2E2E2E2E2E2E2E2E2E2E2E2E2E2E2E2E2E2E2E2E2E2E2E2F5BE
310
F5E2E2E2E2E2E2E2E2E2E2E2E2E2E2E2E2E2E2E2E2E2E2E2E2E2E2E2E2E2E2E2E2E2E2E2E2E2E2E2E2E2E2E2E2E2E2E2E2E2E2E2E2E2E2E2E2E2E2E2DCE2E2BEE2E2E2E2E2E2E2E2E2E2E2E2E2E2E2E2E2E2E2E2E2E2E2E2E2E2E2E2E2E2E2E2E2E2E2E2E2E2E2E2E2E2E2E2E2E2E2E2E2E2E2E2E2E2E2E2E2E2E2E2E2E2E2
310
E2E2E2E2E2E2E2BEE2E2DCE2E2E2E2E2E2E2E2E2E2E2E2E2E2E2E2E2E2E2E2E2E2E2E2E2E2E2E2E2E2E2E2E2E2E2E2E2E2E2E2E2E2E2E2E2E2E2E2E2E2E2E2E2E2E2E2E2E2E2E2E2E2E2E2E2E2E2E2E22DE2E2E22DE2E2E2E2E2E2E2E2E2E2E2E2E2E2E2E2E2E2E2E2E2E2E2E2E2E2E2E2E2E2E2E2E2E2E2E2E2E2E2E2E2E2
310
F5BEF5E2E2E2E2E2E2E2E2E2E2E2E2E2E2E2E2E2E2E2E2E2E2E2E2E2E2E2E2E2E2E2E2E2E2E2E2E2E2E2E2E2E2E2E2E2E2E2E2E2E2E2E2E2E2E2E2E2E2E2DCE2E2BEE2E2E2E2E2E2E2E2E2E2E2E2E2E2E2E2E2E2E2E2E2E2E2E2E2E2E2E2E2E2E2E2E2E2E2E2E2E2E2E2E2E2E2E2E2E2E2E2E2E2E2E2E2E2E2E2E2E2E2E2E2
310
E2E2E2E2E2E2E2E2E2BEE2E2DCE2E2E2E2E2E2E2E2E2E2E2E2E2E2E2E2E2E2E2E2E2E2E2E2E2E2E2E2E2E2E2E2E2E2E2E2E2E2E2E2E2E2E2E2E2E2E2E2E2E2E2E2E2E2E2E2E2E2E2E2E2E2E2E2E2E2E2E2E22DE2E2E22DE2E2E2E2E2E2E2E2E2E2E2E2E2E2E2E2E2E2E2E2E2E2E2E2E2E2E2E2E2E2E2E2E2E2E2E2E2E2E2E2
310
E2E2F5BEF5E2E2E2E2E2E2E2E2E2E2E2E2E2E2E2E2E2E2E2E2E2E2E2E2E2E2E2E2E2E2E2E2E2E2E2E2E2E2E2E2E2E2E2E2E2E2E2E2E2E2E2E2E2E2E2E2E2E2E2DCE2E2BEE2E2E2E2E2E2E2E2E2E2E2E2E2E2E2E2E2E2E2E2E2E2E2E2E2E2E2E2E2E2E2E2E2E2E2E2E2E2E2E2E2E2E2E2E2E2E2E2E2E2E2E2E2E2E2E2E2E2E2
310
E2E2E2E2E2E2E2E2E2E2E2BEE2E2DCE2E2E2E2E2E2E2E2E2E2E2E2E2E2E2E2E2E2E2E2E2E2E2E2E2E2E2E2E2E2E2E2E2E2E2E2E2E2E2E2E2E2E2E2E2E2E2E2E2E2E2E2E2E2E2E2E2E2E2E2E2E2E2E2E2E2E2E2E22DE2E2E22DE2E2E2E2E2E2E2E2E2E2E2E2E2E2E2E2E2E2E2E2E2E2E2E2E2E2E2E2E2E2E2E2E2E2E2E2E2E2
310
E2E2E2E2F5BEF5E2E2E2E2E2E2E2E2E2E2E2E2E2E2E2E2E2E2E2E2E2E2E2E2E2E2E2E2E2E2E2E2E2E2E2E2E2E2E2E2E2E2E2E2E2E2E2E2E2E2E2E2E2E2E2E2E2E2E2DCE2E2BEE2E2E2E2E2E2E2E2E2E2E2E2E2E2E2E2E2E2E2E2E2E2E2E2E2E2E2E2E2E2E2E2E2E2E2E2E2E2E2E2E2E2E2E2E2E2E2E2E2E2E2E2E2E2E2E2E2
310
E2E2E2E2E2E2E2E2E2E2E2E2E2BEE2E2DCE2E2E2E2E2E2E2E2E2E2E2E2E2E2E2E2E2E2E2E2E2E2E2E2E2E2E2E2E2E2E2E2E2E2E2E2E2E2E2E2E2E2E2E2E2E2E2E2E2E2E2E2E2E2E2E2E2E2E2E2E2E2E2E2E2E2E2E2E22DE2E2E22DE2E2E2E2E2E2E2E2E2E2E2E2E2E2E2E2E2E2E2E2E2E2E2E2E2E2E2E2E2E2E2E2E2E2E2E2
310
E2E2E2E2E2E2F5BEF5E2F5F5E2E2E2E2E2E2E2E2E2E2E2E2E2E2E2E2E2E2E2E2E2E2E2E2E2E2E2E2E2E2E2E2E2E2E2E2E2E2E2E2E2E2E2E2E2E2E2E2E2E2E2E2E2E2E2E2DCE2E2BEE2E2E2E2E2E2E2E2E2E2E2E2E2E2E2E2E2E2E2E2E2E2E2E2E2E2E2E2E2E2E2E2E2E2E2E2E2E2E2E2E2E2E2E2E2E2E2E2E2E2E2E2E2E2E2
310
E2E2E2E2E2E2E2E2E2E2E2E2E2E2E2BEE2E2DCE2E2E2E2E2E2E2E2E2E2E2E2E2E2E2E2E2E2E2E2E2E2E2E2E2E2E2E2E2E2E2E2E2E2E2E2E2E2E2E2E2E2E2E2E2E2E2E2E2E2E2E2E2E2E2E2E2E2E2E2E2E2E2E2E2E2E2E2E22DE2E2E22DE2E2E2E2E2E2E2E2E2E2E2E2E2E2E2E2E2E2E2E2E2E2E2E2E2E2E2E2E2E2E2E2E2E2
310
E2E2E2E2E2E2E2E2F5BEF5E2F52DE2E2E2E2E2E2E2E2E2E2E2E2E2E2E2E2E2E2E2E2E2E2E2E2E2E2E2E2E2E2E2E2E2E2E2E2E2E2E2E2E2E2E2E2E2E2E2E2E2E2E2E2E2E2E2E2DCE2E2BEE2E2E2E2E2E2E2E2E2E2E2E2E2E2E2E2E2E2E2E2E2E2E2E2E2E2E2E2E2E2E2E2E2E2E2E2E2E2E2E2E2E2E2E2E2E2E2E2E2E2E2E2E2
310
E2E2E2E2E2E2E2E2E2E2E2E2E2E2E2E2E2BEE2E2DCE2E2E2E2E2E2E2E2E2E2E2E2E2E2E2E2E2E2E2E2E2E2E2E2E2E2E2E2E2E2E2E2E2E2E2E2E2E2E2E2E2E2E2E2E2E2E2E2E2E2E2E2E2E2E2E2E2E2E2E2E2E2E2E2E2E2E2E2E22DE2E2E22DE2E2E2E2E2E2E2E2E2E2E2E2E2E2E2E2E2E2E2E2E2E2E2E2E2E2E2E2E2E2E2E2
310
E2E2E2E2E2E2E2E2E2E2F5BEF5F5F52DF52D2D2D2DE2E2E2E2E2E2E2E2E2E2E2E2E2E2E2E2E2E2E2E2E2E2E2E2E2E2E2E2E2E2E2E2E2E2E2E2E2E2E2E2E2E2E2E2E2E2E2E2E2E2E2DCE2E2BEE2E2E2E2E2E2E2E2E2E2E2E2E2E2E2E2E2E2E2E2E2E2E2E2E2E2E2E2E2E2E2E2E2E2E2E2E2E2E2E2E2E2E2E2E2E2E2E2E2E2E2
310
E2E2E2E2E2E2E2E2E2E2E2E2E2E2E2E2E2E2E2BEE2E2DCE2E2E2E2E2E2E2E2E2E2E2E2E2E2E2E2E2E2E2E2E2E2E2E2E2E2E2E2E2E2E2E2E2E2E2E2E2E2E2E2E2E2E2E2E2E2E2E2E2E2E2E2E2E2E2E2E2E2E2E2E2E2E2E2E2E2E2E2E22DE2E2E22DE2E2E2E2E2E2E2E2E2E2E2E2E2E2E2E2E2E2E2E2E2E2E2E2E2E2E2E2E2E2
310
E2E2E2E2E2E2E2E2E2E2E2E2F5BEF5E2F52DE2E2BE2D2DE2E2E2E2E2E2E2E2E2E2E2E2E2E2E2E2E2E2E2E2E2E2E2E2E2E2E2E2E2E2E2E2E2E2E2E2E2E2E2E2E2E2E2E2E2E2E2E2E2E2E2DCE2E2BEE2E2E2E2E2E2E2E2E2E2E2E2E2E2E2E2E2E2E2E2E2E2E2E2E2E2E2E2E2E2E2E2E2E2E2E2E2E2E2E2E2E2E2E2E2E2E2E2E2
310
E2E2E2E2E2E2E2E2E2E2E2E2E2E2E2E2E2E2E2E2E2BEE2E2DCE2E2E2E2E2E2E2E2E2E2E2E2E2E2E2E2E2E2E2E2E2E2E2E2E2E2E2E2E2E2E2E2E2E2E2E2E2E2E2E2E2E2E2E2E2E2E2E2E2E2E2E2E2E2E2E2E2E2E2E2E2E2E2E2E2E2E2E2E22DE2E2E22DE2E2E2E2E2E2E2E2E2E2E2E2E2E2E2E2E2E2E2E2E2E2E2E2E2E2E2E2
310
E2E2E2E2E2E2E2E2E2E2E2E2E2E2F5BEF5E2F5F5E2E2BEBEE2E2E2E2E2E2E2E2E2E2E2E2E2E2E2E2E2E2E2E2E2E2E2E2E2E2E2E2E2E2E2E2E2E2E2E2E2E2E2E2E2E2E2E2E2E2E2E2E2E2E2E2DCE2E2BEE2E2E2E2E2E2E2E2E2E2E2E2E2E2E2E2E2E2E2E2E2E2E2E2E2E2E2E2E2E2E2E2E2E2E2E2E2E2E2E2E2E2E2E2E2E2E2
310
E2E2E2E2E2E2E2E2E2E2E2E2E2E2E2E2E2E2E2E2E2E2E2BEE2E2DCE2E2E2E2E2E2E2E2E2E2E2E2E2E2E2E2E2E2E2E2E2E2E2E2E2E2E2E2E2E2E2E2E2E2E2E2E2E2E2E2E2E2E2E2E2E2E2E2E2E2E2E2E2E2E2E2E2E2E2E2E2E2E2E2E2E2E2E2E22DE2E2E22DE2E2F52D2D2D2D2D2D2D2DF5F5F5F5F5F5F5F5F5F5F5F5F5F5F5
310
F5F5F5F5F5F5F5F5F5F5F5F5F5F5F5F5F5F5E2E2E22DE2E2BEBEE2E2E2E2E2E2E2E2E2E2E2E2E2E2E2E2E2E2E2E2E2E2E2E2E2E2E2E2E2E2E2E2E2E2E2E2E2E2E2E2E2E2E2E2E2E2E2E2E2E2E2E2DCE2E2BEE2E2E2E2E2E2E2E2E2E2E2E2E2E2E2E2E2E2E2E2E2E2E2E2E2E2E2E2E2E2E2E2E2E2E2E2E2E2E2E2E2E2E2E2E2
310
E2E2E2E2E2E2E2E2E2E2E2E2E2E2E2E2E2E2E2E2E2E2E2E2E2BEE2E2DCE2E2E2E2E2E2E2E2E2E2E2E2E2E2E2E2E2E2E2E2E2E2E2E2E2E2E2E2E2E2E2E2E2E2E2E2E2E2E2E2E2E2E2E2E2E2E2E2E2E2E2E2E2E2E2E2E2E2E2E2E2E2E2E2E2E2E2E2E22DE2E2E22DE2E22DE2E2E2E2E2E2F5F5BEBEBEBEBEBEBEBEBEBEBEBEBE
310
BEBEBEBEBEBEBEBEBEBEBEBEBEBEBEBEBEF5F5E2E2E2E22DE2E2BEBEE2E2E2E2E2E2E2E2E2E2E2E2E2E2E2E2E2E2E2E2E2E2E2E2E2E2E2E2E2E2E2E2E2E2E2E2E2E2E2E2E2E2E2E2E2E2E2E2E2E2E2E2DCE2E2BEE2E2E2E2E2E2E2E2E2E2E2E2E2E2E2E2E2E2E2E2E2E2E2E2E2E2E2E2E2E2E2E2E2E2E2E2E2E2E2E2E2E2E2
310
E2E2E2E2E2E2E2E2E2E2E2E2E2E2E2E2E2E2E2E2E2E2E2E2E2E2E2BEE2E2DCE2E2E2E2E2E2E2E2E2E2E2E2E2E2E2E2E2E2E2E2E2E2E2E2E2E2E2E2E2E2E2E2E2E2E2E2E2E2E2E2E2E2E2E2E2E2E2E2E2E2E2E2E2E2E2E2E2E2E2E2E2E2E2E2E2E2E2E2E22DE2E2E22DE2BEBEE2E2E2E2E2F5BEF5F5F5F5F5F5F5F5F5F5F5F5
310
F5F5F5F5F5F5F5F5F5F5F5F5F5F5F5F5F5F5F5F5E2E2E2E2E22DE2E2BEBEE2E2E2E2E2E2E2E2E2E2E2E2E2E2E2E2E2E2E2E2E2E2E2E2E2E2E2E2E2E2E2E2E2E2E2E2E2E2E2E2E2E2E2E2E2E2E2E2E2E2E2E2DCE2E2BEE2E2E2E2E2E2E2E2E2E2E2E2E2E2E2E2E2E2E2E2E2E2E2E2E2E2E2E2E2E2E2E2E2E2E2E2E2E2E2E2E2
310
E2E2E2E2E2E2E2E2E2E2E2E2E2E2E2E2E2E2E2E2E2E2E2E2E2E2E2E2E2BEE2E2DCE2E2E2E2E2E2E2E2E2E2E2E2E2E2E2E2E2E2E2E2E2E2E2E2E2E2E2E2E2E2E2E2E2E2E2E2E2E2E2E2E2E2E2E2E2E2E2E2E2E2E2E2E2E2E2E2E2E2E2E2E2E2E2E2E2E2E2E2E22DE2E2E22DE2BEBEE2E2E2E2E2F5F5E2E2E2E2E2E2E2E2E2E2
310
E2E2E2E2E2E2E2E2E2E2E2E2E2E2E2E2E2E2F5F5E2E2E2E2E2E2E22DE2BEBE2DE2E2E2E2E2E2E2E2E2E2E2E2E2E2E2E2E2E2E2E2E2E2E2E2E2E2E2E2E2E2E2E2E2E2E2E2E2E2E2E2E2E2E2E2E2E2E2E2E2E2E2E2DCE2E2BEE2E2E2E2E2E2E2E2E2E2E2E2E2E2E2E2E2E2E2E2E2E2E2E2E2E2E2E2E2E2E2E2E2E2E2E2E2E2E2
310
E2E2E2E2E2E2E2E2E2E2E2E2E2E2E2E2E2E2E2E2E2E2E2E2E2E2E2E2E2E2E2BEE2E2DCE2E2E2E2E2E2E2E2E2E2E2E2E2E2E2E2E2E2E2E2E2E2E2E2E2E2E2E2E2E2E2E2E2E2E2E2E2E2E2E2E2E2E2E2E2E2E2E2E2E2E2E2E2E2E2E2E2E2E2E2E2E2E2E2E2E2E2E2E22D2DE2E22DE2BEBEE2E2E2F5F5F5F5F5E2E2E2E2E2E2E2
310
E2E2E2E2E2E2E2E2E2E2E2E2E2E2E2E2E2E2E2F5F5F5F5E2E2E2E2E2E22DE2BEBE2D2DE2E2E2E2E2E2E2E2E2E2E2E2E2E2E2E2E2E2E2E2E2E2E2E2E2E2E2E2E2E2E2E2E2E2E2E2E2E2E2E2E2E2E2E2E2E2E2E2E2E2E2DCE2E2BEE2E2E2E2E2E2E2E2E2E2E2E2E2E2E2E2E2E2E2E2E2E2E2E2E2E2E2E2E2E2E2E2E2E2E2E2E2
310
E2E2E2E2E2E2E2E2E2E2E2E2E2E2E2E2E2E2E2E2E2E2E2E2E2E2E2E2E2E2E2E2E2BEE2E2DCE2E2E2E2E2E2E2E2E2E2E2E2E2E2E2E2E2E2E2E2E2E2E2E2E2E2E2E2E2E2E2E2E2E2E2E2E2E2E2E2E2E2E2E2E2E2E2E2E2E2E2E2E2E2E2E2E2E2E2E2E2E2E2E2E2E2E2E2E22D2D2D2D2D2D2D2D2D2D2DF52DBEF5F5E2E2E2E2E2
310
E2E2E2E2E2E2E2E2E2E2E2E2E2E2E2E2E2E2E2E2E2F5F5BEF52D2D2D2D2D2D2D2D2D2DF52DE2E2E2E2E2E2E2E2E2E2E2E2E2E2E2E2E2E2E2E2E2E2E2E2E2E2E2E2E2E2E2E2E2E2E2E2E2E2E2E2E2E2E2E2E2E2E2E2E2E2E2DCE2E2BEE2E2E2E2E2E2E2E2E2E2E2E2E2E2E2E2E2E2E2E2E2E2E2E2E2E2E2E2E2E2E2E2E2E2E2
310
E2E2E2E2E2E2E2E2E2E2E2E2E2E2E2E2E2E2E2E2E2E2E2E2E2E2E2E2E2E2E2E2E2E2E2BEE2E2DCE2E2E2E2E2E2E2E2E2E2E2E2E2E2E2E2E2E2E2E2E2E2E2E2E2E2E2E2E2E2E2E2E2E2E2E2E2E2E2E2E2E2E2E2E2E2E2E2E2E2E2E2E2E2E2E2E2E2E2E2E2E2E2E2E2E2E2E2E2E2E2E2E2E2E2E2E2E2E2E22D2DE2E2E2E2E2E2
310
E2E2E2E2E2E2E2E2E2E2E2E2E2E2E2E2E2E2E2E2E2E2E2E2E22DE2E2E2E2E2E2E22DE2E2E2E2E2E2E2E2E2E2E2E2E2E2E2E2E2E2E2E2E2E2E2E2E2E2E2E2E2E2E2E2E2E2E2E2E2E2E2E2E2E2E2E2E2E2E2E2E2E2E2E2E2E2E2E2DCE2E2BEE2E2E2E2E2E2E2E2E2E2E2E2E2E2E2E2E2E2E2E2E2E2E2E2E2E2E2E2E2E2E2E2E2
310
E2E2E2E2E2E2E2E2E2E2E2E2E2E2E2E2E2E2E2E2E2E2E2E2E2E2E2E2E2E2E2E2E2E2E2E2E2BEE2E2DCE2E2E2E2E2E2E2E2E2E2E2E2E2E2E2E2E2E2E2E2E2E2E2E2E2E2E2E2E2E2E2E2E2E2E2E2E2E2E2E2E2E2E2E2E2E2E2E2E2E2E2E2E2E2E2E2E2E2E2E2E2E2E2E2E2E2E2E2E2E2E2E2E2E2E2E2E2E2E2E22D2DE2E2E2E2
310
E2E2E2E2E2E2E2E2E2E2E2E2E2E2E2E2E2E2E2E2E2E2E2E2E2E2E22DE2E2E2E2E2E2E22DE2E2E2E2E2E2E2E2E2E2E2E2E2E2E2E2E2E2E2E2E2E2E2E2E2E2E2E2E2E2E2E2E2E2E2E2E2E2E2E2E2E2E2E2E2E2E2E2E2E2E2E2E2E2E2E2DCE2E2BEE2E2E2E2E2E2E2E2E2E2E2E2E2E2E2E2E2E2E2E2E2E2E2E2E2E2E2E2E2E2E2
310
E2E2E2E2E2E2E2E2E2E2E2E2E2E2E2E2E2E2E2E2E2E2E2E2E2E2E2E2E2E2E2E2E2E2E2E2E2E2E2BEE2E2DCE2E2E2E2E2E2E2E2E2E2E2E2E2E2E2E2E2E2E2E2E2E2E2E2E2E2E2E2E2E2E2E2E2E2E2E2E2E2E2E2E2E2E2E2E2E2E2E2E2E2E2E2E2E2E2E2E2E2E2E2E2E2E2E2E2E2E2E2E2E2E2E2E2E2E2E2E2E2E2E22D2DE2E2
310
E2E2E2E2E2E2E2E2E2E2E2E2E2E2E2E2E2E2E2E2E2E2E2E2E2E2E2E2E2F52D2D2D2D2D2D2D2DE2E2E2E2E2E2E2E2E2E2E2E2E2E2E2E2E2E2E2E2E2E2E2E2E2E2E2E2E2E2E2E2E2E2E2E2E2E2E2E2E2E2E2E2E2E2E2E2E2E2E2E2E2E2E2E2DCE2E2BEE2E2E2E2E2E2E2E2E2E2E2E2E2E2E2E2E2E2E2E2E2E2E2E2E2E2E2E2E2
310
E2E2E2E2E2E2E2E2E2E2E2E2E2E2E2E2E2E2E2E2E2E2E2E2E2E2E2E2E2E2E2E2E2E2E2E2E2E2E2E2E2BEE2E2DCE2E2E2E2E2E2E2E2E2E2E2E2E2E2E2E2E2E2E2E2E2E2E2E2E2E2E2E2E2E2E2E2E2E2E2E2E2E2E2E2E2E2E2E2E2E2E2E2E2E2E2E2E2E2E2E2E2E2E2E2E2E2E2E2E2E2E2E2E2E2E2E2E2E2E2E2E2E2E2E22D2D
310
E2E2E2E2E2E2E2E2E2E2E2E2E2E2E2E2E2E2E2E2E2E2E2E2E2E2E2E2E2E2E22D2DBEBEBEBEE22D2DE2E2E2E2E2E2E2E2E2E2E2E2E2E2E2E2E2E2E2E2E2E2E2E2E2E2E2E2E2E2E2E2E2E2E2E2E2E2E2E2E2E2E2E2E2E2E2E2E2E2E2E2E2E2E2E2DCE2E2BEE2E2E2E2E2E2E2E2E2E2E2E2E2E2E2E2E2E2E2E2E2E2E2E2E2E2E2
310
E2E2E2E2E2E2E2E2E2E2E2E2E2E2E2E2E2E2E2E2E2E2E2E2E2E2E2E2E2E2E2E2E2E2E2E2E2E2E2E2E2E2E2BEE2E2DCE2E2E2E2E2E2E2E2E2E2E2E2E2E2E2E2E2E2E2E2E2E2E2E2E2E2E2E2E2E2E2E2E2E2E2E2E2E2E2E2E2E2E2E2E2E2E2E2E2E2E2E2E2E2E2E2E2E2E2E2E2E2E2E2E2E2E2E2E2E2E2E2E2E2E2E2E2E2E2E2
310
2D2DE2E2E2E2E2E2E2E2E2E2E2E2E2E2E2E2E2E2E2E2E2E2E2E2E2E2E2E2E2E2E2E2BEBEBEBEBEBEBE2DE2E2E2E2E2E2E2E2E2E2E2E2E2E2E2E2E2E2E2E2E2E2E2E2E2E2E2E2E2E2E2E2E2E2E2E2E2E2E2E2E2E2E2E2E2E2E2E2E2E2E2E2E2E2E2E2DCE2E2BEE2E2E2E2E2E2E2E2E2E2E2E2E2E2E2E2E2E2E2E2E2E2E2E2E2
310
E2E2E2E2E2E2E2E2E2E2E2E2E2E2E2E2E2E2E2E2E2E2E2E2E2E2E2E2E2E2E2E2E2E2E2E2E2E2E2E2E2E2E2E2E2BEE2E2DCE2E2E2E2E2E2E2E2E2E2E2E2E2E2E2E2E2E2E2E2E2E2E2E2E2E2E2E2E2E2E2E2E2E2E2E2E2E2E2E2E2E2E2E2E2E2E2E2E2E2E2E2E2E2E2E2E2E2E2E2E2E2E2E2E2E2E2E2E2E2E2E2E2E2E2E2E2E2
310
E2E22D2DE2E2E2E2E2E2E2E2E2E2E2E2E2E2E2E2E2E2E2E2E2E2E2E2E2E2E2E2E2E2E2E2E2E2E2E2E2E2E22DE2E2E2E2E2E2E2E2E2E2E2E2E2E2E2E2E2E2E2E2E2E2E2E2E2E2E2E2E2E2E2E2E2E2E2E2E2E2E2E2E2E2E2E2E2E2E2E2E2E2E2E2E2E2E2E2DCE2E2BEE2E2E2E2E2E2E2E2E2E2E2E2E2E2E2E2E2E2E2E2E2E2E2
310
E2E2E2E2E2E2E2E2E2E2E2E2E2E2E2E2E2E2E2E2E2E2E2E2E2E2E2E2E2E2E2E2E2E2E2E2E2E2E2E2E2E2E2E2E2E2E2BEE2E2DCE2E2E2E2E2E2E2E2E2E2E2E2E2E2E2E2E2E2E2E2E2E2E2E2E2E2E2E2E2E2E2E2E2E2E2E2E2E2E2E2E2E2E2E2E2E2E2E2E2E2E2E2E2E2E2E2E2E2E2E2E2E2E2E2E2E2E2E2E2E2E2E2E2E2E2E2
310
E2E2E2E22D2D2D2D2D2D2D2D2D2D2D2D2D2D2D2D2D2D2D2D2D2D2D2D2D2D2D2D2D2D2D2D2D2D2D2D2D2D2D2D2D2DE2E2E2E2E2E2E2E2E2E2E2E2E2E2E2E2E2E2E2E2E2E2E2E2E2E2E2E2E2E2E2E2E2E2E2E2E2E2E2E2E2E2E2E2E2E2E2E2E2E2E2E2E2E2E2E2DCE2E2BEE2E2E2E2E2E2E2E2E2E2E2E2E2E2E2E2E2E2E2E2E2
310
E2E2E2E2E2E2E2E2E2E2E2E2E2E2E2E2E2E2E2E2E2E2E2E2E2E2E2E2E2E2E2E2E2E2E2E2E2E2E2E2E2E2E2E2E2E2E2E2E2BEE2E2DCE2E2E2E2E2E2E2E2E2E2E2E2E2E2E2E2E2E2E2E2E2E2E2E2E2E2E2E2E2E2E2E2E2E2E2E2E2E2E2E2E2E2E2E2E2E2E2E2E2E2E2E2E2E2E2E2E2E2E2E2E2E2E2E2E2E2E2E2E2E2E2E2E2E2
310
E2E2E2E2E2E22D2DE2E2E2E2E2E2E2E2E2E2E2E2E2E2E2E2E2E2BEBEBEBEBEBEE2E2E2E2E2E2E2E2E2E2E2E2E2E2E22DE2E2E2E2E2E2E2E2E2E2E2E2E2E2E2E2E2E2E2E2E2E2E2E2E2E2E2E2E2E2E2E2E2E2E2E2E2E2E2E2E2E2E2E2E2E2E2E2E2E2E2E2E2E2E2E2DCE2E2BEE2E2E2E2E2E2E2E2E2E2E2E2E2E2E2E2E2E2E2
310
E2E2E2E2E2E2E2E2E2E2E2E2E2E2E2E2E2E2E2E2E2E2E2E2E2E2E2E2E2E2E2E2E2E2E2E2E2E2E2E2E2E2E2E2E2E2E2E2E2E2E2BEE2E2DCE2E2E2E2E2E2E2E2E2E2E2E2E2E2E2E2E2E2E2E2E2E2E2E2E2E2E2E2E2E2E2E2E2E2E2E2E2E2E2E2E2E2E2E2E2E2E2E2E2E2E2E2E2E2E2E2E2E2E2E2E2E2E2E2E2E2E2E2E2E2E2E2
310
E2E2E2E2E2E2E2E22DE2E2E2E2E2E2E2E2E2E2E2E2E2E2E2E2E2E2E2BEBEBEE2BEBEE2E2E2E2E2E2E2E2E2E2E2E2E2E2E22DE2E2E2E2E2E2E2E2E2E2E2E2E2E2E2E2E2E2E2E2E2E2E2E2E2E2E2E2E2E2E2E2E2E2E2E2E2E2E2E2E2E2E2E2E2E2E2E2E2E2E2E2E2E2E2E2DCE2E2BEE2E2E2E2E2E2E2E2E2E2E2E2E2E2E2E2E2
310
E2E2E2E2E2E2E2E2E2E2E2E2E2E2E2E2E2E2E2E2E2E2E2E2E2E2E2E2E2E2E2E2E2E2E2E2E2E2E2E2E2E2E2E2E2E2E2E2E2E2E2E2E2BEE2E2DCE2E2E2E2E2E2E2E2E2E2E2E2E2E2E2E2E2E2E2E2E2E2E2E2E2E2E2E2E2E2E2E2E2E2E2E2E2E2E2E2E2E2E2E2E2E2E2E2E2E2E2E2E2E2E2E2E2E2E2E2E2E2E2E2E2E2E2E2E2E2
310
E2E2E2E2E2E2E2E2E2E22D2D2D2D2D2D2D2D2D2D2D2D2D2D2D2D2D2D2D2D2D2D2D2D2D2D2D2D2D2D2D2D2D2D2D2D2D2D2D2D2DF5E2E2E2E2E2E2E2E2E2E2E2E2E2E2E2E2E2E2E2E2E2E2E2E2E2E2E2E2E2E2E2E2E2E2E2E2E2E2E2E2E2E2E2E2E2E2E2E2E2E2E2E2E2E2E2E2DCE2E2BEE2E2E2E2E2E2E2E2E2E2E2E2E2E2E2
310
E2E2E2E2E2E2E2E2E2E2E2E2E2E2E2E2E2E2E2E2E2E2E2E2E2E2E2E2E2E2E2E2E2E2E2E2E2E2E2E2E2E2E2E2E2E2E2E2E2E2E2E2E2E2E2BEE2E2DCE2E2E2E2E2E2E2E2E2E2E2E2E2E2E2E2E2E2E2E2E2E2E2E2E2E2E2E2E2E2E2E2E2E2E2E2E2E2E2E2E2E2E2E2E2E2E2E2E2E2E2E2E2E2E2E2E2E2E2E2E2E2E2E2E2E2E2E2
310
E2E2E2E2E2E2E2E2E2E2E2E22D2D2DE2E2E2E2E2E2E2E2E2E2E2E2E2E2E2E2E2BEBEBEBEBEBEE2E2E2E2E2E2E2E2E2E2E2E2E2E22D2DE2E2E2E2E2E2E2E2E2E2E2E2E2E2E2E2E2E2E2E2E2E2E2E2E2E2E2E2E2E2E2E2E2E2E2E2E2E2E2E2E2E2E2E2E2E2E2E2E2E2E2E2E2E2E2E2DCE2E2BEE2E2E2E2E2E2E2E2E2E2E2E2E2
310
E2E2E2E2E2E2E2E2E2E2E2E2E2E2E2E2E2E2E2E2E2E2E2E2E2E2E2E2E2E2E2E2E2E2E2E2E2E2E2E2E2E2E2E2E2E2E2E2E2E2E2E2E2E2E2E2E2BEE2E2DCE2E2E2E2E2E2E2E2E2E2E2E2E2E2E2E2E2E2E2E2E2E2E2E2E2E2E2E2E2E2E2E2E2E2E2E2E2E2E2E2E2E2E2E2E2E2E2E2E2E2E2E2E2E2E2E2E2E2E2E2E2E2E2E2E2E2
310
E2E2E2E2E2E2E2E2E2E2E2E2E2E2E2E2E2E2E2E2E2E2E2E2E2E2E2E2E2E2E2E2E2E2BEBEE2BEBEBEE2E2E2E2E2E2E2E2E2E2E2E2E2E2E2E2E2E2E2E2E2E2E2E2E2E2E2E2E2E2E2E2E2E2E2E2E2E2E2E2E2E2E2E2E2E2E2E2E2E2E2E2E2E2E2E2E2E2E2E2E2E2E2E2E2E2E2E2E2E2E2E2DCE2E2BEE2E2E2E2E2E2E2E2E2E2E2
310
E2E2E2E2E2E2E2E2E2E2E2E2E2E2E2E2E2E2E2E2E2E2E2E2E2E2E2E2E2E2E2E2E2E2E2E2E2E2E2E2E2E2E2E2E2E2E2E2E2E2E2E2E2E2E2E2E2E2E2BEE2E2DCE2E2E2E2E2E2E2E2E2E2E2E2E2E2E2E2E2E2E2E2E2E2E2E2E2E2E2E2E2E2E2E2E2E2E2E2E2E2E2E2E2E2E2E2E2E2E2E2E2E2E2E2E2E2E2E2E2E2E2E2E2E2E2E2
310
E2E2E2E2E2E2E2E2E2E2E2E2E2E2E2E2E2E2E2E2E2E2E2E2E2E2E2E2E2E2E2E2E2E2E2E2E2E2E2E2E2E2E2E2E2E2E2E2E2E2E2E2E2E2E2E2E2E2E2E2E2E2E2E2E2E2E2E2E2E2E2E2E2E2E2E2E2E2E2E2E2E2E2E2E2E2E2E2E2E2E2E2E2E2E2E2E2E2E2E2E2E2E2E2E2E2E2E2E2E2E2E2E2E2DCE2E2BEE2E2E2E2E2E2E2E2E2
310
E2E2E2E2E2E2E2E2E2E2E2E2E2E2E2E2E2E2E2E2E2E2E2E2E2E2E2E2E2E2E2E2E2E2E2E2E2E2E2E2E2E2E2E2E2E2E2E2E2E2E2E2E2E2E2E2E2E2E2E2E2BEE2E2DCE2E2E2E2E2E2E2E2E2E2E2E2E2E2E2E2E2E2E2E2E2E2E2E2E2E2E2E2E2E2E2E2E2E2E2E2E2E2E2E2E2E2E2E2E2E2E2E2E2E2E2E2E2E2E2E2E2E2E2E2E2E2
310
E2E2E2E2E2E2E2E2E2E2E2E2E2E2E2E2E2E2E2E2E2E2E2E2E2E2E2E2E2E2E2E2E2E2E2E2E2E2E2E2E2E2E2E2E2E2E2E2E2E2E2E2E2E2E2E2E2E2E2E2E2E2E2E2E2E2E2E2E2E2E2E2E2E2E2E2E2E2E2E2E2E2E2E2E2E2E2E2E2E2E2E2E2E2E2E2E2E2E2E2E2E2E2E2E2E2E2E2E2E2E2E2E2E2E2E2DCE2E2BEE2E2E2E2E2E2E2
310
E2E2E2E2E2E2E2E2E2E2E2E2E2E2E2E2E2E2E2E2E2E2E2E2E2E2E2E2E2E2E2E2E2E2E2E2E2E2E2E2E2E2E2E2E2E2E2E2E2E2E2E2E2E2E2E2E2E2E2E2E2E2E2BEE2E2DCE2E2E2E2E2E2E2E2E2E2E2E2E2E2E2E2E2E2E2E2E2E2E2E2E2E2E2E2E2E2E2E2E2E2E2E2E2E2E2E2E2E2E2E2E2E2E2E2E2E2E2E2E2E2E2E2E2E2E2E2
310
E2E2E2E2E2E2E2E2E2E2E2E2E2E2E2E2E2E2E2E2E2E2E2E2E2E2E2E2E2E2E2E2E2E2E2E2E2E2E2E2E2E2E2E2E2E2E2E2E2E2E2E2E2E2E2E2E2E2E2E2E2E2E2E2E2E2E2E2E2E2E2E2E2E2E2E2E2E2E2E2E2E2E2E2E2E2E2E2E2E2E2E2E2E2E2E2E2E2E2E2E2E2E2E2E2E2E2E2E2E2E2E2E2E2E2E2E2E2DCE2E2BEE2E2E2E2E2
310
E2E2E2E2E2E2E2E2E2E2E2E2E2E2E2E2E2E2E2E2E2E2E2E2E2E2E2E2E2E2E2E2E2E2E2E2E2E2E2E2E2E2E2E2E2E2E2E2E2E2E2E2E2E2E2E2E2E2E2E2E2E2E2E2E2BEE2E2DCE2E2E2E2E2E2E2E2E2E2E2E2E2E2E2E2E2E2E2E2E2E2E2E2E2E2E2E2E2E2E2E2E2E2E2E2E2E2E2E2E2E2E2E2E2E2E2E2E2E2E2E2E2E2E2E2E2E2
310
E2E2E2E2E2E2E2E2E2E2E2E2E2E2E2E2E2E22DE2E2E2E2E2E2E2E2E2E2E2E2E2E2E2E2E2E2E2E2E2E2E2E2E2E2E2E2E2E2E2E2E2E2E2E2E2E2E2E2E2E2E2E2E2E2E2E2E2E2E2E2E2E2E2E2E2E2E2E2E2E2E2E2E2E2E2E2E2E2E2E2E2E2E2E2E2E2E2E2E2E2E2E2E2E2E2E2E2E2E2E2E2E2E2E2E2E2E2E2E2DCE2E2BEE2E2E2
310
E2E2E2E2E2E2E2E2E2E2E2E2E2E2E2E2E2E2E2E2E2E2E2E2E2E2E2E2E2E2E2E2E2E2E2E2E2E2E2E2E2E2E2E2E2E2E2E2E2E2E2E2E2E2E2E2E2E2E2E2E2E2E2E2E2E2E2BEE2E2DCE2E2E2E2E2E2E2E2E2E2E2E2E2E2E2E2E2E2E2E2E2E2F5F5F5E2E2E2E2E2E2E2E2E2E2E2E2E2E2E2E2E2E2E2E2E2E2E2E2E2E2E2E2F5F5F5
310
E2E2E2E2E2F5F5E2E2E2E2E2E2E2E2E2E2E2E2BEBE2DE2E2E2F5F5F5E2E2E2E2E2E2E2E2E2E2E2E2E2E2E2E2E2F5F5F5E2E2E2E2E2E2E2E2E2E2E2E2E2E2E2E2F5F5E2E2E2E2E2E2E2E2E2E2E2E2E2E2E2E2E2E2E2E2E2E2E2E2E2E2E2E2E2E2E2E2E2E2E2E2E2E2E2E2E2E2E2E2E2E2E2E2E2E2E2E2E2E2E2E2DCE2E2BEE2
310
E2E2E2E2E2E2E2E2E2E2E2E2E2E2E2E2E2E2E2E2E2E2E2E2E2E2E2E2E2E2E2E2E2E2E2E2E2E2E2E2E2E2E2E2E2E2E2E2E2E2E2E2E2E2E2E2E2E2E2E2E2E2E2E2E2E2E2E2E2BEE2E2DCE2E2E2E2E2E2E2E2E2E2E2E2E2E2E2E2E2E2E2E2E2F5F5F5F5F5F5F5F5F5F5F5F5F5F5F5F5F5F5F5F5F5F5F5F5F5F5F5F5F5F5F5F5F5
310
BEF5F5F5F5F5F5F5F5E2E2E2E2E2E2E2E2E2E2E2E2BEF52D2D2D2D2DF5F5F5F5F5F5F5F5F5F5F5F5F5F5F5F5F5F5F5F5BEF5F5F5F5F5F5F5F5F5F5F5F5F5F5F5F5F5F5F5E2E2E2E2E2E2E2E2E2E2E2E2E2E2E2E2E2E2E2E2E2E2E2E2E2E2E2E2E2E2E2E2E2E2E2E2E2E2E2E2E2E2E2E2E2E2E2E2E2E2E2E2E2E2E2E2DCE2E2
310
BEE2E2E2E2E2E2E2E2E2E2E2E2E2E2E2E2E2E2E2E2E2E2E2E2E2E2E2E2E2E2E2E2E2E2E2E2E2E2E2E2E2E2E2E2E2E2E2E2E2E2E2E2E2E2E2E2E2E2E2E2E2E2E2E2E2E2E2E2E2E2BEE2E2DCE2E2E2E2E2E2E2E2E2E2E2E2E2E2E2E2E2E2E2E2E2F5F5F5F5F5F5F5F5F5F5F5F5F5F5F5F5F5F5F5F5F5F5F5F5F5F5F5F5F5F5F5
310
F5F5BEF5F5BEF5F5F5F5BEE2E2E2E2E2E2E2E2E2E2E2E2BEBE2D2D2D2D2DF5BEBEBEBEBEBEBEBEBEBEBEBEBEBEBEBEBEBEBEBEBEBEBEBEBEBEBEBEBEBEBEBEBEBEBEBEBEBEBEBEE2E2E2E2E2E2E2E2E2E2E2E2E2E2E2E2E2E2E2E2E2E2E2E2E2E2E2E2E2E2E2E2E2E2E2E2E2E2E2E2E2E2E2E2E2E2E2E2E2E2E2E2E2E2E2DC
310
E2E2BEE2E2E2E2E2E2E2E2E2E2E2E2E2E2E2E2E2E2E2E2E2E2E2E2E2E2E2E2E2E2E2E2E2E2E2E2E2E2E2E2E2E2E2E2E2E2E2E2E2E2E2E2E2E2E2E2E2E2E2E2E2E2E2E2E2E2E2E2E2E2BEE2E2DCE2E2E2E2E2E2E2E2E2E2E2E2E2E2E2E2E2E2E2E2E2F5F5F5F5E2E2E2E2E2E2E2E2E2E2E2E2E2E2E2E2E2E2E2E2E2E2E2E2E2
310
E2E2F5F5F5F5E2E2E2E2E2F5F5E2E2E2E2E2E2E2E2E2E2E2E2BEBE2DE2E2E2F5F5F5E2E2E2E2E2E2E2E2E2E2E2E2E2E2E2E2E2F5F5F5E2E2E2E2E2E2E2E2E2E2E2E2E2BEE2E2F5F5E2E2E2E2E2E2E2E2E2E2E2E2E2E2E2E2E2E2E2E2E2E2E2E2E2E2E2E2E2E2E2E2E2E2E2E2E2E2E2E2E2E2E2E2E2E2E2E2E2E2E2E2E2E2E2
310
E2DCE2E2BEE2E2E2E2E2E2E2E2E2E2E2E2E2E2E2E2E2E2E2E2E2E2E2E2E2E2E2E2E2E2E2E2E2E2E2E2E2E2E2E2E2E2E2E2E2E2E2E2E2E2E2E2E2E2E2E2E2E2E2E2E2E2E2E2E2E2E2E2E2E2BEE2E2DCE2E2E2E2E2E2E2E2E2E2E2E2E2E2E2E2E2E2E2E2E2E2E2BEE2E2E2E2E2E2E2E2E2E2E2E2E2E2E2E2E2E2E2E2E2E2E2E2
310
E2E2E2E2E2E2BEE2E2E2E2E2E2E2E2E2E2E2E2E2E2E2E2E2E2E2E2E22D2DE2E2E2E2BEE2E2E2E2E2E2E2E2E2E2E2E2E2E2E2E2E2E2E2BEE2E2E2E2E2E2E2E2E2E2E2E2E2E2E2E2E2E2E2E2E2E2E2E2E2E2E2E2E2E2E2E2E2E2E2E2E2E2E2E2E2E2E2E2E2E2E2E2E2E2E2E2E2E2E2E2E2E2E2E2E2E2E2E2E2E2E2E2E2E2E2E2
310
E2E2E2DCE2E2BEE2E2E2E2E2E2E2E2E2E2E2E2E2E2E2E2E2E2E2E2E2E2E2E2E2E2E2E2E2E2E2E2E2E2E2E2E2E2E2E2E2E2E2E2E2E2E2E2E2E2E2E2E2E2E2E2E2E2E2E2E2E2E2E2E2E2E2E2E2E2BEE2E2DCE2E2E2E2E2E2E2E2E2E2E2E2E2E2E2E2E2E2E2E2E2E2E2E2E2E2E2E2E2E2E2E2E2E2E2E2E2E2E2E2E2E2E2E2E2E2
310
E2E2E2E2E2E2E2E2E2E2E2E2E2E2E2E2E2E2E2E2E2E2E2E2E2E2E2E2E2E22DE2E2E2E2E2E2E2E2E2E2E2E2E2E2E2E2E2E2E2E2E2E2E2E2E2E2E2E2E2E2E2E2E2E2E2E2E2E2E2E2E2E2E2E2E2E2E2E2E2E2E2E2E2E2E2E2E2E2E2E2E2E2E2E2E2E2E2E2E2E2E2E2E2E2E2E2E2E2E2E2E2E2E2E2E2E2E2E2E2E2E2E2E2E2E2E2
310
E2E2E2E2E2DCE2E2BEE2E2E2E2E2E2E2E2E2E2E2E2E2E2E2E2E2E2E2E2E2E2E2E2E2E2E2E2E2E2E2E2E2E2E2E2E2E2E2E2E2E2E2E2E2E2E2E2E2E2E2E2E2E2E2E2E2E2E2E2E2E2E2E2E2E2E2E2E2E2BEE2E2DCE2E2E2E2E2E2E2E2E2E2E2E2E2E2E2E2E2E2E2E2E2E2E2E2E2E2E2E2E2E2E2E2E2E2E2E2E2E2E2E2E2E2E2E2
310
E2E2E2E2E2E2E2E2E2E2E2E2E2E2E2E2E2E2E2E2E2E2E2E2E2E2E2E2E2E2E2E2E2E2E2E2E2E2E2E2E2E2E2E2E2E2E2E2E2E2E2E2E2E2E2E2E2E2E2E2E2E2E2E2E2E2E2E2E2E2E2E2E2E2E2E2E2E2E2E2E2E2E2E2E2E2E2E2E2E2E2E2E2E2E2E2E2E2E2E2E2E2E2E2E2E2E2E2E2E2E2E2E2E2E2E2E2E2E2E2E2E2E2E2E2E2E2
310
E2E2E2E2E2E2E2DCE2E2BEE2E2E2E2E2E2E2E2E2E2E2E2E2E2E2E2E2E2E2E2E2E2E2E2E2E2E2E2E2E2E2E2E2E2E2E2E2E2E2E2E2E2E2E2E2E2E2E2E2E2E2E2E2E2E2E2E2E2E2E2E2E2E2E2E2E2E2E2E2E2BEE2E2DCE2E2E2E2E2E2E2E2E2E2E2E2E2E2E2E2E2E2E2E2E2E2E2E2E2E2E2E2E2E2E2E2E2E2E2E2E2E2E2E2E2E2
310
E2E2E2E2E2E2E2E2E2E2E2E2E2E2E2E2E2E2E2E2E2E2E2E2E2E2E2E2E2E2E2E2E2E2E2E2E2E2E2E2E2E2E2E2E2E2E2E2E2E2E2E2E2E2E2E2E2E2E2E2E2E2E2E2E2E2E2E2E2E2E2E2E2E2E2E2E2E2E2E2E2E2E2E2E2E2E2E2E2E2E2E2E2E2E2E2E2E2E2E2E2E2E2E2E2E2E2E2E2E2E2E2E2E2E2E2E2E2E2E2E2E2E2E2E2E2E2
310
E2E2E2E2E2E2E2E2E2DCE2E2BEE2E2E2E2E2E2E2E2E2E2E2E2E2E2E2E2E2E2E2E2E2E2E2E2E2E2E2E2E2E2E2E2E2E2E2E2E2E2E2E2E2E2E2E2E2E2E2E2E2E2E2E2E2E2E2E2E2E2E2E2E2E2E2E2E2E2E2E2E2E2BEE2E2DCDCDCDCDCDCDCDCDCDCDCDCDCDCDCDCDCDCDCDCDCDCDCDCDCDCDCDCDCDCDCDCDCDCDCDCDCDCDCDCDC
310
DCDCDCDCDCDCDCDCDCDCDCDCDCDCDCDCDCDCDCDCDCDCDCDCDCDCDCDCDCDCDCDCDCDCDCDCDCDCDCDCDCDCDCDCDCDCDCDCDCDCDCDCDCDCDCDCDCDCDCDCDCDCDCDCDCDCDCDCDCDCDCDCDCDCDCDCDCDCDCDCDCDCDCDCDCDCDCDCDCDCDCDCDCDCDCDCDCDCDCDCDCDCDCDCDCDCDCDCDCDCDCDCDCDCDCDCDCDCDCDCDCDCDCDCDCDCDC
310
DCDCDCDCDCDCDCDCDCDCDCDCE2E2BEE2E2E2E2E2E2E2E2E2E2E2E2E2E2E2E2E2E2E2E2E2E2E2E2E2E2E2E2E2E2E2E2E2E2E2E2E2E2E2E2E2E2E2E2E2E2E2E2E2E2E2E2E2E2E2E2E2E2E2E2E2E2E2E2E2E2E2E2E2E2BEE2E2E2E2E2E2E2E2E2E2E2E2E2E2E2E2E2E2E2E2E2E2E2E2E2E2E2E2E2E2E2E2E2E2E2E2E2E2E2E2E2
310
E2E2E2E2E2E2E2E2E2E2E2E2E2E2E2E2E2E2E2E2E2E2E2E2E2E2E2E2E2E2E2E2E2E2E2E2E2E2E2E2E2E2E2E2E2E2E2E2E2E2E2E2E2E2E2E2E2E2E2E2E2E2E2E2E2E2E2E2E2E2E2E2E2E2E2E2E2E2E2E2E2E2E2E2E2E2E2E2E2E2E2E2E2E2E2E2E2E2E2E2E2E2E2E2E2E2E2E2E2E2E2E2E2E2E2E2E2E2E2E2E2E2E2E2E2E2E2
310
E2E2E2E2E2E2E2E2E2E2E2E2E2E2E2E2BEE2E2E2E2E2E2E2E2E2E2E2E2E2E2E2E2E2E2E2E2E2E2E2E2E2E2E2E2E2E2E2E2E2E2E2E2E2E2E2E2E2E2E2E2E2E2E2E2E2E2E2E2E2E2E2E2E2E2E2E2E2E2E2E2E2E2E2E2E2E2BEE2E2E2E2E2E2E2E2E2E2E2E2E2E2E2E2E2E2E2E2E2E2E2E2E2E2E2E2E2E2E2E2E2E2E2E2E2E2E2
310
E2E2E2E2E2E2E2E2E2E2E2E2E2E2E2E2E2E2E2E2E2E2E2E2E2E2E2E2E2E2E2E2E2E2E2E2E2E2E2E2E2E2E2E2E2E2E2E2E2E2E2E2E2E2E2E2E2E2E2E2E2E2E2E2E2E2E2E2E2E2E2E2E2E2E2E2E2E2E2E2E2E2E2E2E2E2E2E2E2E2E2E2E2E2E2E2E2E2E2E2E2E2E2E2E2E2E2E2E2E2E2E2E2E2E2E2E2E2E2E2E2E2E2E2E2E2E2
310
E2E2E2E2E2E2E2E2E2E2E2E2E2E2E2E2E2E2BEE2E2E2E2E2E2E2E2E2E2E2E2E2E2E2E2E2E2E2E2E2E2E2E2E2E2E2E2E2E2E2E2E2E2E2E2E2E2E2E2E2E2E2E2E2E2E2E2E2E2E2E2E2E2E2E2E2E2E2E2E2E2E2E2E2E2E2E2E2E2BEBEBEBEBEBEBEBEBEBEBEBEBEBEBEBEBEBEBEBEBEBEBEBEBEBEBEBEBEBEBEBEBEBEBEBEBEBE
310
BEBEBEBEBEBEBEBEBEBEBEBEBEBEBEBEBEBEBEBEBEBEBEBEBEBEBEBEBEBEBEBEBEBEBEBEBEBEBEBEBEBEBEBEBEBEBEBEBEBEBEBEBEBEBEBEBEBEBEBEBEBEBEBEBEBEBEBEBEBEBEBEBEBEBEBEBEBEBEBEBEBEBEBEBEBEBEBEBEBEBEBEBEBEBEBEBEBEBEBEBEBEBEBEBEBEBEBEBEBEBEBEBEBEBEBEBEBEBEBEBEBEBEBEBEBEBE
310
BEBEBEBEBEBEBEBEBEBEBEBEBEBEBEBEBEBEBEBEBEE2E2E2E2E2E2E2E2E2E2E2E2E2E2E2E2E2E2E2E2E2E2E2E2E2E2E2E2E2E2E2E2E2E2E2E2E2E2E2E2E2E2E2E2E2E2E2E2E2E2E2E2E2E2E2E2E2E2E2E2E2E2E2E2E2E2E2E2E2E2E2E2E2E2E2E2E2E2E2E2E2E2E2E2E2E2E2E2E2E2E2E2E2E2E2E2E2E2E2E2E2E2E2E2E2E2
310
E2E2E2E2E2E2E2E2E2E2E2E2E2E2E2E2E2E2E2E2E2E2E2E2E2E2E2E2E2E2E2E2E2E2E2E2E2E2E2E2E2E2E2E2E2E2E2E2E2E2E2E2E2E2E2E2E2E2E2E2E2E2E2E2E2E2E2E2E2E2E2E2E2E2E2E2E2E2E2E2E2E2E2E2E2E2E2E2E2E2E2E2E2E2E2E2E2E2E2E2E2E2E2E2E2E2E2E2E2E2E2E2E2E2E2E2E2E2E2E2E2E2E2E2E2E2E2
310
E2E2E2E2E2E2E2E2E2E2E2E2E2E2E2E2E2E2E2E2E2E2E2E2E2E2E2E2E2E2E2E2E2E2E2E2E2E2E2E2E2E2E2E2E2E2E2E2E2E2E2E2E2E2E2E2E2E2
  0
XRECORD
  5
F
102
{ACAD_REACTORS
330
E
102
}
330
E
100
AcDbXrecord
280
     1
270
     1
271
     1
  0
XRECORD
  5
10
102
{ACAD_REACTORS
330
E
102
}
330
E
100
AcDbXrecord
280
     1
270
     1
271
     1
  0
XRECORD
  5
11
102
{ACAD_REACTORS
330
E
102
}
330
E
100
AcDbXrecord
280
     1
270
     1
271
     1
  0
XRECORD
  5
12
102
{ACAD_REACTORS
330
E
102
}
330
E
100
AcDbXrecord
280
     1
270
     1
271
     1
  0
CELLSTYLEMAP
  5
43C
102
{ACAD_REACTORS
330
42
102
}
330
42
100
AcDbCellStyleMap
 90
        3
300
CELLSTYLE
  1
TABLEFORMAT_BEGIN
 90
        5
170
     1
 91
        0
 92
    32768
 62
   257
 93
        1
300
CONTENTFORMAT
  1
CONTENTFORMAT_BEGIN
 90
        0
 91
        0
 92
      512
 93
        0
300

 40
0.0
140
1.0
 94
        5
 62
     0
340
25
144
6.0
309
CONTENTFORMAT_END
171
     1
301
MARGIN
  1
CELLMARGIN_BEGIN
 40
1.5
 40
1.5
 40
1.5
 40
1.5
 40
4.5
 40
4.5
309
CELLMARGIN_END
 94
        6
 95
        1
302
GRIDFORMAT
  1
GRIDFORMAT_BEGIN
 90
        0
 91
        1
 62
     0
 92
       -2
340
28
 93
        0
 40
1.125
309
GRIDFORMAT_END
 95
        2
302
GRIDFORMAT
  1
GRIDFORMAT_BEGIN
 90
        0
 91
        1
 62
     0
 92
       -2
340
28
 93
        0
 40
1.125
309
GRIDFORMAT_END
 95
        4
302
GRIDFORMAT
  1
GRIDFORMAT_BEGIN
 90
        0
 91
        1
 62
     0
 92
       -2
340
28
 93
        0
 40
1.125
309
GRIDFORMAT_END
 95
        8
302
GRIDFORMAT
  1
GRIDFORMAT_BEGIN
 90
        0
 91
        1
 62
     0
 92
       -2
340
28
 93
        0
 40
1.125
309
GRIDFORMAT_END
 95
       16
302
GRIDFORMAT
  1
GRIDFORMAT_BEGIN
 90
        0
 91
        1
 62
     0
 92
       -2
340
28
 93
        0
 40
1.125
309
GRIDFORMAT_END
 95
       32
302
GRIDFORMAT
  1
GRIDFORMAT_BEGIN
 90
        0
 91
        1
 62
     0
 92
       -2
340
28
 93
        0
 40
1.125
309
GRIDFORMAT_END
309
TABLEFORMAT_END
  1
CELLSTYLE_BEGIN
 90
        1
 91
        1
300
_TITLE
309
CELLSTYLE_END
300
CELLSTYLE
  1
TABLEFORMAT_BEGIN
 90
        5
170
     1
 91
        0
 92
        0
 62
   257
 93
        1
300
CONTENTFORMAT
  1
CONTENTFORMAT_BEGIN
 90
        0
 91
        0
 92
      512
 93
        0
300

 40
0.0
140
1.0
 94
        5
 62
     0
340
25
144
4.5
309
CONTENTFORMAT_END
171
     1
301
MARGIN
  1
CELLMARGIN_BEGIN
 40
1.5
 40
1.5
 40
1.5
 40
1.5
 40
4.5
 40
4.5
309
CELLMARGIN_END
 94
        6
 95
        1
302
GRIDFORMAT
  1
GRIDFORMAT_BEGIN
 90
        0
 91
        1
 62
     0
 92
       -2
340
28
 93
        0
 40
1.125
309
GRIDFORMAT_END
 95
        2
302
GRIDFORMAT
  1
GRIDFORMAT_BEGIN
 90
        0
 91
        1
 62
     0
 92
       -2
340
28
 93
        0
 40
1.125
309
GRIDFORMAT_END
 95
        4
302
GRIDFORMAT
  1
GRIDFORMAT_BEGIN
 90
        0
 91
        1
 62
     0
 92
       -2
340
28
 93
        0
 40
1.125
309
GRIDFORMAT_END
 95
        8
302
GRIDFORMAT
  1
GRIDFORMAT_BEGIN
 90
        0
 91
        1
 62
     0
 92
       -2
340
28
 93
        0
 40
1.125
309
GRIDFORMAT_END
 95
       16
302
GRIDFORMAT
  1
GRIDFORMAT_BEGIN
 90
        0
 91
        1
 62
     0
 92
       -2
340
28
 93
        0
 40
1.125
309
GRIDFORMAT_END
 95
       32
302
GRIDFORMAT
  1
GRIDFORMAT_BEGIN
 90
        0
 91
        1
 62
     0
 92
       -2
340
28
 93
        0
 40
1.125
309
GRIDFORMAT_END
309
TABLEFORMAT_END
  1
CELLSTYLE_BEGIN
 90
        2
 91
        1
300
_HEADER
309
CELLSTYLE_END
300
CELLSTYLE
  1
TABLEFORMAT_BEGIN
 90
        5
170
     1
 91
        0
 92
        0
 62
   257
 93
        1
300
CONTENTFORMAT
  1
CONTENTFORMAT_BEGIN
 90
        0
 91
        0
 92
      512
 93
        0
300

 40
0.0
140
1.0
 94
        2
 62
     0
340
25
144
4.5
309
CONTENTFORMAT_END
171
     1
301
MARGIN
  1
CELLMARGIN_BEGIN
 40
1.5
 40
1.5
 40
1.5
 40
1.5
 40
4.5
 40
4.5
309
CELLMARGIN_END
 94
        6
 95
        1
302
GRIDFORMAT
  1
GRIDFORMAT_BEGIN
 90
        0
 91
        1
 62
     0
 92
       -2
340
28
 93
        0
 40
1.125
309
GRIDFORMAT_END
 95
        2
302
GRIDFORMAT
  1
GRIDFORMAT_BEGIN
 90
        0
 91
        1
 62
     0
 92
       -2
340
28
 93
        0
 40
1.125
309
GRIDFORMAT_END
 95
        4
302
GRIDFORMAT
  1
GRIDFORMAT_BEGIN
 90
        0
 91
        1
 62
     0
 92
       -2
340
28
 93
        0
 40
1.125
309
GRIDFORMAT_END
 95
        8
302
GRIDFORMAT
  1
GRIDFORMAT_BEGIN
 90
        0
 91
        1
 62
     0
 92
       -2
340
28
 93
        0
 40
1.125
309
GRIDFORMAT_END
 95
       16
302
GRIDFORMAT
  1
GRIDFORMAT_BEGIN
 90
        0
 91
        1
 62
     0
 92
       -2
340
28
 93
        0
 40
1.125
309
GRIDFORMAT_END
 95
       32
302
GRIDFORMAT
  1
GRIDFORMAT_BEGIN
 90
        0
 91
        1
 62
     0
 92
       -2
340
28
 93
        0
 40
1.125
309
GRIDFORMAT_END
309
TABLEFORMAT_END
  1
CELLSTYLE_BEGIN
 90
        3
 91
        2
300
_DATA
309
CELLSTYLE_END
  0
ENDSEC
  0
EOF
